<?xml version="1.0" standalone="no"?>
<!DOCTYPE svg PUBLIC "-//W3C//DTD SVG 1.1//EN" "http://www.w3.org/Graphics/SVG/1.1/DTD/svg11.dtd" >
<svg xmlns="http://www.w3.org/2000/svg" xmlns:xlink="http://www.w3.org/1999/xlink" version="1.1">
<metadata></metadata>
<defs>
<font id="mazeletterboxwood" horiz-adv-x="2048" >
<font-face units-per-em="2048" ascent="1536" descent="-512" />
<missing-glyph horiz-adv-x="512" />
<glyph horiz-adv-x="0" />
<glyph horiz-adv-x="0" />
<glyph unicode=" "  horiz-adv-x="512" />
<glyph unicode="&#x09;" horiz-adv-x="512" />
<glyph unicode="&#xa0;" horiz-adv-x="512" />
<glyph unicode="!" horiz-adv-x="1024" d="M-4 -129v258v2l893 893l-381 381v4v256q0 2 2 4q4 0 6 -2l512 -512v-2v-256v-4l-1024 -1024q-2 -2 -4 -2h-2q-2 2 -2 4zM-4 -381l1024 1024q2 2 6 2l2 -4v-256v-4l-1024 -1024q-2 -2 -4 -2h-2q-2 2 -2 4v256v4zM-4 385v256v2l381 381l-381 381v4v256q0 2 2 4q4 0 6 -2 l512 -512v-2v-256v-4l-512 -512q-2 -2 -4 -2h-2q-2 2 -2 6zM508 -381l512 512q2 2 6 2l2 -4v-258v-2l-512 -512q-2 -2 -4 -2h-2q-2 2 -2 4v256v4z" />
<glyph unicode="&#x22;" d="M-4 -129v258v2l381 381l-381 381v4v256q0 2 2 4q4 0 6 -2l512 -512v-2v-256v-4l-512 -512q-2 -2 -4 -2h-2q-2 2 -2 4zM-4 1405v4v256q0 2 2 4q4 0 6 -2l1024 -1024v-2v-256v-4l-637 -637l125 -125v-4v-256q0 -2 -2 -4h-2q-2 0 -4 2l-256 256v2v256v4l637 637zM508 1405v4 v256q0 2 2 4q4 0 6 -2l764 -764l121 121l-381 381v4v256q0 2 2 4q4 0 6 -2l1024 -1024v-2v-256q0 -4 -2 -6h-2q-2 0 -4 2l-508 508l-252 -252q-4 -4 -8 0zM764 -125l768 768q4 4 8 0l256 -256v-2v-256v-4l-768 -768q-2 -2 -4 -2h-2q-2 2 -2 4v256v4l637 637l-121 121 l-764 -764q-2 -2 -6 -2q-2 2 -2 4v256v4zM1532 1405v4v256q0 2 2 4q4 0 6 -2l512 -512v-2v-256q0 -4 -2 -6h-2q-2 0 -4 2zM1788 -125l256 256q2 2 6 2q2 -2 2 -4v-258v-2l-125 -125l125 -125v-4v-256q0 -2 -2 -4h-2q-2 0 -4 2l-256 256v2v256v4z" />
<glyph unicode="#" d="M-4 -129v258v2l125 125l-125 125v4v256q0 2 2 4q4 0 6 -2l256 -256v-2v-256v-4l-256 -256q-2 -2 -4 -2h-2q-2 2 -2 4zM-4 -381l637 637l-637 637v4v256q0 2 2 4q4 0 6 -2l764 -764l377 377l-637 637v4v256q0 2 2 4q4 0 6 -2l764 -764l764 764q2 2 6 2l2 -4v-256v-4 l-637 -637l377 -377l252 252q2 2 6 2l2 -4v-256v-4l-125 -125l125 -125v-2v-258q0 -2 -2 -4q-4 0 -6 2l-252 252l-377 -377l125 -125v-4v-256q0 -2 -2 -4h-2q-2 0 -4 2l-252 252l-252 -252q-2 -2 -6 -2q-2 2 -2 4v256v4l125 125l-377 377l-764 -764q-2 -2 -6 -2q-2 2 -2 4 v256v4zM-4 1405v4v256q0 2 2 4q4 0 6 -2l768 -768v-2v-256q0 -4 -2 -6h-2q-2 0 -4 2zM508 -381l256 256q2 2 6 2q2 -2 2 -6v-256v-2l-256 -256q-2 -2 -4 -2h-2q-2 2 -2 4v256v4zM903 256l377 -377l377 377l-377 377zM1020 1405v4v256q0 2 2 4q4 0 6 -2l252 -252l252 252 q2 2 6 2l2 -4v-256v-4l-256 -256q-2 -2 -4 -2t-4 2zM1788 -129q0 4 2 6q4 0 6 -2l256 -256v-4v-256q0 -2 -2 -4h-2q-2 0 -4 2l-256 256v2v256zM1788 641v256v2l256 256q2 2 6 2l2 -4v-256v-4l-256 -256q-2 -2 -4 -2h-2q-2 2 -2 6z" />
<glyph unicode="$" d="M-4 -381l381 381l-381 381v4v256q0 2 2 4q4 0 6 -2l252 -252l121 121l-381 381v4v256v2l512 512q4 4 8 0l252 -252l252 252q2 2 6 2l2 -4v-256v-4l-256 -256q-4 -4 -8 0l-252 252l-377 -377l381 -381v-2v-256v-4l-125 -125l381 -381v-4v-256q0 -2 -2 -4q-4 0 -6 2 l-252 252l-508 -508q-2 -2 -4 -2h-2q-2 2 -2 4v256v4zM508 893v4v256q0 2 2 4q4 0 6 -2l252 -252l252 252q4 4 8 0l256 -256v-2v-256q0 -4 -2 -6q-4 0 -6 2l-252 252l-121 -121l889 -889l252 252q2 2 6 2l2 -4v-258v-2l-512 -512q-4 -4 -8 0l-252 252l-252 -252q-2 -2 -4 -2 h-2q-2 2 -2 4v256v4l256 256q4 4 8 0l252 -252l121 121l-377 377l-252 -252q-4 -4 -8 0l-256 256v4v256q0 2 2 4q4 0 6 -2l252 -252l121 121zM1276 1149v4v256q0 2 2 4q4 0 6 -2l252 -252l508 508q2 2 6 2l2 -4v-256v-4l-381 -381l125 -125v-2v-256v-4l-125 -125l125 -125 v-2v-256q0 -4 -2 -6h-2q-2 0 -4 2l-256 256v4v256v2l125 125z" />
<glyph unicode="%" d="M-4 -129v258v2l125 125l-125 125v4v256q0 2 2 4q4 0 6 -2l256 -256v-2v-256v-4l-256 -256q-2 -2 -4 -2h-2q-2 2 -2 4zM-4 -381l512 512q4 4 8 0l508 -508l252 252q4 4 8 0l252 -252l508 508q2 2 6 2l2 -4v-258v-2l-512 -512q-4 -4 -8 0l-252 252l-252 -252q-4 -4 -8 0 l-508 508l-508 -508q-2 -2 -4 -2h-2q-2 2 -2 4v256v4zM-4 893v4v256q0 2 2 4q4 0 6 -2l508 -508l252 252q4 4 8 0l256 -256v-2v-256v-4l-125 -125l125 -125v-2v-258q0 -2 -2 -4h-2q-2 0 -4 2l-256 256v4v256v2l125 125l-121 121l-252 -252q-4 -4 -8 0zM252 1149v4v256v2 l256 256q4 4 8 0l256 -256v-2v-256v-4l-256 -256q-2 -2 -4 -2t-4 2zM391 1280l121 -121l121 121l-121 121zM1020 897v256v2l125 125l-125 125v4v256q0 2 2 4q4 0 6 -2l256 -256v-2v-256v-4l-256 -256q-2 -2 -4 -2h-2q-2 2 -2 6zM1276 125v4v256v2l256 256q4 4 8 0l256 -256 v-2v-256v-4l-256 -256q-2 -2 -4 -2t-4 2zM1276 641v256v2l256 272q2 0 2 1.5t2 1.5t2 -1.5t2 -1.5l512 -528v-2v-256q0 -4 -2 -6h-2q-2 0 -4 2l-508 524l-252 -268q-2 -2 -6 -2q-2 2 -2 6zM1415 256l121 -121l121 121l-121 121zM1788 1149v4v256v2l256 256q2 2 6 2l2 -4 v-256v-4l-125 -125l125 -125v-2v-256q0 -4 -2 -6h-2q-2 0 -4 2z" />
<glyph unicode="&#x26;" d="M-4 -129v258q0 2 2 4q4 0 6 -2l508 -508l121 121l-637 637v4v256v2l256 256q4 4 8 0l1276 -1276l508 508q2 2 6 2l2 -4v-258v-2l-512 -512q-2 -2 -4 -2t-4 2l-1276 1276l-121 -121l637 -637v-4v-256v-2l-256 -256q-4 -4 -8 0l-512 512v2zM-4 1405v4v256q0 2 2 4q4 0 6 -2 l1532 -1532l121 121l-893 893v4v256v2l256 256q4 4 8 0l764 -764l121 121l-381 381v4v256q0 2 2 4q4 0 6 -2l512 -512v-2v-256v-4l-256 -256q-4 -4 -8 0l-764 764l-121 -121l893 -893v-2v-256v-4l-256 -256q-2 -2 -4 -2t-4 2z" />
<glyph unicode="'" d="M-4 -129v258v2l381 381l-381 381v4v256q0 2 2 4q4 0 6 -2l512 -512v-2v-256v-4l-512 -512q-2 -2 -4 -2h-2q-2 2 -2 4zM-4 -381l893 893l-637 637v4v256v2l256 256q2 2 6 2q2 -2 2 -4v-256v-4l-125 -125l637 -637v-2v-256v-4l-1024 -1024q-2 -2 -4 -2h-2q-2 2 -2 4v256v4z M508 -381l768 768q4 4 8 0l252 -252l508 508q2 2 6 2q2 -2 2 -4v-256v-4l-1024 -1024q-2 -2 -4 -2h-2q-2 2 -2 4v256v4l381 381l-121 121l-764 -764q-2 -2 -6 -2q-2 2 -2 4v256v4zM764 1149v4v256q0 2 2 4q4 0 6 -2l764 -764l121 121l-637 637v4v256q0 2 2 4q4 0 6 -2 l768 -768v-2v-256v-4l-256 -256q-2 -2 -4 -2t-4 2zM1532 -381l512 512q2 2 6 2q2 -2 2 -4v-258v-2l-512 -512q-2 -2 -4 -2h-2q-2 2 -2 4v256v4zM1788 1149v4v256v2l256 256q2 2 6 2q2 -2 2 -4v-256v-4l-125 -125l125 -125v-2v-256q0 -4 -2 -6h-2q-2 0 -4 2z" />
<glyph unicode="(" horiz-adv-x="512" d="M-4 -129v258q0 2 2 4q4 0 6 -2l256 -256v-4v-256v-2l-256 -256q-2 -2 -4 -2h-2q-2 2 -2 4v256v4l125 125l-125 125v2zM-4 381v4v256v2l512 512q2 2 6 2l2 -4v-256v-4l-381 -381l381 -381v-2v-258q0 -2 -2 -4h-2q-2 0 -4 2zM-4 897v256v2l125 125l-125 125v4v256q0 2 2 4 q4 0 6 -2l256 -256v-2v-256v-4l-256 -256q-2 -2 -4 -2h-2q-2 2 -2 6z" />
<glyph unicode=")" horiz-adv-x="512" d="M-4 -129v258v2l381 381l-381 381v4v256q0 2 2 4q4 0 6 -2l512 -512v-2v-256v-4l-512 -512q-2 -2 -4 -2h-2q-2 2 -2 4zM252 -125l256 256q2 2 6 2l2 -4v-258v-2l-125 -125l125 -125v-4v-256q0 -2 -2 -4h-2q-2 0 -4 2l-256 256v2v256v4zM252 1149v4v256v2l256 256q2 2 6 2 l2 -4v-256v-4l-125 -125l125 -125v-2v-256q0 -4 -2 -6h-2q-2 0 -4 2z" />
<glyph unicode="*" d="M-4 -129v258v2l125 125l-125 125v4v256q0 2 2 4q4 0 6 -2l256 -256v-2v-256v-4l-256 -256q-2 -2 -4 -2h-2q-2 2 -2 4zM-4 -381l1280 1280q2 2 6 2l2 -4v-256v-4l-1280 -1280q-2 -2 -4 -2h-2q-2 2 -2 4v256v4zM-4 897v256v2l256 256q2 2 6 2l2 -4v-256v-4l-256 -256 q-2 -2 -4 -2h-2q-2 2 -2 6zM252 637v4v256v2l256 256q4 4 8 0l256 -256v-2v-256q0 -4 -2 -6q-4 0 -6 2l-252 252l-121 -121l125 -125v-2v-256q0 -4 -2 -6h-2q-2 0 -4 2zM508 1405v4v256q0 2 2 4q4 0 6 -2l256 -256v-2v-256q0 -4 -2 -6h-2q-2 0 -4 2zM764 -125l256 256 q2 2 6 2l2 -4v-258v-2l-125 -125l125 -125v-4v-256q0 -2 -2 -4h-2q-2 0 -4 2l-256 256v2v256v4zM1020 897v256v2l256 256q2 2 6 2l2 -4v-256v-4l-256 -256q-2 -2 -4 -2h-2q-2 2 -2 6zM1276 125v4v256q0 2 2 4q4 0 6 -2l768 -768v-4v-256q0 -2 -2 -4h-2q-2 0 -4 2zM1276 -129 q0 4 2 6q4 0 6 -2l256 -256v-4v-256q0 -2 -2 -4h-2q-2 0 -4 2l-256 256v2v256zM1532 381v4v256v2l125 125l-125 125v4v256q0 2 2 4q4 0 6 -2l256 -256v-2v-256v-4l-125 -125l125 -125v-2v-256q0 -4 -2 -6h-2q-2 0 -4 2zM1532 1405v4v256q0 2 2 4q4 0 6 -2l256 -256v-2v-256 q0 -4 -2 -6h-2q-2 0 -4 2z" />
<glyph unicode="+" horiz-adv-x="512" d="M-4 -129v258v2l125 125l-125 125v4v256q0 2 2 4q4 0 6 -2l256 -256v-2v-256v-4l-256 -256q-2 -2 -4 -2h-2q-2 2 -2 4zM-4 897v256v2l125 125l-125 125v4v256q0 2 2 4q4 0 6 -2l256 -256v-2v-256v-4l-256 -256q-2 -2 -4 -2h-2q-2 2 -2 6zM252 -125l256 256q2 2 6 2l2 -4 v-258v-2l-125 -125l125 -125v-4v-256q0 -2 -2 -4h-2q-2 0 -4 2l-256 256v2v256v4zM252 637v4v256v2l256 256q2 2 6 2l2 -4v-256v-4l-125 -125l125 -125v-2v-256q0 -4 -2 -6h-2q-2 0 -4 2z" />
<glyph unicode="," horiz-adv-x="512" d="M-4 -129v258v2l125 125l-125 125v4v256q0 2 2 4q4 0 6 -2l256 -256v-2v-256v-4l-256 -256q-2 -2 -4 -2h-2q-2 2 -2 4zM-4 -381l512 512q2 2 6 2l2 -4v-258v-2l-512 -512q-2 -2 -4 -2h-2q-2 2 -2 4v256v4zM-4 893v4v256q0 2 2 4q4 0 6 -2l512 -512v-2v-256q0 -4 -2 -6h-2 q-2 0 -4 2zM252 1149v4v256v2l256 256q2 2 6 2l2 -4v-256v-4l-125 -125l125 -125v-2v-256q0 -4 -2 -6h-2q-2 0 -4 2z" />
<glyph unicode="-" horiz-adv-x="512" d="M-4 -121v258v2l512 512q2 2 6 2l2 -4v-256v-4l-512 -512q-2 -2 -4 -2h-2q-2 2 -2 4zM-4 393v256v2l512 512q2 2 6 2l2 -4v-256v-4l-512 -512q-2 -2 -4 -2h-2q-2 2 -2 6zM-4 905v256v2l125 125l-125 125v4v256q0 2 2 4q4 0 6 -2l256 -256v-2v-256v-4l-256 -256 q-2 -2 -4 -2h-2q-2 2 -2 6zM252 -117l256 256q2 2 6 2l2 -4v-258v-2l-125 -125l125 -125v-4v-256q0 -2 -2 -4h-2q-2 0 -4 2l-256 256v2v256v4z" />
<glyph unicode="." horiz-adv-x="512" d="M-4 -381l381 381l-381 381v4v256v2l381 381l-381 381v4v256q0 2 2 4q4 0 6 -2l512 -512v-2v-256v-4l-381 -381l381 -381v-2v-258v-2l-512 -512q-2 -2 -4 -2h-2q-2 2 -2 4v256v4z" />
<glyph unicode="/" horiz-adv-x="1024" d="M-4 -129v258q0 2 2 4q4 0 6 -2l512 -512v-4v-256q0 -2 -2 -4h-2q-2 0 -4 2l-512 512v2zM-4 385v256v2l125 125l-125 125v4v256q0 2 2 4q4 0 6 -2l256 -256v-2v-256v-4l-256 -256q-2 -2 -4 -2h-2q-2 2 -2 6zM-4 1405v4v256q0 2 2 4q4 0 6 -2l768 -768v-2v-256v-4 l-381 -381l637 -637v-4v-256q0 -2 -2 -4h-2q-2 0 -4 2l-768 768v4v256v2l381 381zM508 1405v4v256q0 2 2 4q4 0 6 -2l512 -512v-2v-256q0 -4 -2 -6h-2q-2 0 -4 2zM764 125v4v256v2l256 256q2 2 6 2l2 -4v-256v-4l-125 -125l125 -125v-2v-258q0 -2 -2 -4h-2q-2 0 -4 2z" />
<glyph unicode="0" d="M-4 -129v258v2l256 256q4 4 8 0l768 -768v-4v-256q0 -2 -2 -4h-2q-2 0 -4 2l-764 764l-252 -252q-2 -2 -6 -2q-2 2 -2 4zM-4 -381l256 256q4 4 8 0l256 -256v-4v-256q0 -2 -2 -4h-2q-2 0 -4 2l-252 252l-252 -252q-2 -2 -6 -2q-2 2 -2 4v256v4zM-4 893v4v256q0 2 2 4 q4 0 6 -2l252 -252l764 764q2 2 6 2l2 -4v-256v-4l-768 -768q-2 -2 -4 -2t-4 2zM-4 1405v4v256q0 2 2 4q4 0 6 -2l252 -252l252 252q2 2 6 2l2 -4v-256v-4l-256 -256q-2 -2 -4 -2t-4 2zM508 381v4v256v2l768 768q4 4 8 0l768 -768v-2v-256v-4l-768 -768q-2 -2 -4 -2t-4 2z M647 512l633 -633l633 633l-633 633zM1020 381v4v256v2l256 256q4 4 8 0l256 -256v-2v-256v-4l-256 -256q-2 -2 -4 -2t-4 2zM1159 512l121 -121l121 121l-121 121zM1532 -381l512 512q2 2 6 2l2 -4v-258v-2l-512 -512q-2 -2 -4 -2h-2q-2 2 -2 4v256v4zM1532 1405v4v256 q0 2 2 4q4 0 6 -2l512 -512v-2v-256q0 -4 -2 -6h-2q-2 0 -4 2z" />
<glyph unicode="1" d="M-4 -129v258v2l1536 1536q2 2 6 2l2 -4v-256v-4l-1536 -1536q-2 -2 -4 -2h-2q-2 2 -2 4zM-4 -381l1536 1536q2 2 6 2l2 -4v-256v-4l-1536 -1536q-2 -2 -4 -2h-2q-2 2 -2 4v256v4zM-4 385v256v2l256 256q2 2 6 2l2 -4v-256v-4l-256 -256q-2 -2 -4 -2h-2q-2 2 -2 6zM-4 897 v256v2l512 512q2 2 6 2l2 -4v-256v-4l-512 -512q-2 -2 -4 -2h-2q-2 2 -2 6zM508 -381l256 256q2 2 6 2q2 -2 2 -6v-256v-2l-256 -256q-2 -2 -4 -2h-2q-2 2 -2 4v256v4zM508 897v256v2l512 512q2 2 6 2l2 -4v-256v-4l-512 -512q-2 -2 -4 -2h-2q-2 2 -2 6zM1020 -129v258v2 l1024 1024q2 2 6 2l2 -4v-256v-4l-1024 -1024q-2 -2 -4 -2h-2q-2 2 -2 4zM1020 -381l1024 1024q2 2 6 2l2 -4v-256v-4l-1024 -1024q-2 -2 -4 -2h-2q-2 2 -2 4v256v4zM1532 -381l512 512q2 2 6 2l2 -4v-258v-2l-512 -512q-2 -2 -4 -2h-2q-2 2 -2 4v256v4zM1788 1153v256v2 l256 256q2 2 6 2l2 -4v-256v-4l-256 -256q-2 -2 -4 -2h-2q-2 2 -2 6z" />
<glyph unicode="2" d="M-4 -129v258v2l381 381l-125 125v4v256q0 2 2 4q4 0 6 -2l252 -252l377 377l-125 125v4v256q0 2 2 4q4 0 6 -2l252 -252l508 508q4 4 8 0l256 -256v-2v-256q0 -4 -2 -6q-4 0 -6 2l-252 252l-377 -377l125 -125v-2v-256q0 -4 -2 -6q-4 0 -6 2l-252 252l-377 -377l125 -125 v-2v-256q0 -4 -2 -6q-4 0 -6 2l-252 252l-377 -377l125 -125v-4v-256q0 -2 -2 -4h-2q-2 0 -4 2l-256 256v2zM-4 897v256v2l125 125l-125 125v4v256q0 2 2 4q4 0 6 -2l252 -252l252 252q2 2 6 2l2 -4v-256v-4l-125 -125l125 -125v-2v-256q0 -4 -2 -6h-2q-2 0 -4 2l-252 252 l-252 -252q-2 -2 -6 -2q-2 2 -2 6zM508 -129v258q0 2 2 4q4 0 6 -2l252 -252l377 377l-125 125v4v256q0 2 2 4q4 0 6 -2l252 -252l377 377l-125 125v4v256q0 2 2 4q4 0 6 -2l252 -252l252 252q2 2 6 2l2 -4v-256v-4l-125 -125l125 -125v-2v-256q0 -4 -2 -6q-4 0 -6 2 l-252 252l-377 -377l125 -125v-2v-258q0 -2 -2 -4q-4 0 -6 2l-252 252l-377 -377l125 -125v-4v-256q0 -2 -2 -4h-2q-2 0 -4 2l-252 252l-252 -252q-2 -2 -6 -2q-2 2 -2 4v256v4l125 125l-125 125v2zM1276 -129q0 4 2 6q4 0 6 -2l252 -252l377 377l-125 125v4v256q0 2 2 4 q4 0 6 -2l256 -256v-2v-258v-2l-512 -512q-2 -2 -4 -2t-4 2l-256 256v2v256z" />
<glyph unicode="3" d="M-4 -129v258q0 2 2 4q4 0 6 -2l252 -252l121 121l-381 381v4v256q0 2 2 4q4 0 6 -2l508 -508l121 121l-637 637v4v256q0 2 2 4q4 0 6 -2l768 -768v-2v-256v-4l-768 -768q-2 -2 -4 -2h-2q-2 2 -2 4v256v4l125 125l-125 125v2zM-4 1405v4v256q0 2 2 4q4 0 6 -2l1020 -1020 l121 121l-637 637v4v256q0 2 2 4q4 0 6 -2l764 -764l121 121l-381 381v4v256q0 2 2 4q4 0 6 -2l508 -508l121 121l-125 125v4v256q0 2 2 4q4 0 6 -2l252 -252l252 252q2 2 6 2l2 -4v-256v-4l-1024 -1024q-2 -2 -4 -2t-4 2zM508 -381l1536 1536q2 2 6 2l2 -4v-256v-4 l-1536 -1536q-2 -2 -4 -2h-2q-2 2 -2 4v256v4zM1020 -381l1024 1024q2 2 6 2l2 -4v-256v-4l-1024 -1024q-2 -2 -4 -2h-2q-2 2 -2 4v256v4zM1532 -381l512 512q2 2 6 2l2 -4v-258v-2l-512 -512q-2 -2 -4 -2h-2q-2 2 -2 4v256v4z" />
<glyph unicode="4" d="M-4 -129v258v2l512 512q4 4 8 0l512 -512v-2v-258v-2l-125 -125l125 -125v-4v-256q0 -2 -2 -4h-2q-2 0 -4 2l-252 252l-252 -252q-4 -4 -8 0l-512 512v2zM-4 385v256v2l1024 1024q4 4 8 0l252 -252l252 252q4 4 8 0l512 -512v-2v-256v-4l-512 -512q-4 -4 -8 0l-512 512v4 v256v2l125 125l-121 121l-377 -377l889 -889l508 508q2 2 6 2l2 -4v-256v-4l-381 -381l381 -381v-4v-256q0 -2 -2 -4h-2q-2 0 -4 2l-508 508l-252 -252q-2 -2 -6 -2q-2 2 -2 4v256v4l125 125l-889 889l-508 -508q-2 -2 -6 -2q-2 2 -2 6zM-4 1405v4v256q0 2 2 4q4 0 6 -2 l256 -256v-2v-256q0 -4 -2 -6h-2q-2 0 -4 2zM135 0l377 -377l377 377l-377 377zM1159 1024l377 -377l377 377l-377 377z" />
<glyph unicode="5" d="M-4 -129v258v2l125 125l-125 125v4v256q0 2 2 4q4 0 6 -2l256 -256v-2v-256v-4l-256 -256q-2 -2 -4 -2h-2q-2 2 -2 4zM-4 897v256v2l512 512q2 2 6 2l2 -4v-256v-4l-512 -512q-2 -2 -4 -2h-2q-2 2 -2 6zM252 -125l256 256q4 4 8 0l252 -252l508 508q2 2 6 2l2 -4v-256v-4 l-381 -381l125 -125v-4v-256q0 -2 -2 -4h-2q-2 0 -4 2l-508 508l-121 -121l125 -125v-4v-256q0 -2 -2 -4q-4 0 -6 2l-256 256v2v256v4zM252 637v4v256v2l768 768q2 2 6 2l2 -4v-256v-4l-637 -637l377 -377l508 508q4 4 8 0l512 -512v-2v-256v-4l-512 -512q-2 -2 -4 -2h-2 q-2 2 -2 4v256v4l381 381l-377 377l-508 -508q-4 -4 -8 0zM764 641v256v2l768 768q2 2 6 2l2 -4v-256v-4l-125 -125l121 -121l508 508q2 2 6 2l2 -4v-256v-4l-512 -512q-4 -4 -8 0l-252 252l-508 -508q-2 -2 -4 -2h-2q-2 2 -2 6zM1532 -381l512 512q2 2 6 2l2 -4v-258v-2 l-512 -512q-2 -2 -4 -2h-2q-2 2 -2 4v256v4zM1788 637v4v256v2l256 256q2 2 6 2l2 -4v-256v-4l-125 -125l125 -125v-2v-256q0 -4 -2 -6h-2q-2 0 -4 2z" />
<glyph unicode="6" d="M-4 -129v258q0 2 2 4q4 0 6 -2l256 -256v-4v-256v-2l-256 -256q-2 -2 -4 -2h-2q-2 2 -2 4v256v4l125 125l-125 125v2zM-4 385v256v2l381 381l-121 121l-252 -252q-2 -2 -6 -2q-2 2 -2 6v256v2l256 256q4 4 8 0l256 -256v-2v-256v-4l-512 -512q-2 -2 -4 -2h-2q-2 2 -2 6z M252 125v4v256v2l256 256q4 4 8 0l256 -256v-2v-256v-4l-256 -256q-2 -2 -4 -2t-4 2zM391 256l121 -121l121 121l-121 121zM508 -381l256 256q4 4 8 0l256 -256v-4v-256q0 -2 -2 -4h-2q-2 0 -4 2l-252 252l-252 -252q-2 -2 -6 -2q-2 2 -2 4v256v4zM508 1405v4v256q0 2 2 4 q4 0 6 -2l252 -252l252 252q2 2 6 2l2 -4v-256v-4l-256 -256q-2 -2 -4 -2t-4 2zM764 637v4v256v2l256 256q4 4 8 0l256 -256v-2v-256v-4l-256 -256q-2 -2 -4 -2t-4 2zM903 768l121 -121l121 121l-121 121zM1020 -129v258v2l256 256q4 4 8 0l256 -256v-2v-258v-2l-256 -256 q-2 -2 -4 -2t-4 2l-256 256v2zM1159 0l121 -121l121 121l-121 121zM1276 1149v4v256v2l256 256q2 2 6 2l2 -4v-256v-4l-125 -125l121 -121l508 508q2 2 6 2l2 -4v-256v-4l-512 -512q-2 -2 -4 -2t-4 2zM1532 381v4v256v2l512 512q2 2 6 2l2 -4v-256v-4l-381 -381l121 -121 l252 252q2 2 6 2l2 -4v-256v-4l-256 -256q-2 -2 -4 -2t-4 2zM1532 -381l512 512q2 2 6 2l2 -4v-258v-2l-512 -512q-2 -2 -4 -2h-2q-2 2 -2 4v256v4z" />
<glyph unicode="7" d="M-4 -127v256v2l125 125l-125 125v4v256q0 4 2 4q4 0 6 -2l256 -256v-2v-256v-4l-256 -256q-2 -2 -4 -2h-2q-2 2 -2 6zM-4 -381l637 637l-381 381v4v256v2l768 768q4 4 8 0l252 -252l252 252q2 2 6 2q2 -2 2 -4v-256v-4l-256 -256q-4 -4 -8 0l-252 252l-633 -633l381 -381 v-2v-256v-4l-768 -768q-2 -2 -4 -2h-2q-2 2 -2 6v256v2zM-4 897v256v2l512 512q2 2 6 2q2 -2 2 -4v-256v-4l-512 -512q-2 -2 -4 -2h-2q-2 2 -2 6zM508 -381l637 637l-381 381v4v256v2l256 256q2 2 6 2q2 -2 2 -4v-256v-4l-125 -125l381 -381v-2v-256v-4l-768 -768 q-2 -2 -4 -2h-2q-2 2 -2 6v256v2zM1276 -125l381 381l-381 381v4v256v2l768 768q2 2 6 2q2 -2 2 -4v-256v-4l-637 -637l381 -381v-2v-256v-4l-512 -512q-2 -2 -4 -2h-2q-2 2 -2 6v256v2zM1532 -381l512 512q2 2 6 2q2 -2 2 -4v-256v-4l-512 -512q-2 -2 -4 -2h-2q-2 2 -2 6 v256v2zM1788 637v4v256v2l256 256q2 2 6 2q2 -2 2 -4v-256v-4l-125 -125l125 -125v-2v-256q0 -4 -2 -6h-2q-2 0 -4 2z" />
<glyph unicode="8" d="M-4 -129v258q0 2 2 4q4 0 6 -2l512 -512v-4v-256q0 -2 -2 -4h-2q-2 0 -4 2l-512 512v2zM-4 385v256v2l125 125l-125 125v4v256q0 2 2 4q4 0 6 -2l256 -256v-2v-256v-4l-256 -256q-2 -2 -4 -2h-2q-2 2 -2 6zM-4 1405v4v256q0 2 2 4q4 0 6 -2l508 -508l121 121l-125 125v4 v256q0 2 2 4q4 0 6 -2l256 -256v-2v-256v-4l-256 -256q-2 -2 -4 -2t-4 2zM252 125v4v256v2l256 256q4 4 8 0l512 -512v-2v-258q0 -2 -2 -4q-4 0 -6 2l-508 508l-121 -121l637 -637v-4v-256q0 -2 -2 -4h-2q-2 0 -4 2zM764 637v4v256v2l256 256q4 4 8 0l1024 -1024v-2v-258 q0 -2 -2 -4q-4 0 -6 2l-1020 1020l-121 -121l637 -637v-2v-258v-2l-125 -125l125 -125v-4v-256q0 -2 -2 -4h-2q-2 0 -4 2l-256 256v2v256v4l125 125zM1020 1405v4v256q0 2 2 4q4 0 6 -2l1024 -1024v-2v-256q0 -4 -2 -6h-2q-2 0 -4 2zM1532 1405v4v256q0 2 2 4q4 0 6 -2 l512 -512v-2v-256q0 -4 -2 -6h-2q-2 0 -4 2zM1788 -129q0 4 2 6q4 0 6 -2l256 -256v-4v-256q0 -2 -2 -4h-2q-2 0 -4 2l-256 256v2v256z" />
<glyph unicode="9" d="M-4 -129v258q0 2 2 4q4 0 6 -2l512 -512v-4v-256q0 -2 -2 -4h-2q-2 0 -4 2l-512 512v2zM-4 381v4v256v2l1024 1024q2 2 6 2l2 -4v-256v-4l-893 -893l637 -637v-4v-256q0 -2 -2 -4h-2q-2 0 -4 2zM-4 897v256v2l512 512q2 2 6 2l2 -4v-256v-4l-512 -512q-2 -2 -4 -2h-2 q-2 2 -2 6zM508 381v4v256v2l256 256q2 2 6 2l2 -4v-256v-4l-125 -125l637 -637v-4v-256v-2l-256 -256q-2 -2 -4 -2h-2q-2 2 -2 4v256v4l125 125zM1020 381v4v256v2l256 256q4 4 8 0l768 -768v-2v-258q0 -2 -2 -4q-4 0 -6 2l-764 764l-121 -121l893 -893v-4v-256q0 -2 -2 -4 h-2q-2 0 -4 2zM1020 897v256v2l256 256q4 4 8 0l768 -768v-2v-256q0 -4 -2 -6h-2q-2 0 -4 2l-764 764l-252 -252q-2 -2 -6 -2q-2 2 -2 6zM1532 1405v4v256q0 2 2 4q4 0 6 -2l512 -512v-2v-256q0 -4 -2 -6h-2q-2 0 -4 2z" />
<glyph unicode=":" horiz-adv-x="512" d="M-4 -129v258v2l381 381l-381 381v4v256v2l512 512q2 2 6 2l2 -4v-256v-4l-381 -381l381 -381v-2v-256v-4l-381 -381l381 -381v-4v-256q0 -2 -2 -4h-2q-2 0 -4 2l-512 512v2z" />
<glyph unicode=";" horiz-adv-x="512" d="M-4 -129v258v2l512 512q2 2 6 2l2 -4v-256v-4l-512 -512q-2 -2 -4 -2h-2q-2 2 -2 4zM-4 385v256v2l125 125l-125 125v4v256q0 2 2 4q4 0 6 -2l256 -256v-2v-256v-4l-256 -256q-2 -2 -4 -2h-2q-2 2 -2 6zM-4 1405v4v256q0 2 2 4q4 0 6 -2l512 -512v-2v-256q0 -4 -2 -6h-2 q-2 0 -4 2zM252 -125l256 256q2 2 6 2l2 -4v-258v-2l-125 -125l125 -125v-4v-256q0 -2 -2 -4h-2q-2 0 -4 2l-256 256v2v256v4z" />
<glyph unicode="&#x3c;" horiz-adv-x="512" d="M-4 381v4v256v2l512 512q2 2 6 2l2 -4v-256v-4l-381 -381l381 -381v-2v-258q0 -2 -2 -4h-2q-2 0 -4 2zM-4 -381l256 256q2 2 6 2q2 -2 2 -6v-256v-2l-256 -256q-2 -2 -4 -2h-2q-2 2 -2 4v256v4zM-4 1405v4v256q0 2 2 4q4 0 6 -2l256 -256v-2v-256q0 -4 -2 -6h-2 q-2 0 -4 2z" />
<glyph unicode="=" horiz-adv-x="512" d="M-4 381v4v256q0 2 2 4q4 0 6 -2l512 -512v-2v-258q0 -2 -2 -4h-2q-2 0 -4 2zM-4 -381l256 256q4 4 8 0l256 -256v-4v-256q0 -2 -2 -4h-2q-2 0 -4 2l-252 252l-252 -252q-2 -2 -6 -2q-2 2 -2 4v256v4zM-4 893v4v256q0 2 2 4q4 0 6 -2l512 -512v-2v-256q0 -4 -2 -6h-2 q-2 0 -4 2zM-4 1405v4v256q0 2 2 4q4 0 6 -2l252 -252l252 252q2 2 6 2l2 -4v-256v-4l-256 -256q-2 -2 -4 -2t-4 2z" />
<glyph unicode="&#x3e;" horiz-adv-x="512" d="M-4 -125v258v2l381 381l-381 381v4v256q0 2 2 4q4 0 6 -2l512 -512v-2v-256v-4l-512 -512q-2 -2 -4 -2h-2q-2 2 -2 4zM252 -125q0 4 2 6q4 0 6 -2l256 -256v-4v-256q0 -2 -2 -4h-2q-2 0 -4 2l-256 256v2v256zM252 1157v256v2l256 256q2 2 6 2l2 -4v-256v-4l-256 -256 q-2 -2 -4 -2h-2q-2 2 -2 6z" />
<glyph unicode="?" horiz-adv-x="1024" d="M-4 -129v258v2l893 893l-381 381v4v256q0 2 2 4q4 0 6 -2l512 -512v-2v-256v-4l-637 -637l377 -377l252 252q2 2 6 2l2 -4v-258v-2l-512 -512q-2 -2 -4 -2h-2q-2 2 -2 4v256v4l125 125l-377 377l-252 -252q-2 -2 -6 -2q-2 2 -2 4zM-4 -381l256 256q2 2 6 2q2 -2 2 -6 v-256v-2l-256 -256q-2 -2 -4 -2h-2q-2 2 -2 4v256v4zM-4 385v256v2l381 381l-381 381v4v256q0 2 2 4q4 0 6 -2l512 -512v-2v-256v-4l-512 -512q-2 -2 -4 -2h-2q-2 2 -2 6zM764 129v256v2l256 256q2 2 6 2l2 -4v-256v-4l-256 -256q-2 -2 -4 -2h-2q-2 2 -2 6z" />
<glyph unicode="@" d="M-4 -129v258q0 2 2 4q4 0 6 -2l512 -512v-4v-256q0 -2 -2 -4h-2q-2 0 -4 2l-512 512v2zM-4 381v4v256q0 2 2 4q4 0 6 -2l764 -764l633 633l-377 377l-252 -252q-2 -2 -6 -2q-2 2 -2 6v256v2l256 256q4 4 8 0l512 -512v-2v-256v-4l-768 -768q-2 -2 -4 -2t-4 2zM-4 897v256 v2l512 512q2 2 6 2l2 -4v-256v-4l-512 -512q-2 -2 -4 -2h-2q-2 2 -2 6zM252 637v4v256v2l768 768q4 4 8 0l1024 -1024v-2v-256v-4l-1024 -1024q-2 -2 -4 -2h-2q-2 2 -2 4v256v4l893 893l-889 889l-633 -633l377 -377l252 252q2 2 6 2l2 -4v-256v-4l-256 -256q-4 -4 -8 0z M1532 -381l512 512q2 2 6 2l2 -4v-258v-2l-512 -512q-2 -2 -4 -2h-2q-2 2 -2 4v256v4zM1788 1149v4v256v2l256 256q2 2 6 2l2 -4v-256v-4l-125 -125l125 -125v-2v-256q0 -4 -2 -6h-2q-2 0 -4 2z" />
<glyph unicode="A" horiz-adv-x="512" d="M-4 -129v258v2l512 512q2 2 6 2q2 -2 2 -4v-256v-4l-512 -512q-2 -2 -4 -2h-2q-2 2 -2 4zM-4 -381l512 512q2 2 6 2q2 -2 2 -4v-258v-2l-512 -512q-2 -2 -4 -2h-2q-2 2 -2 4v256v4zM-4 385v256v2l512 512q2 2 6 2q2 -2 2 -4v-256v-4l-512 -512q-2 -2 -4 -2h-2q-2 2 -2 6z M-4 897v256v2l512 512q2 2 6 2q2 -2 2 -4v-256v-4l-512 -512q-2 -2 -4 -2h-2q-2 2 -2 6z" />
<glyph unicode="B" d="M-4 -129v258v2l125 125l-125 125v4v256q0 2 2 4q4 0 6 -2l256 -256v-2v-256v-4l-256 -256q-2 -2 -4 -2h-2q-2 2 -2 4zM-4 -381l637 637l-637 637v4v256q0 2 2 4q4 0 6 -2l764 -764l764 764q2 2 6 2q2 -2 2 -4v-256v-4l-1536 -1536q-2 -2 -4 -2h-2q-2 2 -2 4v256v4z M-4 1405v4v256q0 2 2 4q4 0 6 -2l508 -508l508 508q2 2 6 2q2 -2 2 -4v-256v-4l-512 -512q-2 -2 -4 -2t-4 2zM508 -381l256 256q4 4 8 0l256 -256v-4v-256q0 -2 -2 -4h-2q-2 0 -4 2l-252 252l-252 -252q-2 -2 -6 -2q-2 2 -2 4v256v4zM764 641v256v2l768 768q4 4 8 0 l512 -512v-2v-256v-4l-893 -893l381 -381v-4v-256q0 -2 -2 -4h-2q-2 0 -4 2l-512 512v2v258v2l893 893l-377 377l-764 -764q-2 -2 -6 -2q-2 2 -2 6zM1532 -129v258v2l512 512q2 2 6 2q2 -2 2 -4v-256v-4l-381 -381l381 -381v-4v-256q0 -2 -2 -4h-2q-2 0 -4 2l-512 512v2z " />
<glyph unicode="C" d="M-4 381v4v256q0 2 2 4q4 0 6 -2l252 -252l121 121l-125 125v4v256v2l512 512q4 4 8 0l252 -252l121 121l-125 125v4v256q0 2 2 4q4 0 6 -2l256 -256v-2v-256v-4l-256 -256q-4 -4 -8 0l-252 252l-377 -377l125 -125v-2v-256v-4l-256 -256q-2 -2 -4 -2t-4 2zM-4 -381 l768 768q4 4 8 0l508 -508l377 377l-125 125v4v256v2l256 256q4 4 8 0l256 -256v-2v-256q0 -4 -2 -6q-4 0 -6 2l-252 252l-121 -121l125 -125v-2v-256v-4l-512 -512q-4 -4 -8 0l-508 508l-764 -764q-2 -2 -4 -2h-2q-2 2 -2 4v256v4zM-4 897v256v2l512 512q2 2 6 2q2 -2 2 -4 v-256v-4l-512 -512q-2 -2 -4 -2h-2q-2 2 -2 6zM508 -381l256 256q4 4 8 0l256 -256v-4v-256q0 -2 -2 -4h-2q-2 0 -4 2l-252 252l-252 -252q-2 -2 -6 -2q-2 2 -2 4v256v4zM764 637v4v256q0 2 2 4q4 0 6 -2l252 -252l633 633l-125 125v4v256q0 2 2 4q4 0 6 -2l512 -512v-2 v-256q0 -4 -2 -6q-4 0 -6 2l-252 252l-633 -633l125 -125v-2v-256q0 -4 -2 -6h-2q-2 0 -4 2zM1532 -381l512 512q2 2 6 2q2 -2 2 -4v-258v-2l-512 -512q-2 -2 -4 -2h-2q-2 2 -2 4v256v4z" />
<glyph unicode="D" d="M-4 -129v258q0 2 2 4q4 0 6 -2l252 -252l121 121l-125 125v4v256v2l381 381l-125 125v4v256v2l256 256q4 4 8 0l1280 -1280v-2v-258q0 -2 -2 -4q-4 0 -6 2l-1276 1276l-121 -121l125 -125v-2v-256v-4l-381 -381l125 -125v-2v-258v-2l-256 -256q-2 -2 -4 -2t-4 2l-256 256 v2zM-4 385v256v2l125 125l-125 125v4v256q0 2 2 4q4 0 6 -2l256 -256v-2v-256v-4l-256 -256q-2 -2 -4 -2h-2q-2 2 -2 6zM-4 1405v4v256q0 2 2 4q4 0 6 -2l252 -252l252 252q2 2 6 2q2 -2 2 -4v-256v-4l-256 -256q-2 -2 -4 -2t-4 2zM508 -381l256 256q4 4 8 0l256 -256v-4 v-256q0 -2 -2 -4h-2q-2 0 -4 2l-252 252l-252 -252q-2 -2 -6 -2q-2 2 -2 4v256v4zM764 125v4v256v2l256 256q4 4 8 0l1024 -1024v-4v-256q0 -2 -2 -4h-2q-2 0 -4 2l-1020 1020l-121 -121l637 -637v-4v-256q0 -2 -2 -4q-4 0 -6 2zM1020 1405v4v256q0 2 2 4q4 0 6 -2 l1024 -1024v-2v-256q0 -4 -2 -6h-2q-2 0 -4 2zM1532 1405v4v256q0 2 2 4q4 0 6 -2l512 -512v-2v-256q0 -4 -2 -6h-2q-2 0 -4 2z" />
<glyph unicode="E" horiz-adv-x="512" d="M-4 -129v258v2l512 512q2 2 6 2q2 -2 2 -4v-256v-4l-381 -381l381 -381v-4v-256q0 -2 -2 -4h-2q-2 0 -4 2l-512 512v2zM-4 385v256v2l512 512q2 2 6 2q2 -2 2 -4v-256v-4l-512 -512q-2 -2 -4 -2h-2q-2 2 -2 6zM-4 897v256v2l512 512q2 2 6 2q2 -2 2 -4v-256v-4l-512 -512 q-2 -2 -4 -2h-2q-2 2 -2 6z" />
<glyph unicode="F" d="M-4 -129v258v2l256 256q4 4 8 0l256 -256v-2v-258v-2l-512 -512q-2 -2 -4 -2h-2q-2 2 -2 4v256v4l381 381l-121 121l-252 -252q-2 -2 -6 -2q-2 2 -2 4zM-4 385v256v2l256 256q4 4 8 0l768 -768v-2v-258v-2l-512 -512q-2 -2 -4 -2h-2q-2 2 -2 4v256v4l381 381l-633 633 l-252 -252q-2 -2 -6 -2q-2 2 -2 6zM-4 897v256v2l256 256q4 4 8 0l1532 -1532l252 252q2 2 6 2q2 -2 2 -4v-258v-2l-256 -256q-2 -2 -4 -2t-4 2l-1532 1532l-252 -252q-2 -2 -6 -2q-2 2 -2 6zM508 1405v4v256q0 2 2 4q4 0 6 -2l252 -252l252 252q2 2 6 2q2 -2 2 -4v-256v-4 l-256 -256q-2 -2 -4 -2t-4 2zM1020 -381l256 256q4 4 8 0l256 -256v-4v-256q0 -2 -2 -4h-2q-2 0 -4 2l-252 252l-252 -252q-2 -2 -6 -2q-2 2 -2 4v256v4zM1020 893v4v256v2l512 512q2 2 6 2q2 -2 2 -4v-256v-4l-381 -381l633 -633l252 252q2 2 6 2q2 -2 2 -4v-256v-4 l-256 -256q-2 -2 -4 -2t-4 2zM1532 893v4v256v2l512 512q2 2 6 2q2 -2 2 -4v-256v-4l-381 -381l121 -121l252 252q2 2 6 2q2 -2 2 -4v-256v-4l-256 -256q-2 -2 -4 -2t-4 2z" />
<glyph unicode="G" d="M-4 -129v258q0 2 2 4q4 0 6 -2l512 -512v-4v-256q0 -2 -2 -4h-2q-2 0 -4 2l-512 512v2zM-4 381v4v256q0 2 2 4q4 0 6 -2l1024 -1024v-4v-256q0 -2 -2 -4h-2q-2 0 -4 2zM-4 897v256v2l512 512q2 2 6 2q2 -2 2 -4v-256v-4l-512 -512q-2 -2 -4 -2h-2q-2 2 -2 6zM252 637v4 v256v2l768 768q2 2 6 2q2 -2 2 -4v-256v-4l-637 -637l121 -121l764 764q4 4 8 0l512 -512v-2v-256v-4l-512 -512q-2 -2 -4 -2h-2q-2 2 -2 6v256v2l381 381l-377 377l-764 -764q-4 -4 -8 0zM764 125v4v256v2l512 512q2 2 6 2q2 -2 2 -4v-256v-4l-381 -381l377 -377l764 764 q2 2 6 2q2 -2 2 -4v-256v-4l-768 -768q-2 -2 -4 -2t-4 2zM1532 -381l512 512q2 2 6 2q2 -2 2 -4v-258v-2l-512 -512q-2 -2 -4 -2h-2q-2 2 -2 4v256v4zM1532 1405v4v256q0 2 2 4q4 0 6 -2l512 -512v-2v-256q0 -4 -2 -6h-2q-2 0 -4 2z" />
<glyph unicode="H" horiz-adv-x="1024" d="M-4 -129v258v2l256 256q4 4 8 0l256 -256v-2v-258v-2l-512 -512q-2 -2 -4 -2h-2q-2 2 -2 4v256v4l381 381l-121 121l-252 -252q-2 -2 -6 -2q-2 2 -2 4zM-4 385v256v2l381 381l-121 121l-252 -252q-2 -2 -6 -2q-2 2 -2 6v256v2l256 256q4 4 8 0l256 -256v-2v-256v-4 l-512 -512q-2 -2 -4 -2h-2q-2 2 -2 6zM508 381v4v256v2l512 512q2 2 6 2q2 -2 2 -4v-256v-4l-381 -381l121 -121l252 252q2 2 6 2q2 -2 2 -4v-256v-4l-256 -256q-2 -2 -4 -2t-4 2zM508 -381l512 512q2 2 6 2q2 -2 2 -4v-258v-2l-512 -512q-2 -2 -4 -2h-2q-2 2 -2 4v256v4z M508 1405v4v256q0 2 2 4q4 0 6 -2l252 -252l252 252q2 2 6 2q2 -2 2 -4v-256v-4l-256 -256q-2 -2 -4 -2t-4 2z" />
<glyph unicode="I" horiz-adv-x="512" d="M-4 -129v258v2l512 512q2 2 6 2q2 -2 2 -4v-256v-4l-512 -512q-2 -2 -4 -2h-2q-2 2 -2 4zM-4 -381l512 512q2 2 6 2q2 -2 2 -4v-258v-2l-512 -512q-2 -2 -4 -2h-2q-2 2 -2 4v256v4zM-4 385v256v2l381 381l-381 381v4v256q0 2 2 4q4 0 6 -2l512 -512v-2v-256v-4l-512 -512 q-2 -2 -4 -2h-2q-2 2 -2 6z" />
<glyph unicode="J" d="M-4 -129v258v2l256 256q4 4 8 0l768 -768v-4v-256q0 -2 -2 -4h-2q-2 0 -4 2l-764 764l-121 -121l381 -381v-4v-256q0 -2 -2 -4q-4 0 -6 2l-512 512v2zM-4 385v256v2l256 256q4 4 8 0l1280 -1280v-4v-256q0 -2 -2 -4h-2q-2 0 -4 2l-1276 1276l-252 -252q-2 -2 -6 -2 q-2 2 -2 6zM-4 897v256v2l256 256q4 4 8 0l1532 -1532l252 252q2 2 6 2q2 -2 2 -4v-258v-2l-256 -256q-2 -2 -4 -2t-4 2l-1532 1532l-252 -252q-2 -2 -6 -2q-2 2 -2 6zM508 1405v4v256q0 2 2 4q4 0 6 -2l1276 -1276l252 252q2 2 6 2q2 -2 2 -4v-256v-4l-256 -256 q-2 -2 -4 -2t-4 2zM1020 1405v4v256q0 2 2 4q4 0 6 -2l764 -764l121 121l-381 381v4v256q0 2 2 4q4 0 6 -2l512 -512v-2v-256v-4l-256 -256q-2 -2 -4 -2t-4 2z" />
<glyph unicode="K" d="M-4 -129v258v2l256 256q4 4 8 0l252 -252l121 121l-377 377l-252 -252q-2 -2 -6 -2q-2 2 -2 6v256v2l256 256q4 4 8 0l512 -512v-2v-256v-4l-256 -256q-4 -4 -8 0l-252 252l-252 -252q-2 -2 -4 -2h-2q-2 2 -2 4zM-4 -381l256 256q2 2 6 2q2 -2 2 -6v-256v-2l-256 -256 q-2 -2 -4 -2h-2q-2 2 -2 4v256v4zM-4 897v256v2l512 512q2 2 6 2q2 -2 2 -4v-256v-4l-512 -512q-2 -2 -4 -2h-2q-2 2 -2 6zM508 -381l512 512q4 4 8 0l256 -256v-4v-256v-2l-256 -256q-2 -2 -4 -2h-2q-2 2 -2 4v256v4l125 125l-121 121l-508 -508q-2 -2 -6 -2q-2 2 -2 4v256 v4zM508 893v4v256v2l512 512q2 2 6 2q2 -2 2 -4v-256v-4l-381 -381l889 -889l508 508q2 2 6 2q2 -2 2 -4v-256v-4l-512 -512q-2 -2 -4 -2t-4 2zM1020 893v4v256v2l256 256q4 4 8 0l252 -252l508 508q2 2 6 2q2 -2 2 -4v-256v-4l-512 -512q-4 -4 -8 0l-252 252l-121 -121 l377 -377l508 508q2 2 6 2q2 -2 2 -4v-256v-4l-512 -512q-2 -2 -4 -2t-4 2zM1532 -381l512 512q2 2 6 2q2 -2 2 -4v-258v-2l-512 -512q-2 -2 -4 -2h-2q-2 2 -2 4v256v4z" />
<glyph unicode="L" horiz-adv-x="1024" d="M-4 -129v258v2l125 125l-125 125v4v256v2l1024 1024q2 2 6 2q2 -2 2 -4v-256v-4l-893 -893l125 -125v-2v-256v-4l-256 -256q-2 -2 -4 -2h-2q-2 2 -2 4zM-4 -381l637 637l-125 125v4v256v2l512 512q2 2 6 2q2 -2 2 -4v-256v-4l-381 -381l125 -125v-2v-256v-4l-768 -768 q-2 -2 -4 -2h-2q-2 2 -2 4v256v4zM-4 897v256v2l512 512q2 2 6 2q2 -2 2 -4v-256v-4l-512 -512q-2 -2 -4 -2h-2q-2 2 -2 6zM508 -381l512 512q2 2 6 2q2 -2 2 -4v-258v-2l-512 -512q-2 -2 -4 -2h-2q-2 2 -2 4v256v4z" />
<glyph unicode="M" d="M-4 -129v258v2l125 125l-125 125v4v256q0 2 2 4q4 0 6 -2l256 -256v-2v-256v-4l-125 -125l121 -121l252 252q4 4 8 0l256 -256v-4v-256v-2l-256 -256q-2 -2 -4 -2h-2q-2 2 -2 4v256v4l125 125l-121 121l-252 -252q-4 -4 -8 0l-256 256v2zM-4 897v256v2l256 256q4 4 8 0 l256 -256v-2v-256v-4l-125 -125l121 -121l252 252q4 4 8 0l252 -252l508 508q4 4 8 0l256 -256v-2v-256v-4l-125 -125l121 -121l252 252q2 2 6 2q2 -2 2 -4v-256v-4l-256 -256q-4 -4 -8 0l-256 256v4v256v2l125 125l-121 121l-764 -764q-2 -2 -4 -2h-2q-2 2 -2 6v256v2 l125 125l-121 121l-252 -252q-4 -4 -8 0l-256 256v4v256v2l125 125l-121 121l-252 -252q-2 -2 -6 -2q-2 2 -2 6zM508 1405v4v256q0 2 2 4q4 0 6 -2l252 -252l252 252q2 2 6 2q2 -2 2 -4v-256v-4l-256 -256q-2 -2 -4 -2t-4 2zM1020 -129v258v2l256 256q4 4 8 0l256 -256v-2 v-258v-2l-512 -512q-2 -2 -4 -2h-2q-2 2 -2 4v256v4l381 381l-121 121l-252 -252q-2 -2 -6 -2q-2 2 -2 4zM1020 897v256v2l512 512q2 2 6 2q2 -2 2 -4v-256v-4l-512 -512q-2 -2 -4 -2h-2q-2 2 -2 6zM1532 -381l256 256q4 4 8 0l256 -256v-4v-256q0 -2 -2 -4h-2q-2 0 -4 2 l-252 252l-252 -252q-2 -2 -6 -2q-2 2 -2 4v256v4zM1788 1149v4v256v2l256 256q2 2 6 2q2 -2 2 -4v-256v-4l-125 -125l125 -125v-2v-256q0 -4 -2 -6h-2q-2 0 -4 2z" />
<glyph unicode="N" d="M-4 -129v258v2l637 637l-637 637v4v256q0 2 2 4q4 0 6 -2l508 -508l121 121l-125 125v4v256q0 2 2 4q4 0 6 -2l256 -256v-2v-256v-4l-125 -125l377 -377l252 252q4 4 8 0l256 -256v-2v-256q0 -4 -2 -6q-4 0 -6 2l-252 252l-252 -252q-4 -4 -8 0l-252 252l-764 -764 q-2 -2 -4 -2h-2q-2 2 -2 4zM-4 385v256v2l125 125l-125 125v4v256q0 2 2 4q4 0 6 -2l256 -256v-2v-256v-4l-256 -256q-2 -2 -4 -2h-2q-2 2 -2 6zM252 -125l256 256q4 4 8 0l508 -508l252 252q2 2 6 2q2 -2 2 -6v-256v-2l-256 -256q-2 -2 -4 -2t-4 2l-508 508l-252 -252 q-2 -2 -6 -2q-2 2 -2 4v256v4zM764 125v4v256q0 2 2 4q4 0 6 -2l252 -252l252 252q4 4 8 0l252 -252l508 508q2 2 6 2q2 -2 2 -4v-256v-4l-381 -381l381 -381v-4v-256q0 -2 -2 -4h-2q-2 0 -4 2l-252 252l-252 -252q-2 -2 -6 -2q-2 2 -2 4v256v4l125 125l-377 377l-252 -252 q-4 -4 -8 0zM1020 897v256v2l125 125l-125 125v4v256q0 2 2 4q4 0 6 -2l764 -764l252 252q2 2 6 2q2 -2 2 -4v-256v-4l-256 -256q-2 -2 -4 -2t-4 2l-508 508l-252 -252q-2 -2 -6 -2q-2 2 -2 6zM1532 1405v4v256q0 2 2 4q4 0 6 -2l256 -256v-2v-256q0 -4 -2 -6h-2q-2 0 -4 2z " />
<glyph unicode="O" horiz-adv-x="512" d="M-4 -129v258q0 2 2 4q4 0 6 -2l512 -512v-4v-256q0 -2 -2 -4h-2q-2 0 -4 2l-512 512v2zM-4 381v4v256v2l512 512q2 2 6 2q2 -2 2 -4v-256v-4l-381 -381l381 -381v-2v-258q0 -2 -2 -4h-2q-2 0 -4 2zM-4 897v256v2l512 512q2 2 6 2q2 -2 2 -4v-256v-4l-512 -512 q-2 -2 -4 -2h-2q-2 2 -2 6z" />
<glyph unicode="P" d="M-4 -129v258v2l256 256q4 4 8 0l768 -768v-4v-256q0 -2 -2 -4h-2q-2 0 -4 2l-764 764l-252 -252q-2 -2 -6 -2q-2 2 -2 4zM-4 -381l256 256q4 4 8 0l256 -256v-4v-256q0 -2 -2 -4h-2q-2 0 -4 2l-252 252l-252 -252q-2 -2 -6 -2q-2 2 -2 4v256v4zM-4 385v256v2l256 256 q4 4 8 0l1280 -1280v-4v-256q0 -2 -2 -4h-2q-2 0 -4 2l-1276 1276l-252 -252q-2 -2 -6 -2q-2 2 -2 6zM-4 897v256v2l512 512q2 2 6 2q2 -2 2 -4v-256v-4l-512 -512q-2 -2 -4 -2h-2q-2 2 -2 6zM508 893v4v256v2l512 512q2 2 6 2q2 -2 2 -4v-256v-4l-381 -381l1405 -1405v-4 v-256q0 -2 -2 -4h-2q-2 0 -4 2zM1020 893v4v256v2l512 512q2 2 6 2q2 -2 2 -4v-256v-4l-381 -381l893 -893v-2v-258q0 -2 -2 -4h-2q-2 0 -4 2zM1532 897v256v2l256 256q4 4 8 0l256 -256v-2v-256q0 -4 -2 -6h-2q-2 0 -4 2l-252 252l-252 -252q-2 -2 -6 -2q-2 2 -2 6z M1788 637v4v256q0 2 2 4q4 0 6 -2l256 -256v-2v-256q0 -4 -2 -6h-2q-2 0 -4 2z" />
<glyph unicode="Q" d="M-4 -129v258v2l125 125l-125 125v4v256q0 2 2 4q4 0 6 -2l256 -256v-2v-256v-4l-125 -125l381 -381v-4v-256q0 -2 -2 -4h-2q-2 0 -4 2l-512 512v2zM-4 1405v4v256q0 2 2 4q4 0 6 -2l512 -512v-2v-256v-4l-125 -125l1149 -1149v-4v-256q0 -2 -2 -4h-2q-2 0 -4 2l-764 764 l-121 -121l381 -381v-4v-256q0 -2 -2 -4q-4 0 -6 2l-512 512v2v258v2l125 125l-381 381v4v256v2l125 125zM508 1405v4v256q0 2 2 4q4 0 6 -2l512 -512v-2v-256v-4l-125 -125l121 -121l377 377l-381 381v4v256q0 2 2 4q4 0 6 -2l512 -512v-2v-256v-4l-381 -381l125 -125v-2 v-256q0 -4 -2 -6h-2q-2 0 -4 2l-512 512v4v256v2l125 125zM1532 -129v258v2l125 125l-125 125v4v256q0 2 2 4q4 0 6 -2l256 -256v-2v-256v-4l-125 -125l381 -381v-4v-256q0 -2 -2 -4h-2q-2 0 -4 2l-512 512v2zM1532 1405v4v256q0 2 2 4q4 0 6 -2l512 -512v-2v-256v-4 l-125 -125l125 -125v-2v-256q0 -4 -2 -6h-2q-2 0 -4 2l-256 256v4v256v2l125 125z" />
<glyph unicode="R" horiz-adv-x="1024" d="M-4 -129v258v2l893 893l-381 381v4v256q0 2 2 4q4 0 6 -2l512 -512v-2v-256v-4l-1024 -1024q-2 -2 -4 -2h-2q-2 2 -2 4zM-4 -381l512 512q4 4 8 0l512 -512v-4v-256q0 -2 -2 -4h-2q-2 0 -4 2l-508 508l-508 -508q-2 -2 -6 -2q-2 2 -2 4v256v4zM-4 385v256v2l381 381 l-381 381v4v256q0 2 2 4q4 0 6 -2l512 -512v-2v-256v-4l-512 -512q-2 -2 -4 -2h-2q-2 2 -2 6zM764 125v4v256v2l256 256q2 2 6 2q2 -2 2 -4v-256v-4l-125 -125l125 -125v-2v-258q0 -2 -2 -4h-2q-2 0 -4 2z" />
<glyph unicode="S" horiz-adv-x="1024" d="M-4 -129v258q0 2 2 4q4 0 6 -2l512 -512v-4v-256q0 -2 -2 -4h-2q-2 0 -4 2l-512 512v2zM-4 381v4v256q0 2 2 4q4 0 6 -2l508 -508l377 377l-381 381v4v256q0 2 2 4q4 0 6 -2l512 -512v-2v-256v-4l-381 -381l381 -381v-4v-256q0 -2 -2 -4h-2q-2 0 -4 2zM-4 893v4v256v2 l512 512q4 4 8 0l512 -512v-2v-256q0 -4 -2 -6q-4 0 -6 2l-508 508l-377 -377l381 -381v-2v-256q0 -4 -2 -6h-2q-2 0 -4 2z" />
<glyph unicode="T" horiz-adv-x="1024" d="M-4 -129v258v2l125 125l-125 125v4v256q0 2 2 4q4 0 6 -2l256 -256v-2v-256v-4l-256 -256q-2 -2 -4 -2h-2q-2 2 -2 4zM-4 -381l1024 1024q2 2 6 2q2 -2 2 -4v-256v-4l-1024 -1024q-2 -2 -4 -2h-2q-2 2 -2 4v256v4zM-4 893v4v256q0 2 2 4q4 0 6 -2l508 -508l121 121 l-637 637v4v256q0 2 2 4q4 0 6 -2l768 -768v-2v-256v-4l-256 -256q-2 -2 -4 -2t-4 2zM508 -381l512 512q2 2 6 2q2 -2 2 -4v-258v-2l-512 -512q-2 -2 -4 -2h-2q-2 2 -2 4v256v4zM508 1405v4v256q0 2 2 4q4 0 6 -2l512 -512v-2v-256q0 -4 -2 -6h-2q-2 0 -4 2z" />
<glyph unicode="U" horiz-adv-x="512" d="M-4 -129v258v2l512 512q2 2 6 2q2 -2 2 -4v-256v-4l-381 -381l381 -381v-4v-256q0 -2 -2 -4h-2q-2 0 -4 2l-512 512v2zM-4 385v256v2l381 381l-381 381v4v256q0 2 2 4q4 0 6 -2l512 -512v-2v-256v-4l-512 -512q-2 -2 -4 -2h-2q-2 2 -2 6z" />
<glyph unicode="V" d="M-4 -129v258v2l125 125l-125 125v4v256q0 2 2 4q4 0 6 -2l256 -256v-2v-256v-4l-256 -256q-2 -2 -4 -2h-2q-2 2 -2 4zM-4 -381l637 637l-637 637v4v256q0 2 2 4q4 0 6 -2l252 -252l377 377l-125 125v4v256q0 2 2 4q4 0 6 -2l508 -508l121 121l-125 125v4v256q0 2 2 4 q4 0 6 -2l256 -256v-2v-256v-4l-256 -256q-4 -4 -8 0l-252 252l-377 -377l637 -637v-2v-258q0 -2 -2 -4q-4 0 -6 2l-252 252l-764 -764q-2 -2 -4 -2h-2q-2 2 -2 4v256v4zM-4 1405v4v256q0 2 2 4q4 0 6 -2l256 -256v-2v-256q0 -4 -2 -6h-2q-2 0 -4 2zM508 -381l256 256 q4 4 8 0l256 -256v-4v-256q0 -2 -2 -4h-2q-2 0 -4 2l-252 252l-252 -252q-2 -2 -6 -2q-2 2 -2 4v256v4zM764 637v4v256q0 2 2 4q4 0 6 -2l252 -252l633 633l-125 125v4v256q0 2 2 4q4 0 6 -2l512 -512v-2v-256q0 -4 -2 -6q-4 0 -6 2l-252 252l-633 -633l893 -893v-4v-256 q0 -2 -2 -4h-2q-2 0 -4 2zM1276 -129q0 4 2 6q4 0 6 -2l256 -256v-4v-256q0 -2 -2 -4h-2q-2 0 -4 2l-256 256v2v256zM1532 381v4v256v2l256 256q4 4 8 0l256 -256v-2v-256q0 -4 -2 -6q-4 0 -6 2l-252 252l-121 -121l381 -381v-2v-258q0 -2 -2 -4h-2q-2 0 -4 2z" />
<glyph unicode="W" d="M-4 -129v258v2l381 381l-381 381v4v256q0 2 2 4q4 0 6 -2l512 -512v-2v-256v-4l-381 -381l377 -377l252 252q4 4 8 0l252 -252l252 252q2 2 6 2q2 -2 2 -6v-256v-2l-256 -256q-2 -2 -4 -2t-4 2l-252 252l-252 -252q-4 -4 -8 0l-512 512v2zM-4 1405v4v256q0 2 2 4 q4 0 6 -2l1532 -1532l121 121l-381 381v4v256v2l768 768q2 2 6 2q2 -2 2 -4v-256v-4l-637 -637l377 -377l252 252q2 2 6 2q2 -2 2 -4v-256v-4l-512 -512q-4 -4 -8 0l-252 252l-252 -252q-4 -4 -8 0l-252 252l-252 -252q-2 -2 -4 -2h-2q-2 2 -2 4v258v2l256 256q4 4 8 0 l252 -252l121 121zM508 1405v4v256q0 2 2 4q4 0 6 -2l508 -508l508 508q2 2 6 2q2 -2 2 -4v-256v-4l-512 -512q-2 -2 -4 -2t-4 2zM1532 -381l512 512q2 2 6 2q2 -2 2 -4v-258v-2l-512 -512q-2 -2 -4 -2h-2q-2 2 -2 4v256v4zM1788 641v256v2l256 256q2 2 6 2q2 -2 2 -4v-256 v-4l-256 -256q-2 -2 -4 -2h-2q-2 2 -2 6z" />
<glyph unicode="X" d="M-4 -129v258v2l256 256q2 2 6 2q2 -2 2 -4v-256v-4l-125 -125l125 -125v-4v-256q0 -2 -2 -4h-2q-2 0 -4 2l-256 256v2zM-4 897v256v2l125 125l-125 125v4v256q0 2 2 4q4 0 6 -2l252 -252l252 252q2 2 6 2q2 -2 2 -4v-256v-4l-125 -125l121 -121l252 252q4 4 8 0l512 -512 v-2v-256q0 -4 -2 -6q-4 0 -6 2l-252 252l-377 -377l125 -125v-2v-256q0 -4 -2 -6h-2q-2 0 -4 2l-512 512v4v256q0 2 2 4q4 0 6 -2l252 -252l377 377l-121 121l-252 -252q-4 -4 -8 0l-252 252l-252 -252q-2 -2 -6 -2q-2 2 -2 6zM508 -129v258q0 2 2 4q4 0 6 -2l252 -252 l377 377l-125 125v4v256q0 2 2 4q4 0 6 -2l252 -252l252 252q2 2 6 2q2 -2 2 -4v-256v-4l-125 -125l125 -125v-2v-258v-2l-125 -125l121 -121l377 377l-125 125v4v256q0 2 2 4q4 0 6 -2l256 -256v-2v-258v-2l-512 -512q-4 -4 -8 0l-256 256v2v256v4l125 125l-121 121 l-377 -377l125 -125v-4v-256q0 -2 -2 -4h-2q-2 0 -4 2l-252 252l-252 -252q-2 -2 -6 -2q-2 2 -2 4v256v4l125 125l-125 125v2zM1276 1149v4v256v2l256 256q4 4 8 0l256 -256v-2v-256q0 -4 -2 -6q-4 0 -6 2l-252 252l-121 -121l377 -377l252 252q2 2 6 2q2 -2 2 -4v-256v-4 l-125 -125l125 -125v-2v-256q0 -4 -2 -6h-2q-2 0 -4 2z" />
<glyph unicode="Y" horiz-adv-x="512" d="M-4 -129v258v2l125 125l-125 125v4v256q0 2 2 4q4 0 6 -2l256 -256v-2v-256v-4l-256 -256q-2 -2 -4 -2h-2q-2 2 -2 4zM-4 -381l512 512q2 2 6 2q2 -2 2 -4v-258v-2l-512 -512q-2 -2 -4 -2h-2q-2 2 -2 4v256v4zM-4 897v256v2l512 512q2 2 6 2q2 -2 2 -4v-256v-4l-512 -512 q-2 -2 -4 -2h-2q-2 2 -2 6zM252 637v4v256v2l256 256q2 2 6 2q2 -2 2 -4v-256v-4l-125 -125l125 -125v-2v-256q0 -4 -2 -6h-2q-2 0 -4 2z" />
<glyph unicode="Z" d="M-4 -381l381 381l-381 381v4v256q0 2 2 4q4 0 6 -2l252 -252l633 633l-125 125v4v256q0 2 2 4q4 0 6 -2l256 -256v-2v-256v-4l-637 -637l125 -125v-2v-258v-2l-512 -512q-2 -2 -4 -2h-2q-2 2 -2 4v256v4zM252 641v256v2l125 125l-125 125v4v256v2l256 256q2 2 6 2 q2 -2 2 -4v-256v-4l-125 -125l125 -125v-2v-256v-4l-256 -256q-2 -2 -4 -2h-2q-2 2 -2 6zM508 -381l381 381l-125 125v4v256v2l637 637l-381 381v4v256q0 2 2 4q4 0 6 -2l252 -252l252 252q2 2 6 2q2 -2 2 -4v-256v-4l-125 -125l125 -125v-2v-256v-4l-637 -637l125 -125v-2 v-258v-2l-125 -125l125 -125v-4v-256q0 -2 -2 -4h-2q-2 0 -4 2l-252 252l-252 -252q-2 -2 -6 -2q-2 2 -2 4v256v4zM1276 -125l125 125l-125 125v4v256v2l637 637l-125 125v4v256q0 2 2 4q4 0 6 -2l256 -256v-2v-256v-4l-125 -125l125 -125v-2v-256q0 -4 -2 -6q-4 0 -6 2 l-252 252l-377 -377l125 -125v-2v-258v-2l-256 -256q-2 -2 -4 -2h-2q-2 2 -2 4v256v4zM1532 -381l381 381l-125 125v4v256q0 2 2 4q4 0 6 -2l256 -256v-2v-258v-2l-125 -125l125 -125v-4v-256q0 -2 -2 -4h-2q-2 0 -4 2l-252 252l-252 -252q-2 -2 -6 -2q-2 2 -2 4v256v4z" />
<glyph unicode="[" horiz-adv-x="512" d="M-4 -129v258v2l381 381l-125 125v4v256q0 2 2 4q4 0 6 -2l256 -256v-2v-256v-4l-512 -512q-2 -2 -4 -2h-2q-2 2 -2 4zM-4 897v256v2l512 512q2 2 6 2l2 -4v-256v-4l-512 -512q-2 -2 -4 -2h-2q-2 2 -2 6zM252 -129q0 4 2 6q4 0 6 -2l256 -256v-4v-256q0 -2 -2 -4h-2 q-2 0 -4 2l-256 256v2v256z" />
<glyph unicode="\" horiz-adv-x="1024" d="M-4 -129v258q0 2 2 4q4 0 6 -2l512 -512v-4v-256q0 -2 -2 -4h-2q-2 0 -4 2l-512 512v2zM-4 381v4v256q0 2 2 4q4 0 6 -2l252 -252l377 377l-637 637v4v256q0 2 2 4q4 0 6 -2l1024 -1024v-2v-256q0 -4 -2 -6q-4 0 -6 2l-252 252l-377 -377l637 -637v-4v-256q0 -2 -2 -4h-2 q-2 0 -4 2zM-4 893v4v256q0 2 2 4q4 0 6 -2l256 -256v-2v-256q0 -4 -2 -6h-2q-2 0 -4 2zM508 1405v4v256q0 2 2 4q4 0 6 -2l512 -512v-2v-256q0 -4 -2 -6h-2q-2 0 -4 2zM764 125v4v256q0 2 2 4q4 0 6 -2l256 -256v-2v-258q0 -2 -2 -4h-2q-2 0 -4 2z" />
<glyph unicode="]" horiz-adv-x="512" d="M-4 381v4v256v2l512 512q2 2 6 2l2 -4v-256v-4l-381 -381l125 -125v-2v-256q0 -4 -2 -6h-2q-2 0 -4 2zM-4 -381l512 512q2 2 6 2l2 -4v-258v-2l-512 -512q-2 -2 -4 -2h-2q-2 2 -2 4v256v4zM-4 1405v4v256q0 2 2 4q4 0 6 -2l256 -256v-2v-256q0 -4 -2 -6h-2q-2 0 -4 2z " />
<glyph unicode="^" d="M-4 -129v258q0 2 2 4q4 0 6 -2l252 -252l764 764q4 4 8 0l1024 -1024v-4v-256q0 -2 -2 -4h-2q-2 0 -4 2l-1020 1020l-1020 -1020q-2 -2 -6 -2q-2 2 -2 4v256v4l125 125l-125 125v2zM-4 385v256v2l125 125l-125 125v4v256q0 2 2 4q4 0 6 -2l252 -252l764 764q4 4 8 0 l768 -768v-2v-256q0 -4 -2 -6q-4 0 -6 2l-764 764l-1020 -1020q-2 -2 -4 -2h-2q-2 2 -2 6zM252 129v256v2l768 768q4 4 8 0l764 -764l252 252q2 2 6 2l2 -4v-256v-4l-125 -125l125 -125v-2v-258q0 -2 -2 -4h-2q-2 0 -4 2l-1020 1020l-764 -764q-2 -2 -6 -2q-2 2 -2 6z M252 1153v256v2l256 256q2 2 6 2l2 -4v-256v-4l-256 -256q-2 -2 -4 -2h-2q-2 2 -2 6zM508 -381l512 512q4 4 8 0l512 -512v-4v-256q0 -2 -2 -4h-2q-2 0 -4 2l-508 508l-508 -508q-2 -2 -6 -2q-2 2 -2 4v256v4zM1532 1405v4v256q0 2 2 4q4 0 6 -2l512 -512v-2v-256 q0 -4 -2 -6h-2q-2 0 -4 2z" />
<glyph unicode="_" horiz-adv-x="512" d="M-4 -381l381 381l-125 125v4v256v2l256 256q2 2 6 2l2 -4v-256v-4l-125 -125l125 -125v-2v-258v-2l-512 -512q-2 -2 -4 -2h-2q-2 2 -2 4v256v4zM-4 385v256v2l381 381l-125 125v4v256v2l256 256q2 2 6 2l2 -4v-256v-4l-125 -125l125 -125v-2v-256v-4l-512 -512 q-2 -2 -4 -2h-2q-2 2 -2 6z" />
<glyph unicode="`" horiz-adv-x="512" d="M-4 -129v258q0 2 2 4q4 0 6 -2l512 -512v-4v-256q0 -2 -2 -4h-2q-2 0 -4 2l-512 512v2zM-4 381v4v256q0 2 2 4q4 0 6 -2l512 -512v-2v-258q0 -2 -2 -4h-2q-2 0 -4 2zM-4 893v4v256q0 2 2 4q4 0 6 -2l252 -252l252 252q2 2 6 2q2 -2 2 -4v-256v-4l-256 -256q-2 -2 -4 -2 t-4 2zM-4 1405v4v256q0 2 2 4q4 0 6 -2l252 -252l252 252q2 2 6 2q2 -2 2 -4v-256v-4l-256 -256q-2 -2 -4 -2t-4 2z" />
<glyph unicode="a" horiz-adv-x="512" d="M-4 -129v258q0 2 2 4q4 0 6 -2l512 -512v-4v-256q0 -2 -2 -4h-2q-2 0 -4 2l-512 512v2zM-4 381v4v256q0 2 2 4q4 0 6 -2l512 -512v-2v-258q0 -2 -2 -4h-2q-2 0 -4 2zM-4 893v4v256q0 2 2 4q4 0 6 -2l512 -512v-2v-256q0 -4 -2 -6h-2q-2 0 -4 2zM-4 1405v4v256q0 2 2 4 q4 0 6 -2l512 -512v-2v-256q0 -4 -2 -6h-2q-2 0 -4 2z" />
<glyph unicode="b" d="M-4 -129v258v2l512 512q4 4 8 0l1020 -1020l377 377l-637 637v4v256q0 2 2 4q4 0 6 -2l768 -768v-2v-258v-2l-512 -512q-2 -2 -4 -2t-4 2l-1020 1020l-508 -508q-2 -2 -6 -2q-2 2 -2 4zM-4 -381l512 512q4 4 8 0l512 -512v-4v-256q0 -2 -2 -4h-2q-2 0 -4 2l-508 508 l-508 -508q-2 -2 -6 -2q-2 2 -2 4v256v4zM-4 385v256v2l125 125l-125 125v4v256q0 2 2 4q4 0 6 -2l256 -256v-2v-256v-4l-256 -256q-2 -2 -4 -2h-2q-2 2 -2 6zM-4 1405v4v256q0 2 2 4q4 0 6 -2l764 -764l764 764q2 2 6 2q2 -2 2 -4v-256v-4l-637 -637l637 -637v-2v-258 q0 -2 -2 -4h-2q-2 0 -4 2zM508 1405v4v256q0 2 2 4q4 0 6 -2l252 -252l252 252q2 2 6 2q2 -2 2 -4v-256v-4l-256 -256q-2 -2 -4 -2t-4 2zM1532 893v4v256v2l512 512q2 2 6 2q2 -2 2 -4v-256v-4l-381 -381l381 -381v-2v-256q0 -4 -2 -6h-2q-2 0 -4 2z" />
<glyph unicode="c" d="M-4 -129v258q0 2 2 4q4 0 6 -2l512 -512v-4v-256q0 -2 -2 -4h-2q-2 0 -4 2l-512 512v2zM-4 385v256v2l125 125l-125 125v4v256q0 2 2 4q4 0 6 -2l256 -256v-2v-256v-4l-256 -256q-2 -2 -4 -2h-2q-2 2 -2 6zM-4 1405v4v256q0 2 2 4q4 0 6 -2l768 -768v-2v-256v-4 l-381 -381l377 -377l252 252q4 4 8 0l256 -256v-4v-256v-2l-256 -256q-2 -2 -4 -2h-2q-2 2 -2 4v256v4l125 125l-121 121l-252 -252q-4 -4 -8 0l-512 512v4v256v2l381 381zM764 129v256v2l512 512q2 2 6 2q2 -2 2 -4v-256v-4l-125 -125l633 -633l252 252q2 2 6 2q2 -2 2 -4 v-258v-2l-512 -512q-2 -2 -4 -2h-2q-2 2 -2 4v256v4l125 125l-633 633l-252 -252q-2 -2 -6 -2q-2 2 -2 6zM764 1149v4v256v2l256 256q2 2 6 2q2 -2 2 -4v-256v-4l-125 -125l121 -121l252 252q4 4 8 0l512 -512v-2v-256v-4l-125 -125l121 -121l252 252q2 2 6 2q2 -2 2 -4 v-256v-4l-256 -256q-2 -2 -4 -2t-4 2l-256 256v4v256v2l125 125l-377 377l-252 -252q-4 -4 -8 0zM1532 1405v4v256q0 2 2 4q4 0 6 -2l512 -512v-2v-256q0 -4 -2 -6h-2q-2 0 -4 2z" />
<glyph unicode="d" d="M-4 -129v258q0 2 2 4q4 0 6 -2l256 -256v-4v-256v-2l-256 -256q-2 -2 -4 -2h-2q-2 2 -2 4v256v4l125 125l-125 125v2zM-4 385v256v2l1024 1024q2 2 6 2q2 -2 2 -4v-256v-4l-1024 -1024q-2 -2 -4 -2h-2q-2 2 -2 6zM-4 897v256v2l512 512q2 2 6 2q2 -2 2 -4v-256v-4 l-512 -512q-2 -2 -4 -2h-2q-2 2 -2 6zM252 125v4v256v2l1280 1280q2 2 6 2q2 -2 2 -4v-256v-4l-1149 -1149l121 -121l252 252q4 4 8 0l508 -508l252 252q4 4 8 0l256 -256v-4v-256v-2l-256 -256q-2 -2 -4 -2h-2q-2 2 -2 4v256v4l125 125l-121 121l-252 -252q-4 -4 -8 0 l-508 508l-252 -252q-4 -4 -8 0zM508 -381l256 256q4 4 8 0l256 -256v-4v-256q0 -2 -2 -4h-2q-2 0 -4 2l-252 252l-252 -252q-2 -2 -6 -2q-2 2 -2 4v256v4zM1020 381v4v256v2l1024 1024q2 2 6 2q2 -2 2 -4v-256v-4l-893 -893l121 -121l764 764q2 2 6 2q2 -2 2 -4v-256v-4 l-768 -768q-2 -2 -4 -2t-4 2zM1788 125v4v256v2l256 256q2 2 6 2q2 -2 2 -4v-256v-4l-125 -125l125 -125v-2v-258q0 -2 -2 -4h-2q-2 0 -4 2z" />
<glyph unicode="e" horiz-adv-x="512" d="M-4 -381l381 381l-381 381v4v256q0 2 2 4q4 0 6 -2l512 -512v-2v-258v-2l-512 -512q-2 -2 -4 -2h-2q-2 2 -2 4v256v4zM-4 893v4v256q0 2 2 4q4 0 6 -2l512 -512v-2v-256q0 -4 -2 -6h-2q-2 0 -4 2zM-4 1405v4v256q0 2 2 4q4 0 6 -2l512 -512v-2v-256q0 -4 -2 -6h-2 q-2 0 -4 2z" />
<glyph unicode="f" d="M-4 -129v258v2l125 125l-125 125v4v256q0 2 2 4q4 0 6 -2l256 -256v-2v-256v-4l-256 -256q-2 -2 -4 -2h-2q-2 2 -2 4zM-4 893v4v256q0 2 2 4q4 0 6 -2l508 -508l633 633l-125 125v4v256q0 2 2 4q4 0 6 -2l256 -256v-2v-256v-4l-768 -768q-2 -2 -4 -2t-4 2zM-4 1405v4v256 q0 2 2 4q4 0 6 -2l508 -508l121 121l-125 125v4v256q0 2 2 4q4 0 6 -2l256 -256v-2v-256v-4l-256 -256q-2 -2 -4 -2t-4 2zM252 -125l1405 1405l-125 125v4v256q0 2 2 4q4 0 6 -2l256 -256v-2v-256v-4l-1405 -1405l125 -125v-4v-256q0 -2 -2 -4h-2q-2 0 -4 2l-256 256v2v256 v4zM764 -125l768 768q4 4 8 0l512 -512v-2v-258q0 -2 -2 -4q-4 0 -6 2l-508 508l-633 -633l125 -125v-4v-256q0 -2 -2 -4h-2q-2 0 -4 2l-256 256v2v256v4zM1276 -125l256 256q4 4 8 0l512 -512v-4v-256q0 -2 -2 -4h-2q-2 0 -4 2l-508 508l-121 -121l125 -125v-4v-256 q0 -2 -2 -4q-4 0 -6 2l-256 256v2v256v4zM1788 637v4v256v2l256 256q2 2 6 2q2 -2 2 -4v-256v-4l-125 -125l125 -125v-2v-256q0 -4 -2 -6h-2q-2 0 -4 2z" />
<glyph unicode="g" d="M-4 -129v258q0 2 2 4q4 0 6 -2l512 -512v-4v-256q0 -2 -2 -4h-2q-2 0 -4 2l-512 512v2zM-4 385v256v2l1024 1024q2 2 6 2q2 -2 2 -4v-256v-4l-1024 -1024q-2 -2 -4 -2h-2q-2 2 -2 6zM-4 897v256v2l512 512q2 2 6 2q2 -2 2 -4v-256v-4l-512 -512q-2 -2 -4 -2h-2q-2 2 -2 6 zM252 125v4v256v2l512 512q4 4 8 0l512 -512v-2v-256q0 -4 -2 -6q-4 0 -6 2l-508 508l-377 -377l637 -637v-4v-256q0 -2 -2 -4h-2q-2 0 -4 2zM764 125v4v256q0 2 2 4q4 0 6 -2l508 -508l377 377l-637 637v4v256v2l256 256q4 4 8 0l768 -768v-2v-256q0 -4 -2 -6q-4 0 -6 2 l-764 764l-121 -121l637 -637v-2v-256v-4l-512 -512q-2 -2 -4 -2t-4 2zM1532 -381l512 512q2 2 6 2q2 -2 2 -4v-258v-2l-512 -512q-2 -2 -4 -2h-2q-2 2 -2 4v256v4zM1532 1405v4v256q0 2 2 4q4 0 6 -2l512 -512v-2v-256q0 -4 -2 -6h-2q-2 0 -4 2z" />
<glyph unicode="h" horiz-adv-x="1024" d="M-4 -129v258q0 2 2 4q4 0 6 -2l252 -252l121 121l-381 381v4v256q0 2 2 4q4 0 6 -2l512 -512v-2v-258v-2l-256 -256q-2 -2 -4 -2t-4 2l-256 256v2zM-4 893v4v256q0 2 2 4q4 0 6 -2l252 -252l121 121l-381 381v4v256q0 2 2 4q4 0 6 -2l512 -512v-2v-256v-4l-256 -256 q-2 -2 -4 -2t-4 2zM508 381v4v256v2l256 256q4 4 8 0l256 -256v-2v-256q0 -4 -2 -6q-4 0 -6 2l-252 252l-121 -121l381 -381v-2v-258q0 -2 -2 -4h-2q-2 0 -4 2zM508 -381l256 256q4 4 8 0l256 -256v-4v-256q0 -2 -2 -4h-2q-2 0 -4 2l-252 252l-252 -252q-2 -2 -6 -2 q-2 2 -2 4v256v4zM508 1405v4v256q0 2 2 4q4 0 6 -2l512 -512v-2v-256q0 -4 -2 -6h-2q-2 0 -4 2z" />
<glyph unicode="i" horiz-adv-x="512" d="M-4 -121v258q0 2 2 4q4 0 6 -2l512 -512v-4v-256q0 -2 -2 -4h-2q-2 0 -4 2l-512 512v2zM-4 389v4v256q0 2 2 4q4 0 6 -2l512 -512v-2v-258q0 -2 -2 -4h-2q-2 0 -4 2zM-4 901v4v256v2l512 512q2 2 6 2q2 -2 2 -4v-256v-4l-381 -381l381 -381v-2v-256q0 -4 -2 -6h-2 q-2 0 -4 2z" />
<glyph unicode="j" d="M-4 -129v258v2l1149 1149l-125 125v4v256q0 2 2 4q4 0 6 -2l256 -256v-2v-256v-4l-1280 -1280q-2 -2 -4 -2h-2q-2 2 -2 4zM-4 385v256v2l637 637l-121 121l-508 -508q-2 -2 -6 -2q-2 2 -2 6v256v2l512 512q4 4 8 0l256 -256v-2v-256v-4l-768 -768q-2 -2 -4 -2h-2 q-2 2 -2 6zM252 -125l1405 1405l-125 125v4v256q0 2 2 4q4 0 6 -2l256 -256v-2v-256v-4l-1405 -1405l125 -125v-4v-256q0 -2 -2 -4h-2q-2 0 -4 2l-256 256v2v256v4zM764 -125l1280 1280q2 2 6 2q2 -2 2 -4v-256v-4l-1149 -1149l125 -125v-4v-256q0 -2 -2 -4h-2q-2 0 -4 2 l-256 256v2v256v4zM1276 -125l768 768q2 2 6 2q2 -2 2 -4v-256v-4l-637 -637l121 -121l508 508q2 2 6 2q2 -2 2 -4v-258v-2l-512 -512q-2 -2 -4 -2t-4 2l-256 256v2v256v4z" />
<glyph unicode="k" d="M-4 -129v258q0 2 2 4q4 0 6 -2l512 -512v-4v-256q0 -2 -2 -4h-2q-2 0 -4 2l-512 512v2zM-4 381v4v256q0 2 2 4q4 0 6 -2l252 -252l121 121l-381 381v4v256q0 2 2 4q4 0 6 -2l512 -512v-2v-256v-4l-256 -256q-2 -2 -4 -2t-4 2zM-4 1405v4v256q0 2 2 4q4 0 6 -2l256 -256 v-2v-256q0 -4 -2 -6h-2q-2 0 -4 2zM508 -129v258v2l1024 1024q4 4 8 0l512 -512v-2v-256q0 -4 -2 -6q-4 0 -6 2l-508 508l-889 -889l381 -381v-4v-256q0 -2 -2 -4h-2q-2 0 -4 2l-512 512v2zM508 893v4v256v2l125 125l-125 125v4v256q0 2 2 4q4 0 6 -2l256 -256v-2v-256v-4 l-125 -125l121 -121l377 377l-125 125v4v256q0 2 2 4q4 0 6 -2l256 -256v-2v-256v-4l-512 -512q-2 -2 -4 -2t-4 2zM1020 -129v258v2l512 512q4 4 8 0l256 -256v-2v-256v-4l-125 -125l381 -381v-4v-256q0 -2 -2 -4h-2q-2 0 -4 2l-512 512v2v258v2l125 125l-121 121l-377 -377 l381 -381v-4v-256q0 -2 -2 -4q-4 0 -6 2l-512 512v2zM1532 1405v4v256q0 2 2 4q4 0 6 -2l512 -512v-2v-256q0 -4 -2 -6h-2q-2 0 -4 2z" />
<glyph unicode="l" horiz-adv-x="1024" d="M-4 -129v258q0 2 2 4q4 0 6 -2l512 -512v-4v-256q0 -2 -2 -4h-2q-2 0 -4 2l-512 512v2zM-4 381v4v256v2l125 125l-125 125v4v256q0 2 2 4q4 0 6 -2l256 -256v-2v-256v-4l-125 -125l893 -893v-4v-256q0 -2 -2 -4h-2q-2 0 -4 2zM-4 1405v4v256q0 2 2 4q4 0 6 -2l768 -768 v-2v-256v-4l-125 -125l381 -381v-2v-258q0 -2 -2 -4h-2q-2 0 -4 2l-512 512v4v256v2l125 125zM508 1405v4v256q0 2 2 4q4 0 6 -2l512 -512v-2v-256q0 -4 -2 -6h-2q-2 0 -4 2z" />
<glyph unicode="m" d="M-4 -129v258q0 2 2 4q4 0 6 -2l256 -256v-4v-256v-2l-256 -256q-2 -2 -4 -2h-2q-2 2 -2 4v256v4l125 125l-125 125v2zM-4 381v4v256q0 2 2 4q4 0 6 -2l508 -508l121 121l-125 125v4v256q0 2 2 4q4 0 6 -2l256 -256v-2v-256v-4l-256 -256q-2 -2 -4 -2t-4 2zM-4 893v4v256 q0 2 2 4q4 0 6 -2l252 -252l121 121l-125 125v4v256v2l256 256q4 4 8 0l252 -252l252 252q2 2 6 2q2 -2 2 -4v-256v-4l-256 -256q-4 -4 -8 0l-252 252l-121 -121l125 -125v-2v-256v-4l-256 -256q-2 -2 -4 -2t-4 2zM764 -125l256 256q4 4 8 0l252 -252l121 121l-637 637v4 v256q0 2 2 4q4 0 6 -2l252 -252l121 121l-125 125v4v256v2l256 256q4 4 8 0l252 -252l121 121l-125 125v4v256q0 2 2 4q4 0 6 -2l256 -256v-2v-256v-4l-256 -256q-4 -4 -8 0l-252 252l-121 -121l125 -125v-2v-256v-4l-125 -125l381 -381v-2v-258v-2l-256 -256q-4 -4 -8 0 l-252 252l-121 -121l125 -125v-4v-256q0 -2 -2 -4h-2q-2 0 -4 2l-256 256v2v256v4zM1532 381v4v256q0 2 2 4q4 0 6 -2l512 -512v-2v-258q0 -2 -2 -4h-2q-2 0 -4 2zM1532 -381l256 256q4 4 8 0l256 -256v-4v-256q0 -2 -2 -4h-2q-2 0 -4 2l-252 252l-252 -252q-2 -2 -6 -2 q-2 2 -2 4v256v4zM1788 637v4v256v2l256 256q2 2 6 2q2 -2 2 -4v-256v-4l-125 -125l125 -125v-2v-256q0 -4 -2 -6h-2q-2 0 -4 2z" />
<glyph unicode="n" d="M-4 -129v258v2l256 256q4 4 8 0l252 -252l377 377l-125 125v4v256v2l256 256q2 2 6 2q2 -2 2 -4v-256v-4l-125 -125l125 -125v-2v-256v-4l-125 -125l637 -637v-4v-256q0 -2 -2 -4h-2q-2 0 -4 2l-764 764l-764 -764q-2 -2 -6 -2q-2 2 -2 4v256v4l381 381l-121 121 l-252 -252q-2 -2 -6 -2q-2 2 -2 4zM-4 385v256v2l637 637l-125 125v4v256q0 2 2 4q4 0 6 -2l256 -256v-2v-256v-4l-381 -381l125 -125v-2v-256q0 -4 -2 -6h-2q-2 0 -4 2l-252 252l-252 -252q-2 -2 -6 -2q-2 2 -2 6zM-4 897v256v2l256 256q2 2 6 2q2 -2 2 -4v-256v-4 l-256 -256q-2 -2 -4 -2h-2q-2 2 -2 6zM508 -381l256 256q4 4 8 0l256 -256v-4v-256q0 -2 -2 -4h-2q-2 0 -4 2l-252 252l-252 -252q-2 -2 -6 -2q-2 2 -2 4v256v4zM1020 1405v4v256q0 2 2 4q4 0 6 -2l508 -508l508 508q2 2 6 2q2 -2 2 -4v-256v-4l-125 -125l125 -125v-2v-256 q0 -4 -2 -6q-4 0 -6 2l-252 252l-377 -377l125 -125v-2v-256v-4l-256 -256q-2 -2 -4 -2h-2q-2 2 -2 6v256v2l125 125l-125 125v4v256v2l125 125zM1532 -129v258v2l381 381l-125 125v4v256q0 2 2 4q4 0 6 -2l256 -256v-2v-256v-4l-381 -381l125 -125v-4v-256q0 -2 -2 -4h-2 q-2 0 -4 2l-256 256v2z" />
<glyph unicode="o" horiz-adv-x="512" d="M-4 -129v258v2l381 381l-381 381v4v256q0 2 2 4q4 0 6 -2l512 -512v-2v-256v-4l-512 -512q-2 -2 -4 -2h-2q-2 2 -2 4zM-4 -381l512 512q2 2 6 2q2 -2 2 -4v-258v-2l-512 -512q-2 -2 -4 -2h-2q-2 2 -2 4v256v4zM-4 1405v4v256q0 2 2 4q4 0 6 -2l512 -512v-2v-256 q0 -4 -2 -6h-2q-2 0 -4 2z" />
<glyph unicode="p" d="M-4 -129v258v2l1149 1149l-125 125v4v256q0 2 2 4q4 0 6 -2l256 -256v-2v-256v-4l-1280 -1280q-2 -2 -4 -2h-2q-2 2 -2 4zM-4 -381l1536 1536q4 4 8 0l512 -512v-2v-256q0 -4 -2 -6q-4 0 -6 2l-508 508l-1532 -1532q-2 -2 -4 -2h-2q-2 2 -2 4v256v4zM-4 385v256v2 l637 637l-125 125v4v256q0 2 2 4q4 0 6 -2l256 -256v-2v-256v-4l-768 -768q-2 -2 -4 -2h-2q-2 2 -2 6zM-4 897v256v2l125 125l-125 125v4v256q0 2 2 4q4 0 6 -2l256 -256v-2v-256v-4l-256 -256q-2 -2 -4 -2h-2q-2 2 -2 6zM508 -381l1024 1024q4 4 8 0l512 -512v-2v-258 q0 -2 -2 -4q-4 0 -6 2l-508 508l-1020 -1020q-2 -2 -4 -2h-2q-2 2 -2 4v256v4zM1020 -381l256 256q2 2 6 2q2 -2 2 -6v-256v-2l-256 -256q-2 -2 -4 -2h-2q-2 2 -2 4v256v4zM1532 -129v258q0 2 2 4q4 0 6 -2l256 -256v-4v-256v-2l-256 -256q-2 -2 -4 -2h-2q-2 2 -2 4v256v4 l125 125l-125 125v2zM1532 1405v4v256q0 2 2 4q4 0 6 -2l512 -512v-2v-256q0 -4 -2 -6h-2q-2 0 -4 2z" />
<glyph unicode="q" d="M-4 -129v258v2l512 512q4 4 8 0l252 -252l121 121l-377 377l-508 -508q-2 -2 -6 -2q-2 2 -2 6v256v2l512 512q4 4 8 0l508 -508l252 252q2 2 6 2q2 -2 2 -4v-256v-4l-512 -512q-4 -4 -8 0l-252 252l-508 -508q-2 -2 -4 -2h-2q-2 2 -2 4zM-4 -381l512 512q4 4 8 0 l252 -252l1276 1276q2 2 6 2q2 -2 2 -4v-256v-4l-637 -637l121 -121l508 508q2 2 6 2q2 -2 2 -4v-256v-4l-512 -512q-4 -4 -8 0l-252 252l-508 -508q-4 -4 -8 0l-252 252l-508 -508q-2 -2 -4 -2h-2q-2 2 -2 4v256v4zM-4 897v256v2l512 512q4 4 8 0l252 -252l252 252q2 2 6 2 q2 -2 2 -4v-256v-4l-256 -256q-4 -4 -8 0l-252 252l-508 -508q-2 -2 -4 -2h-2q-2 2 -2 6zM1020 -381l256 256q4 4 8 0l252 -252l508 508q2 2 6 2q2 -2 2 -4v-258v-2l-512 -512q-4 -4 -8 0l-252 252l-252 -252q-2 -2 -4 -2h-2q-2 2 -2 4v256v4zM1020 897v256v2l256 256 q4 4 8 0l252 -252l508 508q2 2 6 2q2 -2 2 -4v-256v-4l-512 -512q-4 -4 -8 0l-252 252l-252 -252q-2 -2 -4 -2h-2q-2 2 -2 6z" />
<glyph unicode="r" horiz-adv-x="1024" d="M-4 -381l381 381l-381 381v4v256q0 2 2 4q4 0 6 -2l512 -512v-2v-258v-2l-512 -512q-2 -2 -4 -2h-2q-2 2 -2 4v256v4zM-4 893v4v256q0 2 2 4q4 0 6 -2l1024 -1024v-2v-258v-2l-512 -512q-2 -2 -4 -2h-2q-2 2 -2 4v256v4l381 381zM-4 1405v4v256q0 2 2 4q4 0 6 -2 l508 -508l508 508q2 2 6 2q2 -2 2 -4v-256v-4l-512 -512q-2 -2 -4 -2t-4 2zM764 637v4v256v2l256 256q2 2 6 2q2 -2 2 -4v-256v-4l-125 -125l125 -125v-2v-256q0 -4 -2 -6h-2q-2 0 -4 2z" />
<glyph unicode="s" horiz-adv-x="1024" d="M-4 -129v258v2l512 512q2 2 6 2q2 -2 2 -4v-256v-4l-381 -381l377 -377l508 508q2 2 6 2q2 -2 2 -4v-258v-2l-512 -512q-2 -2 -4 -2t-4 2l-512 512v2zM-4 385v256v2l1024 1024q2 2 6 2q2 -2 2 -4v-256v-4l-381 -381l381 -381v-2v-256v-4l-512 -512q-2 -2 -4 -2h-2 q-2 2 -2 4v258v2l381 381l-377 377l-508 -508q-2 -2 -6 -2q-2 2 -2 6zM-4 897v256v2l512 512q2 2 6 2q2 -2 2 -4v-256v-4l-512 -512q-2 -2 -4 -2h-2q-2 2 -2 6z" />
<glyph unicode="t" horiz-adv-x="1024" d="M-4 -129v258v2l512 512q4 4 8 0l256 -256v-2v-256v-4l-768 -768q-2 -2 -4 -2h-2q-2 2 -2 4v256v4l637 637l-121 121l-508 -508q-2 -2 -6 -2q-2 2 -2 4zM-4 385v256v2l125 125l-125 125v4v256q0 2 2 4q4 0 6 -2l256 -256v-2v-256v-4l-256 -256q-2 -2 -4 -2h-2q-2 2 -2 6z M-4 1405v4v256q0 2 2 4q4 0 6 -2l1024 -1024v-2v-256q0 -4 -2 -6h-2q-2 0 -4 2zM508 -381l512 512q2 2 6 2q2 -2 2 -4v-258v-2l-512 -512q-2 -2 -4 -2h-2q-2 2 -2 4v256v4zM508 1405v4v256q0 2 2 4q4 0 6 -2l512 -512v-2v-256q0 -4 -2 -6h-2q-2 0 -4 2z" />
<glyph unicode="u" horiz-adv-x="512" d="M-4 -381l381 381l-381 381v4v256q0 2 2 4q4 0 6 -2l512 -512v-2v-258v-2l-512 -512q-2 -2 -4 -2h-2q-2 2 -2 4v256v4zM-4 893v4v256v2l512 512q2 2 6 2q2 -2 2 -4v-256v-4l-381 -381l381 -381v-2v-256q0 -4 -2 -6h-2q-2 0 -4 2z" />
<glyph unicode="v" d="M-4 -129v258v2l381 381l-121 121l-252 -252q-2 -2 -6 -2q-2 2 -2 6v256v2l256 256q4 4 8 0l256 -256v-2v-256v-4l-125 -125l377 -377l764 764q2 2 6 2q2 -2 2 -4v-256v-4l-125 -125l637 -637v-4v-256q0 -2 -2 -4h-2q-2 0 -4 2l-764 764l-764 -764q-2 -2 -6 -2q-2 2 -2 4 v256v4l125 125l-377 377l-252 -252q-2 -2 -6 -2q-2 2 -2 4zM-4 -381l256 256q2 2 6 2q2 -2 2 -6v-256v-2l-256 -256q-2 -2 -4 -2h-2q-2 2 -2 4v256v4zM-4 897v256v2l512 512q2 2 6 2q2 -2 2 -4v-256v-4l-125 -125l633 -633l1020 1020q2 2 6 2q2 -2 2 -4v-256v-4l-1280 -1280 q-2 -2 -4 -2h-2q-2 2 -2 6v256v2l125 125l-633 633l-252 -252q-2 -2 -6 -2q-2 2 -2 6zM764 1149v4v256v2l256 256q2 2 6 2q2 -2 2 -4v-256v-4l-125 -125l121 -121l508 508q2 2 6 2q2 -2 2 -4v-256v-4l-512 -512q-2 -2 -4 -2t-4 2zM1020 -381l256 256q4 4 8 0l256 -256v-4 v-256q0 -2 -2 -4h-2q-2 0 -4 2l-252 252l-252 -252q-2 -2 -6 -2q-2 2 -2 4v256v4zM1788 125v4v256v2l256 256q2 2 6 2q2 -2 2 -4v-256v-4l-125 -125l125 -125v-2v-258q0 -2 -2 -4h-2q-2 0 -4 2zM1788 641v256v2l256 256q2 2 6 2q2 -2 2 -4v-256v-4l-256 -256q-2 -2 -4 -2h-2 q-2 2 -2 6z" />
<glyph unicode="w" d="M-4 -129v258v2l381 381l-381 381v4v256v2l512 512q4 4 8 0l252 -252l252 252q4 4 8 0l256 -256v-2v-256q0 -4 -2 -6q-4 0 -6 2l-252 252l-252 -252q-4 -4 -8 0l-252 252l-377 -377l381 -381v-2v-256v-4l-512 -512q-2 -2 -4 -2h-2q-2 2 -2 4zM-4 -381l1149 1149l-121 121 l-252 -252q-4 -4 -8 0l-256 256v4v256q0 2 2 4q4 0 6 -2l252 -252l252 252q4 4 8 0l252 -252l252 252q4 4 8 0l512 -512v-2v-256q0 -4 -2 -6q-4 0 -6 2l-252 252l-377 -377l637 -637v-4v-256q0 -2 -2 -4h-2q-2 0 -4 2l-768 768v4v256v2l381 381l-121 121l-1532 -1532 q-2 -2 -6 -2q-2 2 -2 4v256v4zM508 -381l512 512q4 4 8 0l512 -512v-4v-256q0 -2 -2 -4h-2q-2 0 -4 2l-508 508l-508 -508q-2 -2 -6 -2q-2 2 -2 4v256v4zM1532 1405v4v256q0 2 2 4q4 0 6 -2l512 -512v-2v-256q0 -4 -2 -6h-2q-2 0 -4 2zM1788 125v4v256q0 2 2 4q4 0 6 -2 l256 -256v-2v-258q0 -2 -2 -4h-2q-2 0 -4 2z" />
<glyph unicode="x" d="M-4 -129v258q0 2 2 4q4 0 6 -2l252 -252l121 121l-125 125v4v256v2l512 512q2 2 6 2q2 -2 2 -4v-256v-4l-125 -125l377 -377l252 252q2 2 6 2q2 -2 2 -4v-256v-4l-512 -512q-2 -2 -6 -2q-2 2 -2 4v256v4l125 125l-377 377l-121 -121l125 -125v-2v-258v-2l-125 -125 l125 -125v-4v-256q0 -2 -2 -4h-2q-2 0 -4 2l-252 252l-252 -252q-2 -2 -6 -2q-2 2 -2 4v256v4l125 125l-125 125v2zM-4 893v4v256v2l256 256q2 2 6 2q2 -2 2 -4v-256v-4l-125 -125l121 -121l377 377l-125 125v4v256q0 2 2 4q4 0 6 -2l252 -252l252 252q2 2 6 2q2 -2 2 -4 v-256v-4l-768 -768q-2 -2 -4 -2t-4 2zM1020 385v256v2l125 125l-125 125v4v256q0 2 2 4q4 0 6 -2l252 -252l252 252q4 4 8 0l252 -252l121 121l-377 377l-252 -252q-2 -2 -6 -2q-2 2 -2 6v256v2l256 256q4 4 8 0l512 -512v-2v-256v-4l-256 -256q-4 -4 -8 0l-252 252 l-121 -121l377 -377l252 252q2 2 6 2q2 -2 2 -4v-256v-4l-125 -125l125 -125v-2v-258q0 -2 -2 -4h-2q-2 0 -4 2l-252 252l-252 -252q-2 -2 -6 -2q-2 2 -2 4v258v2l125 125l-377 377l-252 -252q-2 -2 -6 -2q-2 2 -2 6zM1276 -129q0 4 2 6q4 0 6 -2l252 -252l252 252q2 2 6 2 q2 -2 2 -6v-256v-2l-256 -256q-2 -2 -4 -2t-4 2l-256 256v2v256z" />
<glyph unicode="y" horiz-adv-x="512" d="M-4 -129v258q0 2 2 4q4 0 6 -2l512 -512v-4v-256q0 -2 -2 -4h-2q-2 0 -4 2l-512 512v2zM-4 385v256v2l125 125l-125 125v4v256q0 2 2 4q4 0 6 -2l256 -256v-2v-256v-4l-256 -256q-2 -2 -4 -2h-2q-2 2 -2 6zM-4 1405v4v256q0 2 2 4q4 0 6 -2l512 -512v-2v-256q0 -4 -2 -6 h-2q-2 0 -4 2zM252 125v4v256v2l256 256q2 2 6 2q2 -2 2 -4v-256v-4l-125 -125l125 -125v-2v-258q0 -2 -2 -4h-2q-2 0 -4 2z" />
<glyph unicode="z" d="M-4 -129v258v2l125 125l-125 125v4v256q0 2 2 4q4 0 6 -2l508 -508l764 764q4 4 8 0l252 -252l508 508q2 2 6 2q2 -2 2 -4v-256v-4l-125 -125l125 -125v-2v-256q0 -4 -2 -6q-4 0 -6 2l-252 252l-252 -252q-4 -4 -8 0l-252 252l-764 -764q-4 -4 -8 0l-252 252l-252 -252 q-2 -2 -4 -2h-2q-2 2 -2 4zM-4 897v256v2l256 256q4 4 8 0l252 -252l252 252q2 2 6 2q2 -2 2 -4v-256v-4l-256 -256q-4 -4 -8 0l-252 252l-252 -252q-2 -2 -4 -2h-2q-2 2 -2 6zM252 -129q0 4 2 6q4 0 6 -2l252 -252l764 764q4 4 8 0l252 -252l252 252q2 2 6 2q2 -2 2 -4 v-256v-4l-256 -256q-4 -4 -8 0l-252 252l-377 -377l125 -125v-4v-256q0 -2 -2 -4h-2q-2 0 -4 2l-252 252l-252 -252q-4 -4 -8 0l-256 256v2v256zM252 637v4v256q0 2 2 4q4 0 6 -2l252 -252l633 633l-125 125v4v256q0 2 2 4q4 0 6 -2l508 -508l508 508q2 2 6 2q2 -2 2 -4 v-256v-4l-512 -512q-4 -4 -8 0l-252 252l-764 -764q-2 -2 -4 -2t-4 2zM1276 -129q0 4 2 6q4 0 6 -2l252 -252l508 508q2 2 6 2q2 -2 2 -4v-258v-2l-125 -125l125 -125v-4v-256q0 -2 -2 -4h-2q-2 0 -4 2l-252 252l-252 -252q-4 -4 -8 0l-256 256v2v256z" />
<glyph unicode="{" horiz-adv-x="512" d="M-4 381v4v256v2l512 512q2 2 6 2l2 -4v-256v-4l-381 -381l381 -381v-2v-258q0 -2 -2 -4h-2q-2 0 -4 2zM-4 -381l256 256q4 4 8 0l256 -256v-4v-256q0 -2 -2 -4h-2q-2 0 -4 2l-252 252l-252 -252q-2 -2 -6 -2q-2 2 -2 4v256v4zM-4 1405v4v256q0 2 2 4q4 0 6 -2l252 -252 l252 252q2 2 6 2l2 -4v-256v-4l-256 -256q-2 -2 -4 -2t-4 2z" />
<glyph unicode="|" horiz-adv-x="1024" d="M-4 -129v258q0 2 2 4q4 0 6 -2l512 -512v-4v-256q0 -2 -2 -4h-2q-2 0 -4 2l-512 512v2zM-4 385v256v2l256 256q4 4 8 0l508 -508l252 252q2 2 6 2l2 -4v-256v-4l-256 -256q-2 -2 -4 -2t-4 2l-508 508l-252 -252q-2 -2 -6 -2q-2 2 -2 6zM-4 1405v4v256q0 2 2 4q4 0 6 -2 l768 -768v-2v-256q0 -4 -2 -6h-2q-2 0 -4 2zM252 125v4v256q0 2 2 4q4 0 6 -2l768 -768v-4v-256q0 -2 -2 -4h-2q-2 0 -4 2zM508 1405v4v256q0 2 2 4q4 0 6 -2l512 -512v-2v-256q0 -4 -2 -6h-2q-2 0 -4 2z" />
<glyph unicode="}" horiz-adv-x="512" d="M-4 -129v258v2l381 381l-381 381v4v256q0 2 2 4q4 0 6 -2l512 -512v-2v-256v-4l-512 -512q-2 -2 -4 -2h-2q-2 2 -2 4zM-4 -381l256 256q4 4 8 0l256 -256v-4v-256q0 -2 -2 -4h-2q-2 0 -4 2l-252 252l-252 -252q-2 -2 -6 -2q-2 2 -2 4v256v4zM-4 1405v4v256q0 2 2 4 q4 0 6 -2l252 -252l252 252q2 2 6 2l2 -4v-256v-4l-256 -256q-2 -2 -4 -2t-4 2z" />
<glyph unicode="~" d="M-4 -129v258v2l125 125l-125 125v4v256q0 2 2 4q4 0 6 -2l256 -256v-2v-256v-4l-256 -256q-2 -2 -4 -2h-2q-2 2 -2 4zM-4 893v4v256q0 2 2 4q4 0 6 -2l1024 -1024v-2v-258q0 -2 -2 -4h-2q-2 0 -4 2zM-4 1405v4v256q0 2 2 4q4 0 6 -2l1020 -1020l252 252q2 2 6 2 q2 -2 2 -4v-256v-4l-256 -256q-2 -2 -4 -2t-4 2zM252 -125l256 256q4 4 8 0l508 -508l377 377l-125 125v4v256v2l256 256q4 4 8 0l512 -512v-2v-258q0 -2 -2 -4q-4 0 -6 2l-508 508l-121 -121l125 -125v-2v-258v-2l-512 -512q-4 -4 -8 0l-508 508l-121 -121l125 -125v-4 v-256q0 -2 -2 -4h-2q-2 0 -4 2l-256 256v2v256v4zM508 1405v4v256q0 2 2 4q4 0 6 -2l256 -256v-2v-256q0 -4 -2 -6h-2q-2 0 -4 2zM1020 897v256v2l512 512q2 2 6 2q2 -2 2 -4v-256v-4l-512 -512q-2 -2 -4 -2h-2q-2 2 -2 6zM1532 -381l256 256q4 4 8 0l256 -256v-4v-256 q0 -2 -2 -4h-2q-2 0 -4 2l-252 252l-252 -252q-2 -2 -6 -2q-2 2 -2 4v256v4zM1532 893v4v256v2l256 256q4 4 8 0l256 -256v-2v-256q0 -4 -2 -6q-4 0 -6 2l-252 252l-121 -121l381 -381v-2v-256q0 -4 -2 -6h-2q-2 0 -4 2z" />
<glyph unicode="&#xa1;" horiz-adv-x="1024" d="M-4 -129v258v2l1024 1024q2 2 6 2l2 -4v-256v-4l-893 -893l381 -381v-4v-256q0 -2 -2 -4h-2q-2 0 -4 2l-512 512v2zM-4 385v256v2l1024 1024q2 2 6 2l2 -4v-256v-4l-1024 -1024q-2 -2 -4 -2h-2q-2 2 -2 6zM-4 897v256v2l512 512q2 2 6 2l2 -4v-256v-4l-512 -512 q-2 -2 -4 -2h-2q-2 2 -2 6zM508 -129v258v2l512 512q2 2 6 2l2 -4v-256v-4l-381 -381l381 -381v-4v-256q0 -2 -2 -4h-2q-2 0 -4 2l-512 512v2z" />
<glyph unicode="&#xa2;" d="M-4 -129v258v2l381 381l-121 121l-252 -252q-2 -2 -6 -2q-2 2 -2 6v256v2l256 256q4 4 8 0l256 -256v-2v-256v-4l-381 -381l377 -377l764 764q4 4 8 0l768 -768v-4v-256q0 -2 -2 -4h-2q-2 0 -4 2l-508 508l-508 -508q-2 -2 -6 -2q-2 2 -2 4v256v4l381 381l-121 121 l-764 -764q-4 -4 -8 0l-512 512v2zM-4 1405v4v256q0 2 2 4q4 0 6 -2l508 -508l508 508q2 2 6 2l2 -4v-256v-4l-381 -381l377 -377l508 508q2 2 6 2l2 -4v-256v-4l-1024 -1024q-2 -2 -4 -2h-2q-2 2 -2 4v258v2l381 381zM1020 897v256v2l512 512q4 4 8 0l512 -512v-2v-256v-4 l-381 -381l121 -121l252 252q2 2 6 2l2 -4v-256v-4l-256 -256q-2 -2 -4 -2t-4 2l-256 256v4v256v2l381 381l-377 377l-508 -508q-2 -2 -6 -2q-2 2 -2 6z" />
<glyph unicode="&#xa3;" horiz-adv-x="512" d="M-4 -129v258v2l125 125l-125 125v4v256q0 2 2 4q4 0 6 -2l512 -512v-2v-258v-2l-512 -512q-2 -2 -4 -2h-2q-2 2 -2 4v256v4l381 381l-121 121l-252 -252q-2 -2 -6 -2q-2 2 -2 4zM-4 893v4v256v2l512 512q2 2 6 2l2 -4v-256v-4l-381 -381l121 -121l252 252q2 2 6 2l2 -4 v-256v-4l-125 -125l125 -125v-2v-256q0 -4 -2 -6h-2q-2 0 -4 2z" />
<glyph unicode="&#xa5;" horiz-adv-x="512" d="M-4 -129v258q0 2 2 4q4 0 6 -2l512 -512v-4v-256q0 -2 -2 -4h-2q-2 0 -4 2l-512 512v2zM-4 385v256v2l381 381l-381 381v4v256q0 2 2 4q4 0 6 -2l512 -512v-2v-256v-4l-512 -512q-2 -2 -4 -2h-2q-2 2 -2 6zM252 125v4v256v2l256 256q2 2 6 2q2 -2 2 -4v-256v-4l-125 -125 l125 -125v-2v-258q0 -2 -2 -4h-2q-2 0 -4 2z" />
<glyph unicode="&#xa7;" horiz-adv-x="512" d="M-4 381v4v256v2l256 256q4 4 8 0l256 -256v-2v-256v-4l-256 -256q-2 -2 -4 -2t-4 2zM-4 -381l512 512q2 2 6 2l2 -4v-258v-2l-512 -512q-2 -2 -4 -2h-2q-2 2 -2 4v256v4zM-4 897v256v2l512 512q2 2 6 2l2 -4v-256v-4l-512 -512q-2 -2 -4 -2h-2q-2 2 -2 6zM135 512 l121 -121l121 121l-121 121z" />
<glyph unicode="&#xa8;" horiz-adv-x="512" d="M-4 -129v258q0 2 2 4q4 0 6 -2l512 -512v-4v-256q0 -2 -2 -4h-2q-2 0 -4 2l-512 512v2zM-4 381v4v256v2l381 381l-381 381v4v256q0 2 2 4q4 0 6 -2l512 -512v-2v-256v-4l-381 -381l381 -381v-2v-258q0 -2 -2 -4h-2q-2 0 -4 2z" />
<glyph unicode="&#xa9;" d="M-4 -129v258q0 2 2 4q4 0 6 -2l512 -512v-4v-256q0 -2 -2 -4h-2q-2 0 -4 2l-512 512v2zM-4 381v4v256q0 2 2 4q4 0 6 -2l256 -256v-2v-256q0 -4 -2 -6h-2q-2 0 -4 2zM-4 893v4v256q0 2 2 4q4 0 6 -2l768 -768v-2v-256v-4l-125 -125l381 -381v-4v-256q0 -2 -2 -4h-2 q-2 0 -4 2l-512 512v2v258v2l125 125zM-4 1405v4v256q0 2 2 4q4 0 6 -2l1276 -1276l252 252q4 4 8 0l512 -512v-2v-258q0 -2 -2 -4q-4 0 -6 2l-508 508l-377 -377l381 -381v-4v-256q0 -2 -2 -4h-2q-2 0 -4 2l-512 512v2v258v2l125 125zM508 1405v4v256q0 2 2 4q4 0 6 -2 l764 -764l252 252q4 4 8 0l512 -512v-2v-256q0 -4 -2 -6h-2q-2 0 -4 2l-508 508l-252 -252q-4 -4 -8 0zM1020 1405v4v256q0 2 2 4q4 0 6 -2l256 -256v-2v-256q0 -4 -2 -6h-2q-2 0 -4 2zM1532 -129v258q0 2 2 4q4 0 6 -2l512 -512v-4v-256q0 -2 -2 -4h-2q-2 0 -4 2l-512 512 v2zM1532 1405v4v256q0 2 2 4q4 0 6 -2l512 -512v-2v-256q0 -4 -2 -6h-2q-2 0 -4 2z" />
<glyph unicode="&#xaa;" horiz-adv-x="1024" d="M-4 -129v258v2l125 125l-125 125v4v256v2l1024 1024q2 2 6 2l2 -4v-256v-4l-893 -893l121 -121l252 252q2 2 6 2l2 -4v-256v-4l-512 -512q-2 -2 -4 -2h-2q-2 2 -2 4zM-4 -381l893 893l-125 125v4v256q0 2 2 4q4 0 6 -2l256 -256v-2v-256v-4l-1024 -1024q-2 -2 -4 -2h-2 q-2 2 -2 4v256v4zM-4 897v256v2l125 125l-125 125v4v256q0 2 2 4q4 0 6 -2l252 -252l252 252q2 2 6 2l2 -4v-256v-4l-512 -512q-2 -2 -4 -2h-2q-2 2 -2 6zM764 -129q0 4 2 6q4 0 6 -2l256 -256v-4v-256q0 -2 -2 -4h-2q-2 0 -4 2l-256 256v2v256z" />
<glyph unicode="&#xab;" horiz-adv-x="1024" d="M-4 -129v258q0 2 2 4q4 0 6 -2l252 -252l377 377l-125 125v4v256v2l512 512q2 2 6 2l2 -4v-256v-4l-381 -381l381 -381v-2v-258q0 -2 -2 -4q-4 0 -6 2l-252 252l-377 -377l125 -125v-4v-256q0 -2 -2 -4h-2q-2 0 -4 2l-512 512v2zM-4 381v4v256v2l1024 1024q2 2 6 2l2 -4 v-256v-4l-893 -893l125 -125v-2v-256q0 -4 -2 -6h-2q-2 0 -4 2zM-4 897v256v2l512 512q2 2 6 2l2 -4v-256v-4l-512 -512q-2 -2 -4 -2h-2q-2 2 -2 6zM764 -129q0 4 2 6q4 0 6 -2l256 -256v-4v-256q0 -2 -2 -4h-2q-2 0 -4 2l-256 256v2v256z" />
<glyph unicode="&#xac;" horiz-adv-x="1024" d="M-4 -129v258v2l637 637l-381 381v4v256v2l256 256q2 2 6 2q2 -2 2 -4v-256v-4l-125 -125l377 -377l252 252q2 2 6 2q2 -2 2 -4v-256v-4l-637 -637l381 -381v-4v-256v-2l-256 -256q-2 -2 -4 -2h-2q-2 2 -2 4v256v4l125 125l-377 377l-252 -252q-2 -2 -6 -2q-2 2 -2 4z M-4 -381l256 256q2 2 6 2q2 -2 2 -6v-256v-2l-256 -256q-2 -2 -4 -2h-2q-2 2 -2 4v256v4zM-4 385v256v2l125 125l-125 125v4v256q0 2 2 4q4 0 6 -2l256 -256v-2v-256v-4l-256 -256q-2 -2 -4 -2h-2q-2 2 -2 6zM764 125v4v256v2l256 256q2 2 6 2q2 -2 2 -4v-256v-4l-125 -125 l125 -125v-2v-258q0 -2 -2 -4h-2q-2 0 -4 2zM764 1153v256v2l256 256q2 2 6 2q2 -2 2 -4v-256v-4l-256 -256q-2 -2 -4 -2h-2q-2 2 -2 6z" />
<glyph unicode="&#xae;" horiz-adv-x="1024" d="M-4 -129v258q0 2 2 4q4 0 6 -2l252 -252l377 377l-637 637v4v256q0 2 2 4q4 0 6 -2l768 -768v-2v-256v-4l-125 -125l121 -121l252 252q2 2 6 2q2 -2 2 -4v-258v-2l-512 -512q-2 -2 -4 -2h-2q-2 2 -2 4v256v4l125 125l-121 121l-252 -252q-4 -4 -8 0l-256 256v2zM-4 381v4 v256q0 2 2 4q4 0 6 -2l256 -256v-2v-256q0 -4 -2 -6h-2q-2 0 -4 2zM-4 1405v4v256q0 2 2 4q4 0 6 -2l252 -252l252 252q2 2 6 2q2 -2 2 -4v-256v-4l-256 -256q-2 -2 -4 -2t-4 2zM508 897v256v2l512 512q2 2 6 2q2 -2 2 -4v-256v-4l-512 -512q-2 -2 -4 -2h-2q-2 2 -2 6z M764 637v4v256v2l256 256q2 2 6 2q2 -2 2 -4v-256v-4l-125 -125l125 -125v-2v-256q0 -4 -2 -6h-2q-2 0 -4 2z" />
<glyph unicode="&#xaf;" horiz-adv-x="512" d="M-4 381v4v256q0 2 2 4q4 0 6 -2l512 -512v-2v-258v-2l-125 -125l125 -125v-4v-256q0 -2 -2 -4h-2q-2 0 -4 2l-256 256v2v256v4l125 125zM-4 1405v4v256q0 2 2 4q4 0 6 -2l512 -512v-2v-256v-4l-125 -125l125 -125v-2v-256q0 -4 -2 -6h-2q-2 0 -4 2l-256 256v4v256v2 l125 125z" />
<glyph unicode="&#xb0;" horiz-adv-x="1024" d="M-4 -129v258q0 2 2 4q4 0 6 -2l508 -508l508 508q2 2 6 2l2 -4v-258v-2l-512 -512q-2 -2 -4 -2t-4 2l-512 512v2zM-4 381v4v256v2l512 512q2 2 6 2l2 -4v-256v-4l-381 -381l125 -125v-2v-256q0 -4 -2 -6h-2q-2 0 -4 2zM-4 897v256v2l512 512q4 4 8 0l512 -512v-2v-256 q0 -4 -2 -6h-2q-2 0 -4 2l-508 508l-508 -508q-2 -2 -6 -2q-2 2 -2 6zM508 -129v258v2l381 381l-125 125v4v256q0 2 2 4q4 0 6 -2l256 -256v-2v-256v-4l-512 -512q-2 -2 -4 -2h-2q-2 2 -2 4z" />
<glyph unicode="&#xb1;" horiz-adv-x="512" d="M-4 -129v258v2l512 512q2 2 6 2l4 -4v-256l-2 -4l-125 -125l125 -125l2 -2v-258l-4 -4h-2q-2 0 -4 2l-252 252l-252 -252q-2 -2 -6 -2q-2 2 -2 4zM-4 -381l256 256q4 4 8 0l256 -256q2 -2 2 -4v-256l-4 -4h-2q-2 0 -4 2l-252 252l-252 -252q-2 -2 -6 -2q-2 2 -2 4v256v4z M-4 385v256v2l125 125l-125 125v4v256q0 2 2 4q4 0 6 -2l252 -252l252 252q2 2 6 2l4 -4v-256l-2 -4l-512 -512q-2 -2 -4 -2h-2q-2 2 -2 6zM-4 1405v4v256q0 2 2 4q4 0 6 -2l252 -252l252 252q2 2 6 2l4 -4v-256l-2 -4l-256 -256q-2 -2 -4 -2t-4 2z" />
<glyph unicode="&#xb4;" horiz-adv-x="512" d="M-4 -129v258v2l256 256q4 4 8 0l256 -256v-2v-258q0 -2 -2 -4h-2q-2 0 -4 2l-252 252l-252 -252q-2 -2 -6 -2q-2 2 -2 4zM-4 -381l256 256q4 4 8 0l256 -256v-4v-256q0 -2 -2 -4h-2q-2 0 -4 2l-252 252l-252 -252q-2 -2 -6 -2q-2 2 -2 4v256v4zM-4 893v4v256q0 2 2 4 q4 0 6 -2l512 -512v-2v-256q0 -4 -2 -6h-2q-2 0 -4 2zM-4 1405v4v256q0 2 2 4q4 0 6 -2l512 -512v-2v-256q0 -4 -2 -6h-2q-2 0 -4 2z" />
<glyph unicode="&#xb5;" d="M-4 -129v258v2l125 125l-125 125v4v256q0 2 2 4q4 0 6 -2l256 -256v-2v-256v-4l-256 -256q-2 -2 -4 -2h-2q-2 2 -2 4zM-4 -381l637 637l-637 637v4v256q0 2 2 4q4 0 6 -2l768 -768v-2v-256v-4l-768 -768q-2 -2 -4 -2h-2q-2 2 -2 4v256v4zM-4 1405v4v256q0 2 2 4q4 0 6 -2 l1276 -1276l633 633l-381 381v4v256q0 2 2 4q4 0 6 -2l512 -512v-2v-256v-4l-1536 -1536q-2 -2 -4 -2h-2q-2 2 -2 4v256v4l637 637zM508 1405v4v256q0 2 2 4q4 0 6 -2l768 -768v-2v-256q0 -4 -2 -6h-2q-2 0 -4 2zM1020 -381l1024 1024q2 2 6 2q2 -2 2 -4v-256v-4 l-1024 -1024q-2 -2 -4 -2h-2q-2 2 -2 4v256v4zM1020 1405v4v256q0 2 2 4q4 0 6 -2l512 -512v-2v-256q0 -4 -2 -6h-2q-2 0 -4 2zM1532 -381l512 512q2 2 6 2q2 -2 2 -4v-258v-2l-512 -512q-2 -2 -4 -2h-2q-2 2 -2 4v256v4z" />
<glyph unicode="&#xb6;" d="M-4 -129v258v2l125 125l-125 125v4v256q0 2 2 4q4 0 6 -2l256 -256v-2v-256v-4l-256 -256q-2 -2 -4 -2h-2q-2 2 -2 4zM-4 -381l637 637l-125 125v4v256v2l512 512q2 2 6 2l2 -4v-256v-4l-125 -125l633 -633l121 121l-125 125v4v256v2l512 512q2 2 6 2l2 -4v-256v-4 l-381 -381l125 -125v-2v-256v-4l-512 -512q-2 -2 -6 -2q-2 2 -2 4v256v4l125 125l-633 633l-121 -121l125 -125v-2v-256v-4l-768 -768q-2 -2 -4 -2h-2q-2 2 -2 4v256v4zM-4 893v4v256v2l512 512q2 2 6 2l2 -4v-256v-4l-381 -381l121 -121l764 764q4 4 8 0l252 -252l252 252 q2 2 6 2l2 -4v-256v-4l-256 -256q-4 -4 -8 0l-252 252l-764 -764q-2 -2 -4 -2t-4 2zM508 -381l512 512q2 2 6 2l2 -4v-258v-2l-512 -512q-2 -2 -4 -2h-2q-2 2 -2 4v256v4zM1276 641v256v2l768 768q2 2 6 2l2 -4v-256v-4l-768 -768q-2 -2 -4 -2h-2q-2 2 -2 6zM1532 -381 l512 512q2 2 6 2l2 -4v-258v-2l-512 -512q-2 -2 -4 -2h-2q-2 2 -2 4v256v4z" />
<glyph unicode="&#xb7;" horiz-adv-x="1024" d="M-4 -129v258v2l256 256q4 4 8 0l256 -256v-2v-258v-2l-512 -512q-2 -2 -4 -2h-2q-2 2 -2 4v256v4l381 381l-121 121l-252 -252q-2 -2 -6 -2q-2 2 -2 4zM-4 385v256v2l256 256q4 4 8 0l508 -508l252 252q2 2 6 2l2 -4v-256v-4l-256 -256q-2 -2 -4 -2t-4 2l-508 508 l-252 -252q-2 -2 -6 -2q-2 2 -2 6zM-4 897v256v2l512 512q2 2 6 2l2 -4v-256v-4l-512 -512q-2 -2 -4 -2h-2q-2 2 -2 6zM508 -381l512 512q2 2 6 2l2 -4v-258v-2l-512 -512q-2 -2 -4 -2h-2q-2 2 -2 4v256v4zM508 893v4v256v2l512 512q2 2 6 2l2 -4v-256v-4l-381 -381 l121 -121l252 252q2 2 6 2l2 -4v-256v-4l-256 -256q-2 -2 -4 -2t-4 2z" />
<glyph unicode="&#xb8;" d="M-4 -129v258v2l125 125l-125 125v4v256q0 2 2 4q4 0 6 -2l252 -252l377 377l-637 637v4v256q0 2 2 4q4 0 6 -2l764 -764l377 377l-125 125v4v256q0 2 2 4q4 0 6 -2l252 -252l252 252q4 4 8 0l512 -512v-2v-256q0 -4 -2 -6q-4 0 -6 2l-508 508l-121 -121l381 -381v-2v-256 q0 -4 -2 -6q-4 0 -6 2l-508 508l-121 -121l125 -125v-2v-256q0 -4 -2 -6q-4 0 -6 2l-252 252l-377 -377l125 -125v-2v-256q0 -4 -2 -6q-4 0 -6 2l-252 252l-121 -121l381 -381v-4v-256q0 -2 -2 -4q-4 0 -6 2l-508 508l-121 -121l381 -381v-4v-256q0 -2 -2 -4h-2q-2 0 -4 2 l-512 512v2zM-4 893v4v256q0 2 2 4q4 0 6 -2l256 -256v-2v-256q0 -4 -2 -6h-2q-2 0 -4 2zM508 1405v4v256q0 2 2 4q4 0 6 -2l256 -256v-2v-256q0 -4 -2 -6h-2q-2 0 -4 2zM1020 -129v258q0 2 2 4q4 0 6 -2l508 -508l121 121l-637 637v4v256q0 2 2 4q4 0 6 -2l764 -764 l121 121l-381 381v4v256q0 2 2 4q4 0 6 -2l512 -512v-2v-258v-2l-512 -512q-2 -2 -4 -2t-4 2l-512 512v2z" />
<glyph unicode="&#xba;" horiz-adv-x="1024" d="M-4 381v4v256v2l1024 1024q2 2 6 2l2 -4v-256v-4l-893 -893l125 -125v-2v-256q0 -4 -2 -6h-2q-2 0 -4 2zM-4 -381l893 893l-125 125v4v256q0 2 2 4q4 0 6 -2l256 -256v-2v-256v-4l-1024 -1024q-2 -2 -4 -2h-2q-2 2 -2 4v256v4zM-4 1405v4v256q0 2 2 4q4 0 6 -2l256 -256 v-2v-256q0 -4 -2 -6h-2q-2 0 -4 2zM764 -129q0 4 2 6q4 0 6 -2l256 -256v-4v-256q0 -2 -2 -4h-2q-2 0 -4 2l-256 256v2v256z" />
<glyph unicode="&#xbb;" horiz-adv-x="1024" d="M-4 -129v258v2l381 381l-381 381v4v256q0 2 2 4q4 0 6 -2l252 -252l377 377l-125 125v4v256q0 2 2 4q4 0 6 -2l512 -512v-2v-256q0 -4 -2 -6q-4 0 -6 2l-252 252l-377 -377l125 -125v-2v-256v-4l-512 -512q-2 -2 -4 -2h-2q-2 2 -2 4zM-4 -381l893 893l-125 125v4v256 q0 2 2 4q4 0 6 -2l256 -256v-2v-256v-4l-1024 -1024q-2 -2 -4 -2h-2q-2 2 -2 4v256v4zM-4 1405v4v256q0 2 2 4q4 0 6 -2l256 -256v-2v-256q0 -4 -2 -6h-2q-2 0 -4 2zM508 -381l512 512q2 2 6 2l2 -4v-258v-2l-512 -512q-2 -2 -4 -2h-2q-2 2 -2 4v256v4z" />
<glyph unicode="&#xbf;" horiz-adv-x="1024" d="M-4 -129v258v2l637 637l-377 377l-252 -252q-2 -2 -6 -2q-2 2 -2 6v256v2l512 512q2 2 6 2l2 -4v-256v-4l-125 -125l377 -377l252 252q2 2 6 2l2 -4v-256v-4l-893 -893l381 -381v-4v-256q0 -2 -2 -4h-2q-2 0 -4 2l-512 512v2zM-4 385v256v2l256 256q2 2 6 2l2 -4v-256v-4 l-256 -256q-2 -2 -4 -2h-2q-2 2 -2 6zM508 -129v258v2l512 512q2 2 6 2l2 -4v-256v-4l-381 -381l381 -381v-4v-256q0 -2 -2 -4h-2q-2 0 -4 2l-512 512v2zM764 1153v256v2l256 256q2 2 6 2l2 -4v-256v-4l-256 -256q-2 -2 -4 -2h-2q-2 2 -2 6z" />
<glyph unicode="&#xc0;" d="M-4 -381l2048 2048l6 2l2 -4v-256v-4l-2048 -2048q-2 -2 -6 -2l-2 4v256v4zM508 -381l256 256h8l256 -256v-4v-256l-2 -4q-4 0 -6 2l-252 252l-252 -252l-6 -2l-2 4v256v4zM1020 -129v258v2l1024 1024l6 2l2 -4v-256v-4l-893 -893l381 -381v-4v-256l-2 -4q-4 0 -6 2 l-512 512v2zM1532 -129v258l2 4l6 -2l512 -512v-4v-256l-2 -4q-4 0 -6 2l-512 512v2zM1788 125v4v256v2l256 256l6 2l2 -4v-256v-4l-125 -125l125 -125v-2v-258l-2 -4q-4 0 -6 2z" />
<glyph unicode="&#xc1;" horiz-adv-x="512" d="M-4 -129v258v2l512 512q2 2 6 2q2 -2 2 -4v-256v-4l-381 -381l381 -381v-4v-256q0 -2 -2 -4h-2q-2 0 -4 2l-512 512v2zM-4 385v256v2l125 125l-125 125v4v256q0 2 2 4q4 0 6 -2l256 -256v-2v-256v-4l-256 -256q-2 -2 -4 -2h-2q-2 2 -2 6zM-4 1405v4v256q0 2 2 4q4 0 6 -2 l512 -512v-2v-256q0 -4 -2 -6h-2q-2 0 -4 2z" />
<glyph unicode="&#xc2;" d="M-4 -129v258v2l637 637l-637 637v4v256q0 2 2 4q4 0 6 -2l768 -768v-2v-256v-4l-768 -768q-2 -2 -4 -2h-2q-2 2 -2 4zM-4 -381l1149 1149l-637 637v4v256q0 2 2 4q4 0 6 -2l1536 -1536v-2v-258v-2l-512 -512q-2 -2 -4 -2h-2q-2 2 -2 4v256v4l381 381l-633 633 l-1276 -1276q-2 -2 -6 -2q-2 2 -2 4v256v4zM-4 385v256v2l125 125l-125 125v4v256q0 2 2 4q4 0 6 -2l256 -256v-2v-256v-4l-256 -256q-2 -2 -4 -2h-2q-2 2 -2 6zM508 -381l768 768q2 2 6 2q2 -2 2 -4v-256v-4l-768 -768q-2 -2 -4 -2h-2q-2 2 -2 4v256v4zM1020 -381l512 512 q2 2 6 2q2 -2 2 -4v-258v-2l-512 -512q-2 -2 -4 -2h-2q-2 2 -2 4v256v4zM1020 1405v4v256q0 2 2 4q4 0 6 -2l1024 -1024v-2v-256q0 -4 -2 -6h-2q-2 0 -4 2zM1532 1405v4v256q0 2 2 4q4 0 6 -2l512 -512v-2v-256q0 -4 -2 -6h-2q-2 0 -4 2z" />
<glyph unicode="&#xc3;" horiz-adv-x="512" d="M-4 -129v258v2l512 512q2 2 6 2q2 -2 2 -4v-256v-4l-381 -381l121 -121l252 252q2 2 6 2q2 -2 2 -4v-258v-2l-512 -512q-2 -2 -4 -2h-2q-2 2 -2 4v256v4l125 125l-125 125v2zM-4 385v256v2l381 381l-121 121l-252 -252q-2 -2 -6 -2q-2 2 -2 6v256v2l512 512q2 2 6 2 q2 -2 2 -4v-256v-4l-125 -125l125 -125v-2v-256v-4l-512 -512q-2 -2 -4 -2h-2q-2 2 -2 6z" />
<glyph unicode="&#xc4;" d="M-4 -381l768 768q4 4 8 0l512 -512q2 -2 2 -4v-256l-2 -2l-256 -256q-2 -2 -4 -2h-2q-2 2 -2 4v256v4l125 125l-377 377l-764 -764q-2 -2 -6 -2q-2 2 -2 4v256v4zM508 -381l256 256q2 2 6 2q4 -4 4 -6v-256l-2 -2l-256 -256q-2 -2 -4 -2h-2q-2 2 -2 4v256v4zM1020 381v4 v256v2l1024 1024q2 2 6 2l4 -4v-256l-2 -4l-893 -893l377 -377l508 508q2 2 6 2l4 -4v-256l-2 -4l-512 -512q-2 -2 -4 -2t-4 2zM1532 -381l512 512q2 2 6 2l4 -4v-258l-2 -2l-512 -512q-2 -2 -4 -2h-2q-2 2 -2 4v256v4zM1532 385v256v2l512 512q2 2 6 2l4 -4v-256l-2 -4 l-512 -512q-2 -2 -4 -2h-2q-2 2 -2 6z" />
<glyph unicode="&#xc5;" horiz-adv-x="512" d="M-4 -127v256v2l256 256q4 4 8 0l256 -256v-2v-256q0 -4 -2 -6h-2q-2 0 -4 2l-252 252l-252 -252q-2 -2 -6 -2q-2 2 -2 6zM-4 -381l256 256q4 4 8 0l256 -256v-2v-256q0 -4 -2 -6h-2q-2 0 -4 2l-252 252l-252 -252q-2 -2 -6 -2q-2 2 -2 6v256v2zM-4 385v256v2l256 256 q4 4 8 0l256 -256v-2v-256q0 -4 -2 -6h-2q-2 0 -4 2l-252 252l-252 -252q-2 -2 -6 -2q-2 2 -2 6zM-4 897v256v2l256 256q4 4 8 0l256 -256v-2v-256q0 -4 -2 -6h-2q-2 0 -4 2l-252 252l-252 -252q-2 -2 -6 -2q-2 2 -2 6z" />
<glyph unicode="&#xc6;" d="M-4 -129v258v2l768 768q4 4 8 0l508 -508l764 764q2 2 6 2q2 -2 2 -4v-256v-4l-637 -637l637 -637v-4v-256q0 -2 -2 -4h-2q-2 0 -4 2l-1276 1276l-764 -764q-2 -2 -6 -2q-2 2 -2 4zM-4 -381l768 768q4 4 8 0l768 -768v-4v-256q0 -2 -2 -4h-2q-2 0 -4 2l-764 764 l-764 -764q-2 -2 -6 -2q-2 2 -2 4v256v4zM-4 385v256v2l1024 1024q2 2 6 2q2 -2 2 -4v-256v-4l-1024 -1024q-2 -2 -4 -2h-2q-2 2 -2 6zM-4 897v256v2l512 512q2 2 6 2q2 -2 2 -4v-256v-4l-512 -512q-2 -2 -4 -2h-2q-2 2 -2 6zM508 -381l256 256q4 4 8 0l256 -256v-4v-256 q0 -2 -2 -4h-2q-2 0 -4 2l-252 252l-252 -252q-2 -2 -6 -2q-2 2 -2 4v256v4zM1020 897v256v2l512 512q2 2 6 2q2 -2 2 -4v-256v-4l-512 -512q-2 -2 -4 -2h-2q-2 2 -2 6zM1276 641v256v2l768 768q2 2 6 2q2 -2 2 -4v-256v-4l-768 -768q-2 -2 -4 -2h-2q-2 2 -2 6zM1788 129 v256v2l256 256q2 2 6 2q2 -2 2 -4v-256v-4l-256 -256q-2 -2 -4 -2h-2q-2 2 -2 6z" />
<glyph unicode="&#xc7;" d="M-4 -129v258q0 2 2 4q4 0 6 -2l512 -512v-4v-256q0 -2 -2 -4h-2q-2 0 -4 2l-512 512v2zM-4 381v4v256v2l637 637l-125 125v4v256q0 2 2 4q4 0 6 -2l256 -256v-2v-256v-4l-637 -637l889 -889l1020 1020q2 2 6 2q2 -2 2 -4v-256v-4l-1024 -1024q-2 -2 -4 -2t-4 2zM-4 897 v256v2l256 256q2 2 6 2q2 -2 2 -4v-256v-4l-256 -256q-2 -2 -4 -2h-2q-2 2 -2 6zM508 381v4v256v2l1024 1024q2 2 6 2q2 -2 2 -4v-256v-4l-893 -893l377 -377l633 633l-121 121l-508 -508q-2 -2 -6 -2q-2 2 -2 6v256v2l1024 1024q2 2 6 2q2 -2 2 -4v-256v-4l-381 -381 l121 -121l252 252q2 2 6 2q2 -2 2 -4v-256v-4l-1024 -1024q-2 -2 -4 -2t-4 2zM1532 -381l512 512q2 2 6 2q2 -2 2 -4v-258v-2l-512 -512q-2 -2 -4 -2h-2q-2 2 -2 4v256v4z" />
<glyph unicode="&#xc8;" d="M-4 1405v4v256l2 4l6 -2l2048 -2048v-4v-256l-2 -4q-4 0 -6 2zM508 1405v4v256l2 4l6 -2l508 -508l508 508l6 2l2 -4v-256v-4l-512 -512q-4 -4 -8 0zM1276 637v4v256v2l768 768l6 2l2 -4v-256v-4l-637 -637l637 -637v-2v-258l-2 -4q-4 0 -6 2zM1788 637v4v256v2l256 256 l6 2l2 -4v-256v-4l-125 -125l125 -125v-2v-256l-2 -6q-4 0 -6 2z" />
<glyph unicode="&#xcb;" d="M-4 1405v4v256l2 4l6 -2l764 -764l764 764l6 2l4 -4v-256l-2 -4l-768 -768q-4 -4 -8 0zM508 1405v4v256l2 4l6 -2l252 -252l252 252l6 2l4 -4v-256l-2 -4l-256 -256q-4 -4 -8 0zM1020 385v256v2l1024 1024l6 2l4 -4v-256l-2 -4l-1024 -1024q-2 -2 -6 -2zM1276 125v4v256 v2l768 768l6 2l4 -4v-256l-2 -4l-637 -637l637 -637l2 -4v-256l-4 -4q-4 0 -6 2zM1788 125v4v256v2l256 256l6 2l4 -4v-256l-2 -4l-125 -125l125 -125l2 -2v-258l-4 -4q-4 0 -6 2z" />
<glyph unicode="&#xcd;" horiz-adv-x="1024" d="M-4 -129v258v2l637 637l-125 125v4v256q0 2 2 4q4 0 6 -2l256 -256v-2v-256v-4l-125 -125l381 -381v-2v-258q0 -2 -2 -4q-4 0 -6 2l-508 508l-377 -377l125 -125v-4v-256v-2l-256 -256q-2 -2 -4 -2h-2q-2 2 -2 4v256v4l125 125l-125 125v2zM-4 385v256v2l125 125 l-125 125v4v256v2l512 512q4 4 8 0l512 -512v-2v-256q0 -4 -2 -6q-4 0 -6 2l-508 508l-377 -377l125 -125v-2v-256v-4l-256 -256q-2 -2 -4 -2h-2q-2 2 -2 6zM508 -129v258q0 2 2 4q4 0 6 -2l256 -256v-4v-256v-2l-256 -256q-2 -2 -4 -2h-2q-2 2 -2 4v256v4l125 125l-125 125 v2z" />
<glyph unicode="&#xce;" d="M-4 -381l381 381l-381 381v4v256q0 2 2 4q4 0 6 -2l512 -512v-2v-258v-2l-512 -512q-2 -2 -4 -2h-2q-2 2 -2 4v256v4zM-4 893v4v256v2l512 512q2 2 6 2q2 -2 2 -4v-256v-4l-381 -381l121 -121l764 764q2 2 6 2q2 -2 2 -4v-256v-4l-768 -768q-2 -2 -4 -2t-4 2zM508 -381 l381 381l-381 381v4v256v2l768 768q4 4 8 0l768 -768v-2v-256q0 -4 -2 -6q-4 0 -6 2l-764 764l-633 -633l893 -893v-4v-256q0 -2 -2 -4h-2q-2 0 -4 2l-508 508l-508 -508q-2 -2 -6 -2q-2 2 -2 4v256v4zM1020 381v4v256v2l256 256q4 4 8 0l768 -768v-2v-258q0 -2 -2 -4 q-4 0 -6 2l-764 764l-121 -121l893 -893v-4v-256q0 -2 -2 -4h-2q-2 0 -4 2zM1532 1405v4v256q0 2 2 4q4 0 6 -2l512 -512v-2v-256q0 -4 -2 -6h-2q-2 0 -4 2z" />
<glyph unicode="&#xcf;" d="M-4 -129v258v2l125 125l-125 125v4v256q0 2 2 4q4 0 6 -2l256 -256v-2v-256v-4l-256 -256q-2 -2 -4 -2h-2q-2 2 -2 4zM-4 893v4v256q0 2 2 4q4 0 6 -2l508 -508l633 633l-125 125v4v256q0 2 2 4q4 0 6 -2l256 -256v-2v-256v-4l-768 -768q-2 -2 -4 -2t-4 2zM-4 1405v4v256 q0 2 2 4q4 0 6 -2l508 -508l121 121l-125 125v4v256q0 2 2 4q4 0 6 -2l256 -256v-2v-256v-4l-256 -256q-2 -2 -4 -2t-4 2zM252 -125l1405 1405l-125 125v4v256q0 2 2 4q4 0 6 -2l256 -256v-2v-256v-4l-1405 -1405l125 -125v-4v-256q0 -2 -2 -4h-2q-2 0 -4 2l-256 256v2v256 v4zM764 -125l768 768q4 4 8 0l512 -512v-2v-258q0 -2 -2 -4q-4 0 -6 2l-508 508l-633 -633l125 -125v-4v-256q0 -2 -2 -4h-2q-2 0 -4 2l-256 256v2v256v4zM1276 -125l256 256q4 4 8 0l512 -512v-4v-256q0 -2 -2 -4h-2q-2 0 -4 2l-508 508l-121 -121l125 -125v-4v-256 q0 -2 -2 -4q-4 0 -6 2l-256 256v2v256v4zM1788 637v4v256v2l256 256q2 2 6 2q2 -2 2 -4v-256v-4l-125 -125l125 -125v-2v-256q0 -4 -2 -6h-2q-2 0 -4 2z" />
<glyph unicode="&#xd1;" d="M-4 -129v258q0 2 2 4q4 0 6 -2l252 -252l121 121l-381 381v4v256q0 2 2 4q4 0 6 -2l512 -512v-2v-258v-2l-256 -256q-2 -2 -4 -2t-4 2l-256 256v2zM-4 893v4v256q0 2 2 4q4 0 6 -2l508 -508l121 121l-125 125v4v256v2l512 512q4 4 8 0l508 -508l121 121l-125 125v4v256 q0 2 2 4q4 0 6 -2l256 -256v-2v-256v-4l-256 -256q-4 -4 -8 0l-508 508l-377 -377l125 -125v-2v-256v-4l-256 -256q-2 -2 -4 -2t-4 2zM-4 1405v4v256q0 2 2 4q4 0 6 -2l252 -252l252 252q2 2 6 2q2 -2 2 -4v-256v-4l-256 -256q-2 -2 -4 -2t-4 2zM508 -381l512 512q2 2 6 2 q2 -2 2 -4v-258v-2l-512 -512q-2 -2 -4 -2h-2q-2 2 -2 4v256v4zM764 129v256v2l256 256q4 4 8 0l1024 -1024v-4v-256q0 -2 -2 -4h-2q-2 0 -4 2l-1020 1020l-252 -252q-2 -2 -6 -2q-2 2 -2 6zM1020 893v4v256q0 2 2 4q4 0 6 -2l1024 -1024v-2v-258q0 -2 -2 -4h-2q-2 0 -4 2z M1276 -129q0 4 2 6q4 0 6 -2l256 -256v-4v-256q0 -2 -2 -4h-2q-2 0 -4 2l-256 256v2v256zM1788 637v4v256v2l256 256q2 2 6 2q2 -2 2 -4v-256v-4l-125 -125l125 -125v-2v-256q0 -4 -2 -6h-2q-2 0 -4 2z" />
<glyph unicode="&#xd2;" horiz-adv-x="1024" d="M-4 -129v258v2l125 125l-125 125v4v256q0 2 2 4q4 0 6 -2l256 -256v-2v-256v-4l-256 -256q-2 -2 -4 -2h-2q-2 2 -2 4zM-4 893v4v256q0 2 2 4q4 0 6 -2l252 -252l377 377l-125 125v4v256q0 2 2 4q4 0 6 -2l256 -256v-2v-256v-4l-381 -381l637 -637v-2v-258q0 -2 -2 -4 q-4 0 -6 2l-252 252l-377 -377l125 -125v-4v-256q0 -2 -2 -4h-2q-2 0 -4 2l-256 256v2v256v4l381 381zM-4 1405v4v256q0 2 2 4q4 0 6 -2l256 -256v-2v-256q0 -4 -2 -6h-2q-2 0 -4 2zM764 -129q0 4 2 6q4 0 6 -2l256 -256v-4v-256q0 -2 -2 -4h-2q-2 0 -4 2l-256 256v2v256z M764 637v4v256v2l256 256q2 2 6 2q2 -2 2 -4v-256v-4l-125 -125l125 -125v-2v-256q0 -4 -2 -6h-2q-2 0 -4 2z" />
<glyph unicode="&#xd3;" horiz-adv-x="1024" d="M-4 -129v258v2l512 512q4 4 8 0l252 -252l252 252q2 2 6 2q2 -2 2 -4v-256v-4l-256 -256q-4 -4 -8 0l-252 252l-377 -377l381 -381v-4v-256q0 -2 -2 -4h-2q-2 0 -4 2l-512 512v2zM-4 385v256v2l1024 1024q2 2 6 2q2 -2 2 -4v-256v-4l-1024 -1024q-2 -2 -4 -2h-2 q-2 2 -2 6zM-4 897v256v2l512 512q2 2 6 2q2 -2 2 -4v-256v-4l-512 -512q-2 -2 -4 -2h-2q-2 2 -2 6zM508 -129v258q0 2 2 4q4 0 6 -2l512 -512v-4v-256q0 -2 -2 -4h-2q-2 0 -4 2l-512 512v2zM764 641v256v2l256 256q2 2 6 2q2 -2 2 -4v-256v-4l-256 -256q-2 -2 -4 -2h-2 q-2 2 -2 6z" />
<glyph unicode="&#xd4;" d="M-4 -129v258v2l512 512q4 4 8 0l512 -512l2 -2v-258l-2 -2l-512 -512q-2 -2 -4 -2h-2q-2 2 -2 4v256v4l381 381l-377 377l-508 -508q-2 -2 -6 -2q-2 2 -2 4zM-4 -381l512 512q2 2 6 2l4 -4v-258l-2 -2l-512 -512q-2 -2 -4 -2h-2q-2 2 -2 4v256v4zM-4 385v256v2l256 256 q2 2 6 2l4 -4v-256l-2 -4l-256 -256q-2 -2 -4 -2h-2q-2 2 -2 6zM-4 897v256v2l512 512q2 2 6 2l4 -4v-256l-2 -4l-125 -125l1661 -1661q2 -2 2 -4v-256l-4 -4h-2q-2 0 -4 2l-1788 1788l-252 -252q-2 -2 -6 -2q-2 2 -2 6zM764 1153v256v2l256 256q2 2 6 2l4 -4v-256l-2 -4 l-256 -256q-2 -2 -4 -2h-2q-2 2 -2 6zM1020 -381l256 256q4 4 8 0l256 -256q2 -2 2 -4v-256l-4 -4h-2q-2 0 -4 2l-252 252l-252 -252q-2 -2 -6 -2q-2 2 -2 4v256v4zM1020 893v4v256v2l512 512q2 2 6 2l4 -4v-256l-2 -4l-381 -381l377 -377l508 508q2 2 6 2l4 -4v-256l-2 -4 l-512 -512q-2 -2 -4 -2t-4 2zM1532 897v256v2l512 512q2 2 6 2l4 -4v-256l-2 -4l-512 -512q-2 -2 -4 -2h-2q-2 2 -2 6zM1788 125v4v256v2l256 256q2 2 6 2l4 -4v-256l-2 -4l-125 -125l125 -125l2 -2v-258l-4 -4h-2q-2 0 -4 2z" />
<glyph unicode="&#xd5;" horiz-adv-x="512" d="M-4 -129v258v2l125 125l-125 125v4v256q0 2 2 4q4 0 6 -2l512 -512v-2v-258q0 -2 -2 -4h-2q-2 0 -4 2l-252 252l-252 -252q-2 -2 -6 -2q-2 2 -2 4zM-4 897v256v2l125 125l-125 125v4v256q0 2 2 4q4 0 6 -2l512 -512v-2v-256q0 -4 -2 -6h-2q-2 0 -4 2l-252 252l-252 -252 q-2 -2 -6 -2q-2 2 -2 6zM252 -129q0 4 2 6q4 0 6 -2l256 -256v-4v-256q0 -2 -2 -4h-2q-2 0 -4 2l-256 256v2v256zM252 637v4v256q0 2 2 4q4 0 6 -2l256 -256v-2v-256q0 -4 -2 -6h-2q-2 0 -4 2z" />
<glyph unicode="&#xd7;" horiz-adv-x="512" d="M-6 -129v258l4 4q4 0 6 -2l256 -256v-4v-256v-2l-256 -256q-2 -2 -4 -2h-2l-4 4v256l2 4l125 125l-125 125zM-6 385v256l2 2l125 125l-125 125q-2 2 -2 4v256l4 4q4 0 6 -2l256 -256v-2v-256v-4l-256 -256q-2 -2 -4 -2h-2q-4 4 -4 6zM252 125v4v256v2l256 256q2 2 6 2 l2 -4v-256v-4l-125 -125l125 -125v-2v-258q0 -2 -2 -4h-2q-2 0 -4 2zM252 1149v4v256v2l256 256q2 2 6 2l2 -4v-256v-4l-125 -125l125 -125v-2v-256q0 -4 -2 -6h-2q-2 0 -4 2z" />
<glyph unicode="&#xd8;" horiz-adv-x="512" d="M-4 -129v258v2l256 256q4 4 8 0l256 -256v-2v-258q0 -2 -2 -4q-4 0 -6 2l-252 252l-121 -121l381 -381v-4v-256q0 -2 -2 -4h-2q-2 0 -4 2l-512 512v2zM-4 893v4v256v2l512 512q2 2 6 2q2 -2 2 -4v-256v-4l-381 -381l381 -381v-2v-256q0 -4 -2 -6h-2q-2 0 -4 2z" />
<glyph unicode="&#xda;" horiz-adv-x="512" d="M-6 -129v258l2 2l381 381l-381 381q-2 2 -2 4v256l4 4q4 0 6 -2l512 -512v-2v-256v-4l-381 -381l381 -381v-4v-256q0 -2 -2 -4h-2q-2 0 -4 2l-512 512zM-6 1409v256l4 4q4 0 6 -2l512 -512v-2v-256q0 -4 -2 -6h-2q-2 0 -4 2l-512 512q-2 2 -2 4z" />
<glyph unicode="&#xdf;" horiz-adv-x="1024" d="M-4 -129v258v2l125 125l-125 125v4v256q0 2 2 4q4 0 6 -2l256 -256v-2v-256v-4l-125 -125l377 -377l508 508q2 2 6 2q2 -2 2 -4v-258v-2l-512 -512q-2 -2 -4 -2t-4 2l-512 512v2zM-4 893v4v256v2l125 125l-125 125v4v256q0 2 2 4q4 0 6 -2l256 -256v-2v-256v-4l-125 -125 l377 -377l508 508q2 2 6 2q2 -2 2 -4v-256v-4l-381 -381l125 -125v-2v-256v-4l-256 -256q-2 -2 -4 -2h-2q-2 2 -2 4v258v2l125 125zM508 897v256v2l125 125l-125 125v4v256q0 2 2 4q4 0 6 -2l256 -256v-2v-256v-4l-256 -256q-2 -2 -4 -2h-2q-2 2 -2 6z" />
<glyph unicode="&#xe0;" d="M-4 -129v258v2l893 893l-381 381v4v256l2 4l6 -2l512 -512v-2v-256v-4l-1024 -1024q-2 -2 -6 -2zM-4 -381l2048 2048l6 2l2 -4v-256v-4l-2048 -2048q-2 -2 -6 -2l-2 4v256v4zM-4 385v256v2l125 125l-125 125v4v256l2 4l6 -2l256 -256v-2v-256v-4l-256 -256q-2 -2 -6 -2z M-4 1405v4v256l2 4l6 -2l512 -512v-2v-256l-2 -6q-4 0 -6 2zM1020 1405v4v256l2 4l6 -2l252 -252l252 252l6 2l2 -4v-256v-4l-256 -256q-4 -4 -8 0z" />
<glyph unicode="&#xe3;" horiz-adv-x="512" d="M-4 -129v258q0 2 2 4q4 0 6 -2l252 -252l121 121l-381 381v4v256q0 2 2 4q4 0 6 -2l512 -512v-2v-258v-2l-125 -125l125 -125v-4v-256q0 -2 -2 -4h-2q-2 0 -4 2l-512 512v2zM-4 893v4v256v2l125 125l-125 125v4v256q0 2 2 4q4 0 6 -2l512 -512v-2v-256q0 -4 -2 -6 q-4 0 -6 2l-252 252l-121 -121l381 -381v-2v-256q0 -4 -2 -6h-2q-2 0 -4 2z" />
<glyph unicode="&#xe4;" d="M-4 -129v258v2l512 512l6 2l4 -4v-256l-2 -4l-512 -512q-2 -2 -6 -2zM-4 -381l893 893l-377 377l-508 -508l-6 -2l-2 6v256v2l512 512h8l512 -512l2 -2v-256l-2 -4l-1024 -1024q-2 -2 -6 -2l-2 4v256v4zM-4 897v256v2l512 512l6 2l4 -4v-256l-2 -4l-512 -512q-2 -2 -6 -2 zM764 1149v4v256v2l256 256l6 2l4 -4v-256l-2 -4l-125 -125l377 -377l764 764l6 2l4 -4v-256l-2 -4l-768 -768q-4 -4 -8 0zM1276 1153v256v2l256 256l6 2l4 -4v-256l-2 -4l-256 -256q-2 -2 -6 -2z" />
<glyph unicode="&#xe5;" horiz-adv-x="512" d="M-4 -129v258q0 2 2 4q4 0 6 -2l252 -252l252 252q2 2 6 2q2 -2 2 -4v-258v-2l-256 -256q-2 -2 -4 -2t-4 2l-256 256v2zM-4 381v4v256q0 2 2 4q4 0 6 -2l252 -252l252 252q2 2 6 2q2 -2 2 -4v-256v-4l-256 -256q-2 -2 -4 -2t-4 2zM-4 893v4v256q0 2 2 4q4 0 6 -2l252 -252 l252 252q2 2 6 2q2 -2 2 -4v-256v-4l-256 -256q-2 -2 -4 -2t-4 2zM-4 1405v4v256q0 2 2 4q4 0 6 -2l252 -252l252 252q2 2 6 2q2 -2 2 -4v-256v-4l-256 -256q-2 -2 -4 -2t-4 2z" />
<glyph unicode="&#xe6;" d="M-4 -129v258q0 2 2 4q4 0 6 -2l512 -512v-4v-256q0 -2 -2 -4h-2q-2 0 -4 2l-512 512v2zM-4 381v4v256q0 2 2 4q4 0 6 -2l1024 -1024v-4v-256q0 -2 -2 -4h-2q-2 0 -4 2zM-4 893v4v256q0 2 2 4q4 0 6 -2l512 -512v-2v-256q0 -4 -2 -6h-2q-2 0 -4 2zM-4 1405v4v256q0 2 2 4 q4 0 6 -2l768 -768v-2v-256q0 -4 -2 -6h-2q-2 0 -4 2zM508 1405v4v256q0 2 2 4q4 0 6 -2l764 -764l764 764q2 2 6 2q2 -2 2 -4v-256v-4l-1149 -1149l637 -637v-4v-256q0 -2 -2 -4h-2q-2 0 -4 2l-768 768v4v256v2l381 381zM1020 1405v4v256q0 2 2 4q4 0 6 -2l256 -256v-2 v-256q0 -4 -2 -6h-2q-2 0 -4 2zM1276 125v4v256v2l768 768q2 2 6 2q2 -2 2 -4v-256v-4l-637 -637l637 -637v-4v-256q0 -2 -2 -4h-2q-2 0 -4 2zM1788 125v4v256v2l256 256q2 2 6 2q2 -2 2 -4v-256v-4l-125 -125l125 -125v-2v-258q0 -2 -2 -4h-2q-2 0 -4 2z" />
<glyph unicode="&#xe7;" d="M-4 -129v258q0 2 2 4q4 0 6 -2l256 -256v-4v-256q0 -2 -2 -4h-2q-2 0 -4 2l-256 256v2zM-4 381v4v256v2l1024 1024q4 4 8 0l1024 -1024v-2v-256q0 -4 -2 -6q-4 0 -6 2l-1020 1020l-889 -889l637 -637v-4v-256v-2l-256 -256q-2 -2 -4 -2h-2q-2 2 -2 4v256v4l125 125z M-4 897v256v2l512 512q2 2 6 2q2 -2 2 -4v-256v-4l-512 -512q-2 -2 -4 -2h-2q-2 2 -2 6zM508 381v4v256v2l512 512q4 4 8 0l1024 -1024v-2v-258q0 -2 -2 -4q-4 0 -6 2l-252 252l-121 -121l381 -381v-4v-256q0 -2 -2 -4h-2q-2 0 -4 2l-1024 1024v4v256q0 2 2 4q4 0 6 -2 l508 -508l121 121l-633 633l-377 -377l893 -893v-4v-256q0 -2 -2 -4q-4 0 -6 2zM1532 1405v4v256q0 2 2 4q4 0 6 -2l512 -512v-2v-256q0 -4 -2 -6h-2q-2 0 -4 2z" />
<glyph unicode="&#xe8;" d="M-4 -129v258v2l125 125l-125 125v4v256l2 4l6 -2l256 -256v-2v-256v-4l-256 -256q-2 -2 -6 -2zM-4 -381l637 637l-637 637v4v256l2 4l6 -2l768 -768v-2v-256v-4l-768 -768q-2 -2 -6 -2l-2 4v256v4zM-4 1405v4v256l2 4l6 -2l2048 -2048v-4v-256l-2 -4q-4 0 -6 2zM508 -381 l512 512h8l512 -512v-4v-256l-2 -4q-4 0 -6 2l-508 508l-508 -508l-6 -2l-2 4v256v4z" />
<glyph unicode="&#xe9;" horiz-adv-x="512" d="M-4 -129v258q0 2 2 4q4 0 6 -2l512 -512v-4v-256q0 -2 -2 -4h-2q-2 0 -4 2l-512 512v2zM-4 381v4v256q0 2 2 4q4 0 6 -2l512 -512v-2v-258q0 -2 -2 -4h-2q-2 0 -4 2zM-4 893v4v256q0 2 2 4q4 0 6 -2l252 -252l252 252q2 2 6 2q2 -2 2 -4v-256v-4l-256 -256q-2 -2 -4 -2 t-4 2zM-4 1405v4v256q0 2 2 4q4 0 6 -2l252 -252l252 252q2 2 6 2q2 -2 2 -4v-256v-4l-256 -256q-2 -2 -4 -2t-4 2z" />
<glyph unicode="&#xeb;" d="M-4 -129v258v2l637 637l-637 637v4v256l2 4l6 -2l768 -768l2 -2v-256l-2 -4l-768 -768q-2 -2 -6 -2zM-4 -381l1024 1024l6 2l4 -4v-256l-2 -4l-1024 -1024q-2 -2 -6 -2l-2 4v256v4zM-4 385v256v2l125 125l-125 125v4v256l2 4l6 -2l256 -256l2 -2v-256l-2 -4l-256 -256 q-2 -2 -6 -2zM508 -381l768 768h8l768 -768l2 -4v-256l-4 -4q-4 0 -6 2l-764 764l-764 -764l-6 -2l-2 4v256v4zM1020 -381l256 256h8l256 -256l2 -4v-256l-4 -4q-4 0 -6 2l-252 252l-252 -252l-6 -2l-2 4v256v4z" />
<glyph unicode="&#xee;" horiz-adv-x="512" d="M-4 -381l381 381l-381 381v4v256q0 2 2 4q4 0 6 -2l512 -512v-2v-258v-2l-512 -512q-2 -2 -4 -2h-2q-2 2 -2 4v256v4zM-4 897v256v2l512 512q2 2 6 2q2 -2 2 -4v-256v-4l-512 -512q-2 -2 -4 -2h-2q-2 2 -2 6zM252 637v4v256v2l256 256q2 2 6 2q2 -2 2 -4v-256v-4 l-125 -125l125 -125v-2v-256q0 -4 -2 -6h-2q-2 0 -4 2z" />
<glyph unicode="&#xf1;" d="M-4 -129v258q0 2 2 4q4 0 6 -2l252 -252l121 121l-381 381v4v256q0 2 2 4q4 0 6 -2l512 -512v-2v-258v-2l-256 -256q-2 -2 -4 -2t-4 2l-256 256v2zM-4 893v4v256q0 2 2 4q4 0 6 -2l508 -508l121 121l-125 125v4v256v2l512 512q4 4 8 0l508 -508l121 121l-125 125v4v256 q0 2 2 4q4 0 6 -2l256 -256v-2v-256v-4l-256 -256q-4 -4 -8 0l-508 508l-377 -377l125 -125v-2v-256v-4l-256 -256q-2 -2 -4 -2t-4 2zM-4 1405v4v256q0 2 2 4q4 0 6 -2l252 -252l252 252q2 2 6 2q2 -2 2 -4v-256v-4l-256 -256q-2 -2 -4 -2t-4 2zM508 -381l512 512q2 2 6 2 q2 -2 2 -4v-258v-2l-512 -512q-2 -2 -4 -2h-2q-2 2 -2 4v256v4zM764 129v256v2l256 256q4 4 8 0l1024 -1024v-4v-256q0 -2 -2 -4h-2q-2 0 -4 2l-1020 1020l-252 -252q-2 -2 -6 -2q-2 2 -2 6zM1020 893v4v256q0 2 2 4q4 0 6 -2l1024 -1024v-2v-258q0 -2 -2 -4h-2q-2 0 -4 2z M1276 -129q0 4 2 6q4 0 6 -2l256 -256v-4v-256q0 -2 -2 -4h-2q-2 0 -4 2l-256 256v2v256zM1788 637v4v256v2l256 256q2 2 6 2q2 -2 2 -4v-256v-4l-125 -125l125 -125v-2v-256q0 -4 -2 -6h-2q-2 0 -4 2z" />
<glyph unicode="&#xf5;" horiz-adv-x="512" d="M-4 -129v258v2l512 512q2 2 6 2q2 -2 2 -4v-256v-4l-125 -125l125 -125v-2v-258q0 -2 -2 -4h-2q-2 0 -4 2l-252 252l-252 -252q-2 -2 -6 -2q-2 2 -2 4zM-4 -381l256 256q2 2 6 2q2 -2 2 -6v-256v-2l-256 -256q-2 -2 -4 -2h-2q-2 2 -2 4v256v4zM-4 385v256v2l256 256 q2 2 6 2q2 -2 2 -4v-256v-4l-256 -256q-2 -2 -4 -2h-2q-2 2 -2 6zM-4 897v256v2l512 512q2 2 6 2q2 -2 2 -4v-256v-4l-125 -125l125 -125v-2v-256q0 -4 -2 -6h-2q-2 0 -4 2l-252 252l-252 -252q-2 -2 -6 -2q-2 2 -2 6z" />
<glyph unicode="&#xf7;" horiz-adv-x="512" d="M-4 -129v258q0 2 2 4q4 0 6 -2l256 -256v-4v-256v-2l-256 -256q-2 -2 -4 -2h-2q-2 2 -2 4v256v4l125 125l-125 125v2zM-4 381v4v256q0 2 2 4q4 0 6 -2l512 -512v-2v-258q0 -2 -2 -4h-2q-2 0 -4 2zM-4 893v4v256q0 2 2 4q4 0 6 -2l512 -512v-2v-256q0 -4 -2 -6h-2 q-2 0 -4 2zM252 1149v4v256v2l256 256q2 2 6 2l2 -4v-256v-4l-125 -125l125 -125v-2v-256q0 -4 -2 -6h-2q-2 0 -4 2z" />
<glyph unicode="&#xf8;" horiz-adv-x="512" d="M-4 -381l381 381l-381 381v4v256q0 2 2 4q4 0 6 -2l512 -512v-2v-258v-2l-512 -512q-2 -2 -4 -2h-2q-2 2 -2 4v256v4zM-4 893v4v256q0 2 2 4q4 0 6 -2l252 -252l121 121l-381 381v4v256q0 2 2 4q4 0 6 -2l512 -512v-2v-256v-4l-256 -256q-2 -2 -4 -2t-4 2z" />
<glyph unicode="&#xfc;" horiz-adv-x="512" d="M-4 -381l381 381l-381 381v4v256v2l512 512q2 2 6 2l4 -4v-256l-2 -4l-381 -381l381 -381l2 -2v-258l-2 -2l-512 -512q-2 -2 -4 -2h-2q-2 2 -2 4v256v4zM-4 897v256v2l512 512q2 2 6 2l4 -4v-256l-2 -4l-512 -512q-2 -2 -4 -2h-2q-2 2 -2 6z" />
<glyph unicode="&#x131;" d="M-4 381v4v256q0 2 2 4q4 0 6 -2l508 -508l1532 1532q2 2 6 2q2 -2 2 -4v-256v-4l-1536 -1536q-2 -2 -4 -2t-4 2zM-4 -381l256 256q2 2 6 2q2 -2 2 -6v-256v-2l-256 -256q-2 -2 -4 -2h-2q-2 2 -2 4v256v4zM-4 897v256v2l512 512q2 2 6 2q2 -2 2 -4v-256v-4l-512 -512 q-2 -2 -4 -2h-2q-2 2 -2 6zM252 637v4v256v2l768 768q2 2 6 2q2 -2 2 -4v-256v-4l-637 -637l121 -121l1020 1020q2 2 6 2q2 -2 2 -4v-256v-4l-1024 -1024q-2 -2 -4 -2t-4 2zM508 -381l1280 1280q4 4 8 0l256 -256v-2v-256q0 -4 -2 -6q-4 0 -6 2l-252 252l-1276 -1276 q-2 -2 -4 -2h-2q-2 2 -2 4v256v4zM1020 -381l768 768q4 4 8 0l256 -256v-2v-258v-2l-512 -512q-2 -2 -4 -2h-2q-2 2 -2 4v256v4l381 381l-121 121l-764 -764q-2 -2 -6 -2q-2 2 -2 4v256v4z" />
<glyph unicode="&#x152;" d="M-4 -129v258v2l637 637l-377 377l-252 -252q-2 -2 -6 -2q-2 2 -2 6v256v2l512 512q2 2 6 2q2 -2 2 -4v-256v-4l-125 -125l381 -381v-2v-256v-4l-768 -768q-2 -2 -4 -2h-2q-2 2 -2 4zM-4 -381l1024 1024q4 4 8 0l764 -764l252 252q2 2 6 2q2 -2 2 -4v-258v-2l-512 -512 q-2 -2 -4 -2h-2q-2 2 -2 4v256v4l125 125l-633 633l-1020 -1020q-2 -2 -6 -2q-2 2 -2 4v256v4zM-4 385v256v2l256 256q2 2 6 2q2 -2 2 -4v-256v-4l-256 -256q-2 -2 -4 -2h-2q-2 2 -2 6zM508 -381l512 512q2 2 6 2q2 -2 2 -4v-258v-2l-512 -512q-2 -2 -4 -2h-2q-2 2 -2 4v256 v4zM764 1149v4v256v2l256 256q2 2 6 2q2 -2 2 -4v-256v-4l-125 -125l377 -377l764 764q2 2 6 2q2 -2 2 -4v-256v-4l-637 -637l377 -377l252 252q2 2 6 2q2 -2 2 -4v-256v-4l-256 -256q-2 -2 -4 -2t-4 2zM1020 -381l256 256q2 2 6 2q2 -2 2 -6v-256v-2l-256 -256q-2 -2 -4 -2 h-2q-2 2 -2 4v256v4zM1276 1153v256v2l256 256q2 2 6 2q2 -2 2 -4v-256v-4l-256 -256q-2 -2 -4 -2h-2q-2 2 -2 6zM1788 641v256v2l256 256q2 2 6 2q2 -2 2 -4v-256v-4l-256 -256q-2 -2 -4 -2h-2q-2 2 -2 6z" />
<glyph unicode="&#x153;" d="M-4 -129v258q0 2 2 4q4 0 6 -2l252 -252l377 377l-637 637v4v256q0 2 2 4q4 0 6 -2l768 -768v-2v-256v-4l-381 -381l125 -125v-4v-256q0 -2 -2 -4h-2q-2 0 -4 2l-512 512v2zM-4 381v4v256q0 2 2 4q4 0 6 -2l256 -256v-2v-256q0 -4 -2 -6h-2q-2 0 -4 2zM-4 1405v4v256 q0 2 2 4q4 0 6 -2l1020 -1020l633 633l-125 125v4v256q0 2 2 4q4 0 6 -2l512 -512v-2v-256q0 -4 -2 -6q-4 0 -6 2l-252 252l-764 -764q-2 -2 -4 -2t-4 2zM508 1405v4v256q0 2 2 4q4 0 6 -2l512 -512v-2v-256q0 -4 -2 -6h-2q-2 0 -4 2zM764 -125l1024 1024q4 4 8 0l256 -256 v-2v-256q0 -4 -2 -6q-4 0 -6 2l-252 252l-377 -377l637 -637v-4v-256q0 -2 -2 -4h-2q-2 0 -4 2l-764 764l-377 -377l125 -125v-4v-256q0 -2 -2 -4q-4 0 -6 2l-256 256v2v256v4zM1020 1405v4v256q0 2 2 4q4 0 6 -2l256 -256v-2v-256q0 -4 -2 -6h-2q-2 0 -4 2zM1276 -129 q0 4 2 6q4 0 6 -2l256 -256v-4v-256q0 -2 -2 -4h-2q-2 0 -4 2l-256 256v2v256zM1788 125v4v256q0 2 2 4q4 0 6 -2l256 -256v-2v-258q0 -2 -2 -4h-2q-2 0 -4 2z" />
<glyph unicode="&#x192;" d="M-4 -129v258v2l125 125l-125 125v4v256q0 2 2 4q4 0 6 -2l256 -256v-2v-256v-4l-125 -125l125 -125v-4v-256q0 -2 -2 -4h-2q-2 0 -4 2l-256 256v2zM-4 897v256v2l125 125l-125 125v4v256q0 2 2 4q4 0 6 -2l252 -252l252 252q2 2 6 2q2 -2 2 -4v-256v-4l-125 -125 l125 -125v-2v-256q0 -4 -2 -6h-2q-2 0 -4 2l-252 252l-252 -252q-2 -2 -6 -2q-2 2 -2 6zM252 637v4v256q0 2 2 4q4 0 6 -2l252 -252l377 377l-125 125v4v256q0 2 2 4q4 0 6 -2l252 -252l252 252q2 2 6 2q2 -2 2 -4v-256v-4l-125 -125l125 -125v-2v-256q0 -4 -2 -6q-4 0 -6 2 l-252 252l-121 -121l377 -377l377 377l-125 125v4v256q0 2 2 4q4 0 6 -2l512 -512v-2v-256q0 -4 -2 -6q-4 0 -6 2l-252 252l-377 -377l125 -125v-2v-258q0 -2 -2 -4q-4 0 -6 2l-252 252l-377 -377l125 -125v-4v-256q0 -2 -2 -4h-2q-2 0 -4 2l-252 252l-252 -252q-2 -2 -6 -2 q-2 2 -2 4v256v4l125 125l-125 125v2v258q0 2 2 4q4 0 6 -2l252 -252l377 377l-377 377l-121 -121l125 -125v-2v-256q0 -4 -2 -6q-4 0 -6 2zM1276 -129q0 4 2 6q4 0 6 -2l252 -252l377 377l-125 125v4v256q0 2 2 4q4 0 6 -2l256 -256v-2v-258v-2l-512 -512q-2 -2 -4 -2t-4 2 l-256 256v2v256zM1532 1405v4v256q0 2 2 4q4 0 6 -2l512 -512v-2v-256q0 -4 -2 -6h-2q-2 0 -4 2z" />
<glyph unicode="&#x2c6;" horiz-adv-x="512" d="M-4 -129v258v2l125 125l-125 125v4v256q0 2 2 4q4 0 6 -2l256 -256v-2v-256v-4l-256 -256q-2 -2 -4 -2h-2q-2 2 -2 4zM-4 -381l512 512q2 2 6 2q2 -2 2 -4v-258v-2l-512 -512q-2 -2 -4 -2h-2q-2 2 -2 4v256v4zM-4 893v4v256v2l512 512q2 2 6 2q2 -2 2 -4v-256v-4 l-381 -381l381 -381v-2v-256q0 -4 -2 -6h-2q-2 0 -4 2z" />
<glyph unicode="&#x2c7;" horiz-adv-x="1024" d="M-4 -129v258q0 2 2 4q4 0 6 -2l512 -512q2 -2 2 -4v-256l-4 -4h-2q-2 0 -4 2l-512 512v2zM-4 381v4v256q0 2 2 4q4 0 6 -2l1024 -1024q2 -2 2 -4v-256l-4 -4h-2q-2 0 -4 2zM-4 897v256v2l512 512q2 2 6 2l4 -4v-256l-2 -4l-512 -512q-2 -2 -4 -2h-2q-2 2 -2 6zM252 641 v256v2l768 768q2 2 6 2l4 -4v-256l-2 -4l-768 -768q-2 -2 -4 -2h-2q-2 2 -2 6zM508 381v4v256q0 2 2 4q4 0 6 -2l512 -512l2 -2v-258l-4 -4h-2q-2 0 -4 2zM764 637v4v256v2l256 256q2 2 6 2l4 -4v-256l-2 -4l-125 -125l125 -125l2 -2v-256q0 -2 -4 -6h-2q-2 0 -4 2z" />
<glyph unicode="&#x2d8;" horiz-adv-x="512" d="M-4 -129v258v2l381 381l-381 381v4v256v2l512 512q2 2 6 2l2 -4v-256v-4l-381 -381l381 -381v-2v-256v-4l-512 -512q-2 -2 -4 -2h-2q-2 2 -2 4zM-4 -381l512 512q2 2 6 2l2 -4v-258v-2l-512 -512q-2 -2 -4 -2h-2q-2 2 -2 4v256v4z" />
<glyph unicode="&#x2d9;" horiz-adv-x="1024" d="M-4 -129v258q0 2 2 4q4 0 6 -2l512 -512v-4v-256q0 -2 -2 -4h-2q-2 0 -4 2l-512 512v2zM-4 381v4v256q0 2 2 4q4 0 6 -2l1024 -1024v-4v-256q0 -2 -2 -4h-2q-2 0 -4 2zM-4 893v4v256v2l512 512q2 2 6 2q2 -2 2 -4v-256v-4l-381 -381l377 -377l252 252q4 4 8 0l256 -256 v-2v-256q0 -4 -2 -6h-2q-2 0 -4 2l-252 252l-252 -252q-4 -4 -8 0zM508 897v256v2l512 512q2 2 6 2q2 -2 2 -4v-256v-4l-512 -512q-2 -2 -4 -2h-2q-2 2 -2 6zM764 125v4v256q0 2 2 4q4 0 6 -2l256 -256v-2v-258q0 -2 -2 -4h-2q-2 0 -4 2z" />
<glyph unicode="&#x2da;" d="M-4 -129v258v2l1536 1536q2 2 6 2q2 -2 2 -4v-256v-4l-125 -125l637 -637v-2v-256q0 -4 -2 -6q-4 0 -6 2l-764 764l-1276 -1276q-2 -2 -4 -2h-2q-2 2 -2 4zM-4 -381l512 512q2 2 6 2q2 -2 2 -4v-258v-2l-512 -512q-2 -2 -4 -2h-2q-2 2 -2 4v256v4zM-4 385v256v2l512 512 q2 2 6 2q2 -2 2 -4v-256v-4l-512 -512q-2 -2 -4 -2h-2q-2 2 -2 6zM-4 897v256v2l512 512q2 2 6 2q2 -2 2 -4v-256v-4l-512 -512q-2 -2 -4 -2h-2q-2 2 -2 6zM508 -381l893 893l-121 121l-508 -508q-2 -2 -6 -2q-2 2 -2 6v256v2l512 512q4 4 8 0l768 -768v-2v-258q0 -2 -2 -4 q-4 0 -6 2l-508 508l-1020 -1020q-2 -2 -4 -2h-2q-2 2 -2 4v256v4zM764 1153v256v2l256 256q2 2 6 2q2 -2 2 -4v-256v-4l-256 -256q-2 -2 -4 -2h-2q-2 2 -2 6zM1020 -381l512 512q4 4 8 0l512 -512v-4v-256q0 -2 -2 -4h-2q-2 0 -4 2l-508 508l-508 -508q-2 -2 -6 -2 q-2 2 -2 4v256v4zM1788 1149v4v256v2l256 256q2 2 6 2q2 -2 2 -4v-256v-4l-125 -125l125 -125v-2v-256q0 -4 -2 -6h-2q-2 0 -4 2z" />
<glyph unicode="&#x2db;" d="M-4 -129v258v2l641 641l-125 133l-508 -524q-2 -2 -6 -2q-2 2 -2 6v256v2l512 528q2 0 2 1.5t2 1.5t2 -1.5t2 -1.5l252 -268l121 121l-125 125v4v256v2l256 256q2 2 6 2q2 -2 2 -4v-256v-4l-125 -125l121 -121l508 508q2 2 6 2q2 -2 2 -4v-256v-4l-1536 -1536 q-2 -2 -4 -2h-2q-2 2 -2 4zM-4 897v256v2l125 125l-125 125v4v256q0 2 2 4q4 0 6 -2l256 -256v-2v-256v-4l-256 -256q-2 -2 -4 -2h-2q-2 2 -2 6zM252 -125l1792 1792q2 2 6 2q2 -2 2 -4v-256v-4l-637 -637l121 -121l508 508q2 2 6 2q2 -2 2 -4v-256v-4l-512 -512q-4 -4 -8 0 l-252 252l-121 -121l125 -125v-2v-256v-4l-768 -768q-2 -2 -4 -2t-4 2l-256 256v2v256v4zM391 -256l121 -121l633 633l-121 121zM1020 -381l512 512q4 4 8 0l512 -512v-4v-256q0 -2 -2 -4h-2q-2 0 -4 2l-252 252l-252 -252q-2 -2 -6 -2q-2 2 -2 4v256v4l125 125l-121 121 l-508 -508q-2 -2 -6 -2q-2 2 -2 4v256v4zM1788 125v4v256v2l256 256q2 2 6 2q2 -2 2 -4v-256v-4l-125 -125l125 -125v-2v-258q0 -2 -2 -4h-2q-2 0 -4 2z" />
<glyph unicode="&#x2dc;" d="M-4 -129v258v2l125 125l-125 125v4v256q0 2 2 4q4 0 6 -2l256 -256v-2v-256v-4l-256 -256q-2 -2 -4 -2h-2q-2 2 -2 4zM-4 893v4v256q0 2 2 4q4 0 6 -2l1024 -1024v-2v-258q0 -2 -2 -4h-2q-2 0 -4 2zM-4 1405v4v256q0 2 2 4q4 0 6 -2l1020 -1020l252 252q2 2 6 2 q2 -2 2 -4v-256v-4l-256 -256q-2 -2 -4 -2t-4 2zM252 -125l256 256q4 4 8 0l508 -508l377 377l-125 125v4v256v2l256 256q4 4 8 0l512 -512v-2v-258q0 -2 -2 -4q-4 0 -6 2l-508 508l-121 -121l125 -125v-2v-258v-2l-512 -512q-4 -4 -8 0l-508 508l-121 -121l125 -125v-4 v-256q0 -2 -2 -4h-2q-2 0 -4 2l-256 256v2v256v4zM508 1405v4v256q0 2 2 4q4 0 6 -2l256 -256v-2v-256q0 -4 -2 -6h-2q-2 0 -4 2zM1020 897v256v2l512 512q2 2 6 2q2 -2 2 -4v-256v-4l-512 -512q-2 -2 -4 -2h-2q-2 2 -2 6zM1532 -381l256 256q4 4 8 0l256 -256v-4v-256 q0 -2 -2 -4h-2q-2 0 -4 2l-252 252l-252 -252q-2 -2 -6 -2q-2 2 -2 4v256v4zM1532 893v4v256v2l256 256q4 4 8 0l256 -256v-2v-256q0 -4 -2 -6q-4 0 -6 2l-252 252l-121 -121l381 -381v-2v-256q0 -4 -2 -6h-2q-2 0 -4 2z" />
<glyph unicode="&#x2dd;" d="M-4 -129v258v2l637 637l-125 125v4v256v2l512 512q2 2 6 2q2 -2 2 -4v-256v-4l-381 -381l125 -125v-2v-256v-4l-768 -768q-2 -2 -4 -2h-2q-2 2 -2 4zM-4 -381l1149 1149l-125 125v4v256v2l512 512q2 2 6 2q2 -2 2 -4v-256v-4l-381 -381l377 -377l508 508q2 2 6 2 q2 -2 2 -4v-256v-4l-512 -512q-4 -4 -8 0l-252 252l-1276 -1276q-2 -2 -4 -2h-2q-2 2 -2 4v256v4zM-4 385v256v2l256 256q2 2 6 2q2 -2 2 -4v-256v-4l-256 -256q-2 -2 -4 -2h-2q-2 2 -2 6zM-4 897v256v2l512 512q2 2 6 2q2 -2 2 -4v-256v-4l-512 -512q-2 -2 -4 -2h-2 q-2 2 -2 6zM508 -381l768 768q4 4 8 0l252 -252l508 508q2 2 6 2q2 -2 2 -4v-256v-4l-512 -512q-4 -4 -8 0l-252 252l-764 -764q-2 -2 -4 -2h-2q-2 2 -2 4v256v4zM1020 -381l256 256q2 2 6 2q2 -2 2 -6v-256v-2l-256 -256q-2 -2 -4 -2h-2q-2 2 -2 4v256v4zM1532 -381 l512 512q2 2 6 2q2 -2 2 -4v-258v-2l-512 -512q-2 -2 -4 -2h-2q-2 2 -2 4v256v4zM1532 897v256v2l512 512q2 2 6 2q2 -2 2 -4v-256v-4l-512 -512q-2 -2 -4 -2h-2q-2 2 -2 6z" />
<glyph unicode="&#x3a9;" d="M-4 -129v258v2l256 256q2 2 6 2q2 -2 2 -4v-256v-4l-256 -256q-2 -2 -4 -2h-2q-2 2 -2 4zM-4 -381l637 637l-377 377l-252 -252q-2 -2 -6 -2q-2 2 -2 6v256v2l125 125l-125 125v4v256v2l512 512q2 2 6 2q2 -2 2 -4v-256v-4l-381 -381l121 -121l508 508q2 2 6 2q2 -2 2 -4 v-256v-4l-381 -381l121 -121l252 252q2 2 6 2q2 -2 2 -4v-256v-4l-125 -125l377 -377l252 252q2 2 6 2q2 -2 2 -4v-256v-4l-125 -125l121 -121l508 508q2 2 6 2q2 -2 2 -4v-256v-4l-381 -381l121 -121l508 508q2 2 6 2q2 -2 2 -4v-258v-2l-512 -512q-4 -4 -8 0l-252 252 l-252 -252q-2 -2 -4 -2h-2q-2 2 -2 4v256v4l125 125l-377 377l-764 -764q-2 -2 -6 -2q-2 2 -2 4v256v4zM508 -381l256 256q2 2 6 2q2 -2 2 -6v-256v-2l-256 -256q-2 -2 -4 -2h-2q-2 2 -2 4v256v4zM1020 385v256v2l637 637l-121 121l-508 -508q-2 -2 -6 -2q-2 2 -2 6v256v2 l512 512q4 4 8 0l512 -512v-2v-256v-4l-512 -512q-2 -2 -4 -2h-2q-2 2 -2 6v256v2l381 381l-121 121l-764 -764q-2 -2 -6 -2q-2 2 -2 6z" />
<glyph unicode="&#x3c0;" d="M-4 -129v258v2l381 381l-381 381v4v256q0 2 2 4q4 0 6 -2l512 -512v-2v-256v-4l-512 -512q-2 -2 -4 -2h-2q-2 2 -2 4zM-4 -381l768 768q4 4 8 0l768 -768v-4v-256q0 -2 -2 -4h-2q-2 0 -4 2l-764 764l-764 -764q-2 -2 -6 -2q-2 2 -2 4v256v4zM-4 1405v4v256q0 2 2 4 q4 0 6 -2l512 -512v-2v-256q0 -4 -2 -6h-2q-2 0 -4 2zM508 -381l256 256q4 4 8 0l256 -256v-4v-256q0 -2 -2 -4h-2q-2 0 -4 2l-252 252l-252 -252q-2 -2 -6 -2q-2 2 -2 4v256v4zM508 1405v4v256q0 2 2 4q4 0 6 -2l764 -764l764 764q2 2 6 2q2 -2 2 -4v-256v-4l-637 -637 l637 -637v-2v-258q0 -2 -2 -4h-2q-2 0 -4 2zM764 637v4v256q0 2 2 4q4 0 6 -2l1280 -1280v-4v-256q0 -2 -2 -4h-2q-2 0 -4 2zM1020 1405v4v256q0 2 2 4q4 0 6 -2l252 -252l252 252q2 2 6 2q2 -2 2 -4v-256v-4l-256 -256q-2 -2 -4 -2t-4 2zM1788 637v4v256v2l256 256q2 2 6 2 q2 -2 2 -4v-256v-4l-125 -125l125 -125v-2v-256q0 -4 -2 -6h-2q-2 0 -4 2z" />
<glyph unicode="&#x2000;" horiz-adv-x="1024" />
<glyph unicode="&#x2001;" />
<glyph unicode="&#x2002;" horiz-adv-x="1024" />
<glyph unicode="&#x2003;" />
<glyph unicode="&#x2013;" horiz-adv-x="512" d="M-4 -381l381 381l-125 125v4v256v2l256 256q2 2 6 2l4 -4v-256l-2 -4l-125 -125l125 -125l2 -2v-258l-2 -2l-512 -512q-2 -2 -4 -2h-2q-2 2 -2 4v256v4zM-4 385v256v2l125 125l-125 125v4v256v2l512 512q2 2 6 2l4 -4v-256l-2 -4l-381 -381l125 -125l2 -2v-256l-2 -4 l-256 -256q-2 -2 -4 -2h-2q-2 2 -2 6z" />
<glyph unicode="&#x2014;" horiz-adv-x="512" d="M-4 -129v258v2l125 125l-125 125v4v256q0 2 2 4q4 0 6 -2l256 -256l2 -2v-256l-2 -4l-125 -125l381 -381q2 -2 2 -4v-256l-4 -4h-2q-2 0 -4 2l-512 512v2zM-4 1405v4v256q0 2 2 4q4 0 6 -2l512 -512l2 -2v-256l-2 -4l-125 -125l125 -125l2 -2v-256q0 -2 -4 -6h-2 q-2 0 -4 2l-256 256v4v256v2l125 125z" />
<glyph unicode="&#x2018;" d="M-4 -381l381 381l-381 381v4v256q0 2 2 4q4 0 6 -2l508 -508l508 508q4 4 8 0l1024 -1024v-4v-256q0 -2 -2 -4h-2q-2 0 -4 2l-1020 1020l-377 -377l381 -381v-4v-256q0 -2 -2 -4q-4 0 -6 2l-508 508l-508 -508q-2 -2 -6 -2q-2 2 -2 4v256v4zM-4 893v4v256q0 2 2 4 q4 0 6 -2l512 -512v-2v-256q0 -4 -2 -6h-2q-2 0 -4 2zM-4 1405v4v256q0 2 2 4q4 0 6 -2l768 -768v-2v-256q0 -4 -2 -6h-2q-2 0 -4 2zM508 1405v4v256q0 2 2 4q4 0 6 -2l764 -764l377 377l-125 125v4v256q0 2 2 4q4 0 6 -2l252 -252l252 252q2 2 6 2l2 -4v-256v-4l-125 -125 l125 -125v-2v-256q0 -4 -2 -6q-4 0 -6 2l-252 252l-377 -377l637 -637v-2v-258q0 -2 -2 -4h-2q-2 0 -4 2zM1020 -129v258q0 2 2 4q4 0 6 -2l512 -512v-4v-256q0 -2 -2 -4h-2q-2 0 -4 2l-512 512v2zM1020 1405v4v256q0 2 2 4q4 0 6 -2l256 -256v-2v-256q0 -4 -2 -6h-2 q-2 0 -4 2zM1788 637v4v256q0 2 2 4q4 0 6 -2l256 -256v-2v-256q0 -4 -2 -6h-2q-2 0 -4 2z" />
<glyph unicode="&#x2019;" d="M-4 -127v256v2l637 637l-637 637v4v256q0 4 2 4q4 0 6 -2l764 -764l764 764q2 2 6 2q2 -2 2 -4v-256v-4l-1536 -1536q-2 -2 -4 -2h-2q-2 2 -2 6zM-4 -381l1024 1024q4 4 8 0l1024 -1024v-2v-256q0 -4 -2 -6h-2q-2 0 -4 2l-1020 1020l-1020 -1020q-2 -2 -6 -2q-2 2 -2 6 v256v2zM-4 385v256v2l125 125l-125 125v4v256q0 4 2 4q4 0 6 -2l256 -256v-2v-256v-4l-256 -256q-2 -2 -4 -2h-2q-2 2 -2 6zM508 -381l512 512q4 4 8 0l512 -512v-2v-256q0 -4 -2 -6h-2q-2 0 -4 2l-508 508l-508 -508q-2 -2 -6 -2q-2 2 -2 6v256v2zM508 1405v4v256q0 4 2 4 q4 0 6 -2l252 -252l252 252q2 2 6 2q2 -2 2 -4v-256v-4l-256 -256q-2 -2 -4 -2t-4 2zM1276 641v256v2l768 768q2 2 6 2q2 -2 2 -4v-256v-4l-768 -768q-2 -2 -4 -2h-2q-2 2 -2 6zM1532 381v4v256v2l512 512q2 2 6 2q2 -2 2 -4v-256v-4l-381 -381l381 -381v-2v-256q0 -4 -2 -6 h-2q-2 0 -4 2z" />
<glyph unicode="&#x201a;" horiz-adv-x="1024" d="M-4 -129v258v2l125 125l-125 125v4v256q0 2 2 4q4 0 6 -2l256 -256v-2v-256v-4l-256 -256q-2 -2 -4 -2h-2q-2 2 -2 4zM-4 -381l512 512q4 4 8 0l256 -256v-4v-256v-2l-256 -256q-2 -2 -4 -2h-2q-2 2 -2 4v256v4l125 125l-121 121l-508 -508q-2 -2 -6 -2q-2 2 -2 4v256v4z M-4 893v4v256q0 2 2 4q4 0 6 -2l1024 -1024v-2v-258q0 -2 -2 -4h-2q-2 0 -4 2zM252 1149v4v256v2l256 256q2 2 6 2l2 -4v-256v-4l-125 -125l121 -121l508 508q2 2 6 2l2 -4v-256v-4l-512 -512q-2 -2 -4 -2t-4 2zM764 637v4v256v2l256 256q2 2 6 2l2 -4v-256v-4l-125 -125 l125 -125v-2v-256q0 -4 -2 -6h-2q-2 0 -4 2z" />
<glyph unicode="&#x201c;" d="M-4 -127v256v2l512 512q2 2 6 2q2 -2 2 -4v-256v-4l-125 -125l121 -121l377 377l-637 637v4v256q0 4 2 4q4 0 6 -2l1792 -1792v-2v-256q0 -4 -2 -6h-2q-2 0 -4 2l-1020 1020l-377 -377l121 -121l252 252q2 2 6 2q2 -2 2 -4v-256v-4l-512 -512q-2 -2 -6 -2q-2 2 -2 6v256 v2l125 125l-121 121l-508 -508q-2 -2 -6 -2q-2 2 -2 6v256v2l381 381l-121 121l-252 -252q-2 -2 -6 -2q-2 2 -2 6zM-4 893v4v256q0 4 2 4q4 0 6 -2l256 -256v-2v-256q0 -4 -2 -6h-2q-2 0 -4 2zM508 1405v4v256q0 4 2 4q4 0 6 -2l256 -256v-2v-256q0 -4 -2 -6h-2q-2 0 -4 2z M1020 897v256v2l512 512q2 2 6 2q2 -2 2 -4v-256v-4l-125 -125l121 -121l508 508q2 2 6 2q2 -2 2 -4v-256v-4l-381 -381l121 -121l252 252q2 2 6 2q2 -2 2 -4v-256v-4l-512 -512q-2 -2 -4 -2h-2q-2 2 -2 6v256v2l125 125l-121 121l-252 -252q-2 -2 -6 -2q-2 2 -2 6v256v2 l125 125l-121 121l-252 -252q-2 -2 -6 -2q-2 2 -2 6zM1276 -127q0 4 2 4q4 0 6 -2l256 -256v-2v-256q0 -4 -2 -6h-2q-2 0 -4 2l-256 256v4v256zM1788 125v4v256q0 4 2 4q4 0 6 -2l256 -256v-2v-256q0 -4 -2 -6h-2q-2 0 -4 2z" />
<glyph unicode="&#x201d;" d="M-4 -127v256v2l381 381l-121 121l-252 -252q-2 -2 -6 -2q-2 2 -2 6v256v2l512 512q4 4 8 0l252 -252l252 252q2 2 6 2q2 -2 2 -4v-256v-4l-256 -256q-4 -4 -8 0l-252 252l-121 -121l125 -125v-2v-256v-4l-512 -512q-2 -2 -4 -2h-2q-2 2 -2 6zM-4 897v256v2l512 512 q4 4 8 0l256 -256v-2v-256q0 -4 -2 -6q-4 0 -6 2l-252 252l-508 -508q-2 -2 -4 -2h-2q-2 2 -2 6zM252 -125l256 256q4 4 8 0l252 -252l252 252q4 4 8 0l256 -256v-2v-256v-4l-256 -256q-2 -2 -4 -2h-2q-2 2 -2 6v256v2l125 125l-121 121l-252 -252q-4 -4 -8 0l-252 252 l-121 -121l125 -125v-2v-256q0 -4 -2 -6q-4 0 -6 2l-256 256v4v256v2zM764 129v256v2l256 256q4 4 8 0l508 -508l252 252q4 4 8 0l256 -256v-2v-256q0 -4 -2 -6q-4 0 -6 2l-252 252l-121 -121l381 -381v-2v-256q0 -4 -2 -6h-2q-2 0 -4 2l-1020 1020l-252 -252q-2 -2 -6 -2 q-2 2 -2 6zM1020 1405v4v256q0 4 2 4q4 0 6 -2l252 -252l252 252q4 4 8 0l252 -252l252 252q2 2 6 2q2 -2 2 -4v-256v-4l-256 -256q-4 -4 -8 0l-252 252l-121 -121l125 -125v-2v-256v-4l-125 -125l121 -121l252 252q4 4 8 0l256 -256v-2v-256q0 -4 -2 -6h-2q-2 0 -4 2 l-252 252l-252 -252q-4 -4 -8 0l-256 256v4v256v2l125 125z" />
<glyph unicode="&#x201e;" d="M-4 -129v258q0 2 2 4q4 0 6 -2l508 -508l252 252q4 4 8 0l256 -256v-4v-256q0 -2 -2 -4h-2q-2 0 -4 2l-252 252l-252 -252q-4 -4 -8 0l-512 512v2zM-4 381v4v256q0 2 2 4q4 0 6 -2l508 -508l121 121l-637 637v4v256q0 2 2 4q4 0 6 -2l1276 -1276l252 252q2 2 6 2 q2 -2 2 -4v-258v-2l-256 -256q-2 -2 -4 -2t-4 2l-508 508l-252 -252q-4 -4 -8 0zM-4 1405v4v256q0 2 2 4q4 0 6 -2l508 -508l252 252q4 4 8 0l508 -508l252 252q2 2 6 2q2 -2 2 -4v-256v-4l-256 -256q-2 -2 -4 -2t-4 2l-508 508l-252 -252q-4 -4 -8 0zM764 637v4v256 q0 2 2 4q4 0 6 -2l508 -508l252 252q4 4 8 0l252 -252l252 252q2 2 6 2q2 -2 2 -4v-256v-4l-256 -256q-2 -2 -4 -2t-4 2l-252 252l-252 -252q-4 -4 -8 0zM1020 1405v4v256q0 2 2 4q4 0 6 -2l252 -252l252 252q4 4 8 0l252 -252l252 252q2 2 6 2q2 -2 2 -4v-256v-4l-256 -256 q-2 -2 -4 -2t-4 2l-252 252l-252 -252q-4 -4 -8 0zM1788 -125l256 256q2 2 6 2q2 -2 2 -4v-258v-2l-256 -256q-2 -2 -4 -2h-2q-2 2 -2 4v256v4zM1788 641v256v2l256 256q2 2 6 2q2 -2 2 -4v-256v-4l-256 -256q-2 -2 -4 -2h-2q-2 2 -2 6z" />
<glyph unicode="&#x2020;" horiz-adv-x="1024" d="M-4 -129v258v2l768 768q2 2 6 2l4 -4v-256l-2 -4l-637 -637l381 -381q2 -2 2 -4v-256l-4 -4h-2q-2 0 -4 2l-512 512v2zM-4 385v256v2l125 125l-125 125v4v256q0 2 2 4q4 0 6 -2l256 -256l2 -2v-256l-2 -4l-256 -256q-2 -2 -4 -2h-2q-2 2 -2 6zM-4 1405v4v256q0 2 2 4 q4 0 6 -2l512 -512l2 -2v-256q0 -2 -4 -6h-2q-2 0 -4 2zM508 -129v258v2l512 512q2 2 6 2l4 -4v-256l-2 -4l-381 -381l381 -381q2 -2 2 -4v-256l-4 -4h-2q-2 0 -4 2l-512 512v2zM508 1405v4v256q0 2 2 4q4 0 6 -2l512 -512l2 -2v-256q0 -2 -4 -6h-2q-2 0 -4 2z" />
<glyph unicode="&#x2021;" d="M-4 -127v256v2l256 256q2 2 6 2q2 -2 2 -4v-256v-4l-256 -256q-2 -2 -4 -2h-2q-2 2 -2 6zM-4 385v256v2l125 125l-125 125v4v256q0 2 2 4q4 0 6 -2l764 -764l252 252q2 2 6 2q2 -2 2 -4v-256v-4l-125 -125l121 -121l764 764q2 2 6 2q2 -2 2 -4v-256v-4l-637 -637 l125 -125v-2v-256q0 -4 -2 -6h-2q-2 0 -4 2l-252 252l-252 -252q-2 -2 -6 -2q-2 2 -2 6v256v2l125 125l-121 121l-252 -252q-2 -2 -6 -2q-2 2 -2 6v256v2l125 125l-377 377l-252 -252q-2 -2 -6 -2q-2 2 -2 6zM252 -127q0 2 2 4q4 0 6 -2l256 -256v-2v-256q0 -4 -2 -6h-2 q-2 0 -4 2l-256 256v4v256zM252 1149v4v256q0 2 2 4q4 0 6 -2l252 -252l121 121l-125 125v4v256q0 2 2 4q4 0 6 -2l252 -252l252 252q2 2 6 2q2 -2 2 -4v-256v-4l-125 -125l121 -121l508 508q4 4 8 0l512 -512v-2v-256q0 -4 -2 -6q-4 0 -6 2l-508 508l-121 -121l125 -125v-2 v-256q0 -4 -2 -6q-4 0 -6 2l-252 252l-121 -121l125 -125v-2v-256q0 -4 -2 -6h-2q-2 0 -4 2l-508 508l-121 -121l125 -125v-2v-256q0 -4 -2 -6q-4 0 -6 2zM1532 -127v256q0 4 2 4q4 0 6 -2l252 -252l252 252q2 2 6 2q2 -2 2 -4v-256v-4l-125 -125l125 -125v-2v-256 q0 -4 -2 -6h-2q-2 0 -4 2l-252 252l-252 -252q-2 -2 -6 -2q-2 2 -2 6v256v2l125 125l-125 125v4zM1788 129v256v2l256 256q2 2 6 2q2 -2 2 -4v-256v-4l-256 -256q-2 -2 -4 -2h-2q-2 2 -2 6z" />
<glyph unicode="&#x2022;" horiz-adv-x="1024" d="M-4 -129v258v2l256 256q4 4 8 0l252 -252l508 508q2 2 6 2l2 -4v-256v-4l-512 -512q-4 -4 -8 0l-252 252l-252 -252q-2 -2 -4 -2h-2q-2 2 -2 4zM-4 -381l256 256q2 2 6 2q2 -2 2 -6v-256v-2l-256 -256q-2 -2 -4 -2h-2q-2 2 -2 4v256v4zM-4 385v256v2l512 512q4 4 8 0 l252 -252l252 252q2 2 6 2l2 -4v-256v-4l-256 -256q-4 -4 -8 0l-252 252l-508 -508q-2 -2 -4 -2h-2q-2 2 -2 6zM-4 897v256v2l512 512q2 2 6 2l2 -4v-256v-4l-512 -512q-2 -2 -4 -2h-2q-2 2 -2 6zM508 -381l512 512q2 2 6 2l2 -4v-258v-2l-512 -512q-2 -2 -4 -2h-2 q-2 2 -2 4v256v4zM764 1153v256v2l256 256q2 2 6 2l2 -4v-256v-4l-256 -256q-2 -2 -4 -2h-2q-2 2 -2 6z" />
<glyph unicode="&#x2026;" horiz-adv-x="1024" d="M-4 -129v258v2l893 893l-377 377l-508 -508q-2 -2 -6 -2q-2 2 -2 6v256v2l512 512q4 4 8 0l512 -512l2 -2v-256l-2 -4l-1024 -1024q-2 -2 -4 -2h-2q-2 2 -2 4zM-4 -381l1024 1024q2 2 6 2l4 -4v-256l-2 -4l-381 -381l381 -381q2 -2 2 -4v-256l-4 -4h-2q-2 0 -4 2 l-508 508l-508 -508q-2 -2 -6 -2q-2 2 -2 4v256v4zM-4 385v256v2l512 512q2 2 6 2l4 -4v-256l-2 -4l-512 -512q-2 -2 -4 -2h-2q-2 2 -2 6z" />
<glyph unicode="&#x2030;" horiz-adv-x="1024" d="M-4 -129v258v2l637 637l-377 377l-252 -252q-2 -2 -6 -2q-2 2 -2 6v256v2l256 256q4 4 8 0l252 -252l121 121l-125 125v4v256q0 2 2 4q4 0 6 -2l512 -512v-2v-256q0 -4 -2 -6q-4 0 -6 2l-252 252l-121 -121l125 -125v-2v-256v-4l-768 -768q-2 -2 -4 -2h-2q-2 2 -2 4z M-4 -381l256 256q4 4 8 0l256 -256v-4v-256q0 -2 -2 -4h-2q-2 0 -4 2l-252 252l-252 -252q-2 -2 -6 -2q-2 2 -2 4v256v4zM-4 385v256v2l256 256q2 2 6 2q2 -2 2 -4v-256v-4l-256 -256q-2 -2 -4 -2h-2q-2 2 -2 6zM508 -129v258q0 2 2 4q4 0 6 -2l512 -512v-4v-256q0 -2 -2 -4 h-2q-2 0 -4 2l-512 512v2zM764 125v4v256v2l256 256q2 2 6 2q2 -2 2 -4v-256v-4l-125 -125l125 -125v-2v-258q0 -2 -2 -4h-2q-2 0 -4 2z" />
<glyph unicode="&#x2039;" d="M-4 -129v258q0 2 2 4q4 0 6 -2l256 -256v-4v-256v-2l-256 -256q-2 -2 -4 -2h-2q-2 2 -2 4v256v4l125 125l-125 125v2zM-4 381v4v256q0 2 2 4q4 0 6 -2l1020 -1020l764 764q4 4 8 0l256 -256v-2v-258q0 -2 -2 -4q-4 0 -6 2l-252 252l-764 -764q-2 -2 -4 -2t-4 2zM-4 893v4 v256v2l125 125l-125 125v4v256q0 2 2 4q4 0 6 -2l256 -256v-2v-256v-4l-125 -125l125 -125v-2v-256q0 -4 -2 -6h-2q-2 0 -4 2zM508 381v4v256v2l125 125l-125 125v4v256v2l125 125l-125 125v4v256q0 2 2 4q4 0 6 -2l256 -256v-2v-256v-4l-125 -125l125 -125v-2v-256v-4 l-125 -125l377 -377l633 633l-125 125v4v256v2l125 125l-125 125v4v256q0 2 2 4q4 0 6 -2l256 -256v-2v-256v-4l-125 -125l381 -381v-2v-256q0 -4 -2 -6q-4 0 -6 2l-252 252l-764 -764q-2 -2 -4 -2t-4 2zM1020 385v256v2l125 125l-125 125v4v256v2l125 125l-125 125v4v256 q0 2 2 4q4 0 6 -2l256 -256v-2v-256v-4l-125 -125l125 -125v-2v-256v-4l-256 -256q-2 -2 -4 -2h-2q-2 2 -2 6zM1532 -381l256 256q2 2 6 2q2 -2 2 -6v-256v-2l-256 -256q-2 -2 -4 -2h-2q-2 2 -2 4v256v4z" />
<glyph unicode="&#x203a;" d="M-4 -129v258v2l256 256q4 4 8 0l252 -252l252 252q4 4 8 0l252 -252l377 377l-633 633l-252 -252q-4 -4 -8 0l-252 252l-252 -252q-2 -2 -6 -2q-2 2 -2 6v256v2l256 256q4 4 8 0l252 -252l508 508q2 2 6 2l2 -4v-256v-4l-125 -125l637 -637v-2v-256v-4l-512 -512 q-4 -4 -8 0l-252 252l-252 -252q-4 -4 -8 0l-252 252l-252 -252q-2 -2 -4 -2h-2q-2 2 -2 4zM-4 -381l256 256q4 4 8 0l252 -252l252 252q2 2 6 2q2 -2 2 -6v-256v-2l-256 -256q-4 -4 -8 0l-252 252l-252 -252q-2 -2 -4 -2h-2q-2 2 -2 4v256v4zM-4 385v256v2l256 256q4 4 8 0 l252 -252l252 252q4 4 8 0l256 -256v-2v-256q0 -4 -2 -6h-2q-2 0 -4 2l-252 252l-252 -252q-4 -4 -8 0l-252 252l-252 -252q-2 -2 -6 -2q-2 2 -2 6zM1020 -381l893 893l-637 637v4v256v2l256 256q2 2 6 2l2 -4v-256v-4l-125 -125l637 -637v-2v-256v-4l-1024 -1024 q-2 -2 -4 -2h-2q-2 2 -2 4v256v4zM1532 -381l256 256q4 4 8 0l256 -256v-4v-256q0 -2 -2 -4h-2q-2 0 -4 2l-252 252l-252 -252q-2 -2 -6 -2q-2 2 -2 4v256v4zM1788 1149v4v256q0 2 2 4q4 0 6 -2l256 -256v-2v-256q0 -4 -2 -6h-2q-2 0 -4 2z" />
<glyph unicode="&#x2044;" horiz-adv-x="512" d="M-4 -129v258v2l256 256q4 4 8 0l256 -256v-2v-258q0 -2 -2 -4h-2q-2 0 -4 2l-252 252l-252 -252q-2 -2 -6 -2q-2 2 -2 4zM-4 -381l256 256q4 4 8 0l256 -256v-4v-256q0 -2 -2 -4h-2q-2 0 -4 2l-252 252l-252 -252q-2 -2 -6 -2q-2 2 -2 4v256v4zM-4 893v4v256q0 2 2 4 q4 0 6 -2l252 -252l252 252q2 2 6 2l2 -4v-256v-4l-256 -256q-2 -2 -4 -2t-4 2zM-4 1405v4v256q0 2 2 4q4 0 6 -2l252 -252l252 252q2 2 6 2l2 -4v-256v-4l-256 -256q-2 -2 -4 -2t-4 2z" />
<glyph unicode="&#x20ac;" d="M-4 -129v258v2l381 381l-381 381v4v256q0 2 2 4q4 0 6 -2l508 -508l252 252q4 4 8 0l252 -252l764 764q4 4 8 0l256 -256v-2v-256q0 -4 -2 -6q-4 0 -6 2l-252 252l-764 -764q-4 -4 -8 0l-252 252l-764 -764q-2 -2 -4 -2h-2q-2 2 -2 4zM-4 -381l768 768q4 4 8 0l252 -252 l764 764q2 2 6 2l2 -4v-256v-4l-768 -768q-4 -4 -8 0l-252 252l-764 -764q-2 -2 -4 -2h-2q-2 2 -2 4v256v4zM252 1149v4v256v2l256 256q2 2 6 2l2 -4v-256v-4l-125 -125l121 -121l252 252q4 4 8 0l252 -252l508 508q2 2 6 2l2 -4v-256v-4l-512 -512q-2 -2 -4 -2t-4 2 l-252 252l-252 -252q-4 -4 -8 0zM508 -381l256 256q4 4 8 0l252 -252l1020 1020q2 2 6 2l2 -4v-256v-4l-1024 -1024q-4 -4 -8 0l-252 252l-252 -252q-2 -2 -4 -2h-2q-2 2 -2 4v256v4zM1532 -381l512 512q2 2 6 2l2 -4v-258v-2l-512 -512q-2 -2 -4 -2h-2q-2 2 -2 4v256v4z " />
<glyph unicode="&#x2122;" d="M-4 -381l381 381l-381 381v4v256q0 2 2 4q4 0 6 -2l512 -512v-2v-258v-2l-512 -512q-2 -2 -4 -2h-2q-2 2 -2 4v256v4zM-4 893v4v256q0 2 2 4q4 0 6 -2l508 -508l508 508q2 2 6 2l2 -4v-256v-4l-512 -512q-2 -2 -4 -2t-4 2zM252 1153v256v2l256 256q2 2 6 2l2 -4v-256v-4 l-256 -256q-2 -2 -4 -2h-2q-2 2 -2 6zM508 -381l256 256q4 4 8 0l256 -256v-4v-256q0 -2 -2 -4h-2q-2 0 -4 2l-252 252l-252 -252q-2 -2 -6 -2q-2 2 -2 4v256v4zM508 897v256v2l512 512q4 4 8 0l1024 -1024v-2v-256q0 -4 -2 -6q-4 0 -6 2l-252 252l-508 -508q-2 -2 -4 -2h-2 q-2 2 -2 6v256v2l381 381l-633 633l-508 -508q-2 -2 -6 -2q-2 2 -2 6zM764 125v4v256v2l512 512q2 2 6 2l2 -4v-256v-4l-381 -381l377 -377l508 508q2 2 6 2l2 -4v-256v-4l-381 -381l121 -121l508 508q2 2 6 2l2 -4v-258v-2l-512 -512q-2 -2 -4 -2t-4 2zM1532 1405v4v256 q0 2 2 4q4 0 6 -2l512 -512v-2v-256q0 -4 -2 -6h-2q-2 0 -4 2z" />
<glyph unicode="&#x2202;" d="M-4 -129v258v2l381 381l-381 381v4v256q0 2 2 4q4 0 6 -2l508 -508l508 508q4 4 8 0l768 -768v-2v-256v-4l-768 -768q-2 -2 -4 -2h-2q-2 2 -2 4v256v4l637 637l-633 633l-1020 -1020q-2 -2 -6 -2q-2 2 -2 4zM-4 -381l1024 1024q4 4 8 0l256 -256v-2v-256v-4l-768 -768 q-2 -2 -4 -2h-2q-2 2 -2 4v256v4l637 637l-121 121l-1020 -1020q-2 -2 -6 -2q-2 2 -2 4v256v4zM-4 1405v4v256q0 2 2 4q4 0 6 -2l508 -508l508 508q2 2 6 2q2 -2 2 -4v-256v-4l-512 -512q-2 -2 -4 -2t-4 2zM1276 1149v4v256v2l256 256q4 4 8 0l512 -512v-2v-256q0 -4 -2 -6 q-4 0 -6 2l-508 508l-121 -121l637 -637v-2v-256q0 -4 -2 -6h-2q-2 0 -4 2zM1532 -381l512 512q2 2 6 2q2 -2 2 -4v-258v-2l-512 -512q-2 -2 -4 -2h-2q-2 2 -2 4v256v4z" />
<glyph unicode="&#x2206;" d="M-4 -129v258q0 2 2 4q4 0 6 -2l252 -252l1788 1788q2 2 6 2l4 -4v-256l-2 -4l-1661 -1661l125 -125q2 -2 2 -4v-256l-4 -4h-2q-2 0 -4 2l-512 512v2zM-4 381v4v256q0 2 2 4q4 0 6 -2l256 -256l2 -2v-256q0 -2 -4 -6h-2q-2 0 -4 2zM-4 893v4v256q0 2 2 4q4 0 6 -2 l508 -508l377 377l-381 381v4v256q0 2 2 4q4 0 6 -2l512 -512l2 -2v-256l-2 -4l-512 -512q-2 -2 -4 -2t-4 2zM-4 1405v4v256q0 2 2 4q4 0 6 -2l512 -512l2 -2v-256q0 -2 -4 -6h-2q-2 0 -4 2zM764 -129q0 4 2 6q4 0 6 -2l256 -256q2 -2 2 -4v-256l-4 -4h-2q-2 0 -4 2 l-256 256v2v256zM1020 -129v258v2l512 512q4 4 8 0l512 -512l2 -2v-258l-4 -4q-4 0 -6 2l-508 508l-377 -377l381 -381q2 -2 2 -4v-256l-4 -4h-2q-2 0 -4 2l-512 512v2zM1020 1405v4v256q0 2 2 4q4 0 6 -2l252 -252l252 252q2 2 6 2l4 -4v-256l-2 -4l-256 -256q-2 -2 -4 -2 t-4 2zM1532 -129v258q0 2 2 4q4 0 6 -2l512 -512q2 -2 2 -4v-256l-4 -4h-2q-2 0 -4 2l-512 512v2zM1788 637v4v256v2l256 256q2 2 6 2l4 -4v-256l-2 -4l-125 -125l125 -125l2 -2v-256q0 -2 -4 -6h-2q-2 0 -4 2z" />
<glyph unicode="&#x220f;" d="M-4 -129v258v2l637 637l-637 637v4v256q0 2 2 4q4 0 6 -2l768 -768v-2v-256v-4l-768 -768q-2 -2 -4 -2h-2q-2 2 -2 4zM-4 -381l1280 1280q2 2 6 2q2 -2 2 -4v-256v-4l-1280 -1280q-2 -2 -4 -2h-2q-2 2 -2 4v256v4zM-4 385v256v2l125 125l-125 125v4v256q0 2 2 4q4 0 6 -2 l256 -256v-2v-256v-4l-256 -256q-2 -2 -4 -2h-2q-2 2 -2 6zM508 -381l1536 1536q2 2 6 2q2 -2 2 -4v-256v-4l-637 -637l637 -637v-4v-256q0 -2 -2 -4h-2q-2 0 -4 2l-764 764l-764 -764q-2 -2 -6 -2q-2 2 -2 4v256v4zM508 1405v4v256q0 2 2 4q4 0 6 -2l508 -508l508 508 q2 2 6 2q2 -2 2 -4v-256v-4l-512 -512q-2 -2 -4 -2t-4 2zM1020 -381l256 256q4 4 8 0l256 -256v-4v-256q0 -2 -2 -4h-2q-2 0 -4 2l-252 252l-252 -252q-2 -2 -6 -2q-2 2 -2 4v256v4zM1532 897v256v2l512 512q2 2 6 2q2 -2 2 -4v-256v-4l-512 -512q-2 -2 -4 -2h-2q-2 2 -2 6z M1788 125v4v256v2l256 256q2 2 6 2q2 -2 2 -4v-256v-4l-125 -125l125 -125v-2v-258q0 -2 -2 -4h-2q-2 0 -4 2z" />
<glyph unicode="&#x2211;" d="M-4 385v256v2l125 125l-125 125v4v256v2l512 512q2 2 6 2q2 -2 2 -4v-256v-4l-381 -381l125 -125v-2v-256v-4l-256 -256q-2 -2 -4 -2h-2q-2 2 -2 6zM252 125v4v256v2l381 381l-125 125v4v256v2l512 512q2 2 6 2q2 -2 2 -4v-256v-4l-381 -381l121 -121l764 764q2 2 6 2 q2 -2 2 -4v-256v-4l-1149 -1149l125 -125v-2v-258q0 -2 -2 -4h-2q-2 0 -4 2zM252 -129q0 4 2 6q4 0 6 -2l256 -256v-4v-256q0 -2 -2 -4h-2q-2 0 -4 2l-256 256v2v256zM764 -125l125 125l-125 125v4v256v2l512 512q2 2 6 2q2 -2 2 -4v-256v-4l-381 -381l125 -125v-2v-258v-2 l-125 -125l125 -125v-4v-256q0 -2 -2 -4h-2q-2 0 -4 2l-256 256v2v256v4zM1276 125v4v256v2l381 381l-125 125v4v256v2l512 512q2 2 6 2q2 -2 2 -4v-256v-4l-381 -381l125 -125v-2v-256v-4l-381 -381l125 -125v-2v-258q0 -2 -2 -4h-2q-2 0 -4 2zM1276 -129q0 4 2 6q4 0 6 -2 l256 -256v-4v-256q0 -2 -2 -4h-2q-2 0 -4 2l-256 256v2v256zM1788 -125l125 125l-125 125v4v256v2l256 256q2 2 6 2q2 -2 2 -4v-256v-4l-125 -125l125 -125v-2v-258v-2l-125 -125l125 -125v-4v-256q0 -2 -2 -4h-2q-2 0 -4 2l-256 256v2v256v4z" />
<glyph unicode="&#x221a;" d="M-4 -129v258q0 2 2 4q4 0 6 -2l508 -508l1020 1020q2 2 6 2q2 -2 2 -4v-256v-4l-381 -381l121 -121l252 252q4 4 8 0l512 -512v-4v-256q0 -2 -2 -4h-2q-2 0 -4 2l-508 508l-508 -508q-2 -2 -6 -2q-2 2 -2 4v256v4l125 125l-121 121l-508 -508q-4 -4 -8 0l-512 512v2z M-4 381v4v256q0 2 2 4q4 0 6 -2l256 -256v-2v-256q0 -4 -2 -6h-2q-2 0 -4 2zM-4 893v4v256q0 2 2 4q4 0 6 -2l508 -508l1020 1020q4 4 8 0l256 -256v-2v-256q0 -4 -2 -6q-4 0 -6 2l-252 252l-377 -377l121 -121l252 252q4 4 8 0l512 -512v-2v-256q0 -4 -2 -6q-4 0 -6 2 l-508 508l-1020 -1020q-2 -2 -4 -2h-2q-2 2 -2 4v258v2l637 637l-121 121l-508 -508q-4 -4 -8 0zM-4 1405v4v256q0 2 2 4q4 0 6 -2l508 -508l252 252q2 2 6 2q2 -2 2 -4v-256v-4l-256 -256q-2 -2 -4 -2t-4 2zM1788 125v4v256q0 2 2 4q4 0 6 -2l256 -256v-2v-258q0 -2 -2 -4 h-2q-2 0 -4 2z" />
<glyph unicode="&#x221e;" d="M-4 -129v258v2l512 512q2 2 6 2l2 -4v-256v-4l-512 -512q-2 -2 -4 -2h-2q-2 2 -2 4zM-4 -381l893 893l-377 377l-508 -508q-2 -2 -6 -2q-2 2 -2 6v256v2l381 381l-125 125v4v256v2l256 256q2 2 6 2l2 -4v-256v-4l-125 -125l377 -377l764 764q2 2 6 2l2 -4v-256v-4 l-637 -637l377 -377l764 764q2 2 6 2l2 -4v-256v-4l-637 -637l377 -377l252 252q2 2 6 2l2 -4v-258v-2l-256 -256q-4 -4 -8 0l-252 252l-508 -508q-2 -2 -4 -2h-2q-2 2 -2 4v256v4l381 381l-377 377l-1020 -1020q-2 -2 -6 -2q-2 2 -2 4v256v4zM508 -381l512 512q2 2 6 2 l2 -4v-258v-2l-512 -512q-2 -2 -4 -2h-2q-2 2 -2 4v256v4zM764 1153v256v2l256 256q2 2 6 2l2 -4v-256v-4l-256 -256q-2 -2 -4 -2h-2q-2 2 -2 6zM1276 641v256v2l768 768q2 2 6 2l2 -4v-256v-4l-768 -768q-2 -2 -4 -2h-2q-2 2 -2 6zM1788 129v256v2l256 256q2 2 6 2l2 -4 v-256v-4l-256 -256q-2 -2 -4 -2h-2q-2 2 -2 6z" />
<glyph unicode="&#x222b;" d="M-4 -129v258q0 2 2 4q4 0 6 -2l512 -512v-4v-256q0 -2 -2 -4h-2q-2 0 -4 2l-512 512v2zM-4 385v256v2l512 512q4 4 8 0l1536 -1536v-4v-256q0 -2 -2 -4h-2q-2 0 -4 2l-1532 1532l-508 -508q-2 -2 -6 -2q-2 2 -2 6zM-4 1405v4v256q0 2 2 4q4 0 6 -2l256 -256v-2v-256 q0 -4 -2 -6h-2q-2 0 -4 2zM252 125v4v256v2l256 256q4 4 8 0l1024 -1024v-4v-256q0 -2 -2 -4h-2q-2 0 -4 2l-1020 1020l-121 -121l637 -637v-4v-256q0 -2 -2 -4q-4 0 -6 2zM508 1405v4v256q0 2 2 4q4 0 6 -2l1276 -1276l252 252q2 2 6 2q2 -2 2 -4v-256v-4l-256 -256 q-2 -2 -4 -2t-4 2zM1020 1405v4v256q0 2 2 4q4 0 6 -2l764 -764l121 121l-381 381v4v256q0 2 2 4q4 0 6 -2l512 -512v-2v-256v-4l-256 -256q-2 -2 -4 -2t-4 2z" />
<glyph unicode="&#x2248;" d="M-4 -129v258q0 2 2 4q4 0 6 -2l252 -252l121 121l-381 381v4v256q0 2 2 4q4 0 6 -2l512 -512v-2v-258v-2l-512 -512q-2 -2 -4 -2h-2q-2 2 -2 4v256v4l125 125l-125 125v2zM-4 893v4v256v2l256 256q4 4 8 0l1792 -1792v-4v-256q0 -2 -2 -4h-2q-2 0 -4 2l-764 764 l-121 -121l381 -381v-4v-256q0 -2 -2 -4q-4 0 -6 2l-512 512v2v258v2l125 125l-121 121l-252 -252q-4 -4 -8 0zM135 1024l633 -633l121 121l-633 633zM508 -381l256 256q4 4 8 0l256 -256v-4v-256q0 -2 -2 -4h-2q-2 0 -4 2l-252 252l-252 -252q-2 -2 -6 -2q-2 2 -2 4v256v4z M508 1405v4v256q0 2 2 4q4 0 6 -2l764 -764l131 123l-391 379v4v256q0 2 2 4q4 0 6 -2l526 -512l2 -2v-256q0 -4 -2 -4l-135 -129l117 -117l252 252q4 4 8 0l256 -256v-2v-256q0 -4 -2 -6q-4 0 -6 2l-252 252l-121 -121l381 -381v-2v-258q0 -2 -2 -4h-2q-2 0 -4 2z M1532 1405v4v256q0 2 2 4q4 0 6 -2l252 -252l252 252q2 2 6 2q2 -2 2 -4v-256v-4l-256 -256q-2 -2 -4 -2t-4 2z" />
<glyph unicode="&#x2260;" horiz-adv-x="512" d="M-4 -129v258v2l125 125l-125 125v4v256q0 2 2 4q4 0 6 -2l512 -512l2 -2v-258l-4 -4h-2q-2 0 -4 2l-252 252l-252 -252q-2 -2 -6 -2q-2 2 -2 4zM-4 -381l256 256q4 4 8 0l256 -256q2 -2 2 -4v-256l-4 -4h-2q-2 0 -4 2l-252 252l-252 -252q-2 -2 -6 -2q-2 2 -2 4v256v4z M-4 893v4v256q0 2 2 4q4 0 6 -2l252 -252l252 252q2 2 6 2l4 -4v-256l-2 -4l-125 -125l125 -125l2 -2v-256q0 -2 -4 -6h-2q-2 0 -4 2zM-4 1405v4v256q0 2 2 4q4 0 6 -2l252 -252l252 252q2 2 6 2l4 -4v-256l-2 -4l-256 -256q-2 -2 -4 -2t-4 2z" />
<glyph unicode="&#x2264;" horiz-adv-x="512" d="M-4 381v4v256v2l381 381l-125 125v4v256v2l256 256q2 2 6 2l2 -4v-256v-4l-125 -125l125 -125v-2v-256v-4l-381 -381l125 -125v-2v-256q0 -4 -2 -6h-2q-2 0 -4 2zM252 -125l256 256q2 2 6 2l2 -4v-258v-2l-125 -125l125 -125v-4v-256q0 -2 -2 -4h-2q-2 0 -4 2l-256 256v2 v256v4z" />
<glyph unicode="&#x2265;" horiz-adv-x="512" d="M-4 -129v258v2l381 381l-125 125v4v256q0 2 2 4q4 0 6 -2l256 -256v-2v-256v-4l-381 -381l125 -125v-4v-256v-2l-256 -256q-2 -2 -4 -2h-2q-2 2 -2 4v256v4l125 125l-125 125v2zM-4 897v256v2l125 125l-125 125v4v256q0 2 2 4q4 0 6 -2l256 -256v-2v-256v-4l-256 -256 q-2 -2 -4 -2h-2q-2 2 -2 6z" />
<glyph unicode="&#x25ca;" d="M-4 -381l381 381l-125 125v4v256q0 2 2 4q4 0 6 -2l256 -256v-2v-258v-2l-512 -512q-2 -2 -4 -2h-2q-2 2 -2 4v256v4zM-4 893v4v256v2l256 256q2 2 6 2q2 -2 2 -4v-256v-4l-125 -125l377 -377l121 121l-125 125v4v256v2l512 512q2 2 6 2q2 -2 2 -4v-256v-4l-381 -381 l893 -893v-2v-258q0 -2 -2 -4q-4 0 -6 2l-764 764l-121 -121l381 -381v-2v-258v-2l-512 -512q-2 -2 -4 -2h-2q-2 2 -2 4v256v4l381 381zM1020 -381l256 256q2 2 6 2q2 -2 2 -6v-256v-2l-256 -256q-2 -2 -4 -2h-2q-2 2 -2 4v256v4zM1020 893v4v256q0 2 2 4q4 0 6 -2l508 -508 l121 121l-125 125v4v256v2l512 512q2 2 6 2q2 -2 2 -4v-256v-4l-381 -381l381 -381v-2v-256q0 -4 -2 -6q-4 0 -6 2l-252 252l-121 -121l381 -381v-2v-258v-2l-512 -512q-2 -2 -4 -2h-2q-2 2 -2 4v256v4l381 381zM1276 1153v256v2l256 256q2 2 6 2q2 -2 2 -4v-256v-4 l-256 -256q-2 -2 -4 -2h-2q-2 2 -2 6z" />
<glyph unicode="&#x25fc;" horiz-adv-x="1669" d="M0 0v1669h1669v-1669h-1669z" />
<glyph unicode="&#xf8ff;" d="M-4 -129v258q0 2 2 4q4 0 6 -2l512 -512v-4v-256q0 -2 -2 -4h-2q-2 0 -4 2l-512 512v2zM-4 381v4v256q0 2 2 4q4 0 6 -2l256 -256v-2v-256q0 -4 -2 -6h-2q-2 0 -4 2zM-4 893v4v256q0 2 2 4q4 0 6 -2l252 -252l764 764q2 2 6 2q2 -2 2 -4v-256v-4l-637 -637l1149 -1149v-4 v-256q0 -2 -2 -4h-2q-2 0 -4 2zM-4 1405v4v256q0 2 2 4q4 0 6 -2l252 -252l252 252q2 2 6 2q2 -2 2 -4v-256v-4l-256 -256q-2 -2 -4 -2t-4 2zM508 -129v258q0 2 2 4q4 0 6 -2l512 -512v-4v-256q0 -2 -2 -4h-2q-2 0 -4 2l-512 512v2zM764 637v4v256v2l768 768q2 2 6 2 q2 -2 2 -4v-256v-4l-381 -381l893 -893v-2v-258q0 -2 -2 -4h-2q-2 0 -4 2l-1020 1020l-121 -121l381 -381v-2v-256q0 -4 -2 -6q-4 0 -6 2zM1532 -129v258q0 2 2 4q4 0 6 -2l512 -512v-4v-256q0 -2 -2 -4h-2q-2 0 -4 2l-512 512v2zM1532 893v4v256v2l512 512q2 2 6 2 q2 -2 2 -4v-256v-4l-381 -381l381 -381v-2v-256q0 -4 -2 -6h-2q-2 0 -4 2z" />
<glyph unicode="&#xfb01;" d="M-4 -129v258q0 2 2 4q4 0 6 -2l512 -512v-4v-256q0 -2 -2 -4h-2q-2 0 -4 2l-512 512v2zM-4 381v4v256q0 2 2 4q4 0 6 -2l508 -508l1532 1532q2 2 6 2l2 -4v-256v-4l-125 -125l125 -125v-2v-256q0 -4 -2 -6q-4 0 -6 2l-252 252l-1145 -1145l381 -381v-4v-256q0 -2 -2 -4 h-2q-2 0 -4 2zM-4 893v4v256q0 2 2 4q4 0 6 -2l508 -508l633 633l-125 125v4v256q0 2 2 4q4 0 6 -2l256 -256v-2v-256v-4l-768 -768q-2 -2 -4 -2t-4 2zM-4 1405v4v256q0 2 2 4q4 0 6 -2l508 -508l121 121l-125 125v4v256q0 2 2 4q4 0 6 -2l256 -256v-2v-256v-4l-256 -256 q-2 -2 -4 -2t-4 2zM1020 -129v258v2l768 768q4 4 8 0l256 -256v-2v-256q0 -4 -2 -6q-4 0 -6 2l-252 252l-633 -633l381 -381v-4v-256q0 -2 -2 -4h-2q-2 0 -4 2l-512 512v2zM1532 -129v258v2l256 256q4 4 8 0l256 -256v-2v-258q0 -2 -2 -4q-4 0 -6 2l-252 252l-121 -121 l381 -381v-4v-256q0 -2 -2 -4h-2q-2 0 -4 2l-512 512v2z" />
<glyph unicode="&#xfb02;" d="M-4 -129v258v2l1536 1536q2 2 6 2l2 -4v-256v-4l-637 -637l121 -121l1020 1020q2 2 6 2l2 -4v-256v-4l-893 -893l377 -377l508 508q2 2 6 2l2 -4v-256v-4l-381 -381l125 -125v-4v-256v-2l-256 -256q-2 -2 -4 -2h-2q-2 2 -2 4v256v4l125 125l-377 377l-764 -764 q-2 -2 -6 -2q-2 2 -2 4v256v4l637 637l-377 377l-764 -764q-2 -2 -6 -2q-2 2 -2 4zM-4 -381l768 768q2 2 6 2l2 -4v-256v-4l-768 -768q-2 -2 -4 -2h-2q-2 2 -2 4v256v4zM-4 385v256v2l381 381l-121 121l-252 -252q-2 -2 -6 -2q-2 2 -2 6v256v2l256 256q4 4 8 0l252 -252 l508 508q2 2 6 2l2 -4v-256v-4l-1024 -1024q-2 -2 -4 -2h-2q-2 2 -2 6zM1020 -381l256 256q2 2 6 2q2 -2 2 -6v-256v-2l-256 -256q-2 -2 -4 -2h-2q-2 2 -2 4v256v4zM1532 385v256v2l512 512q2 2 6 2l2 -4v-256v-4l-512 -512q-2 -2 -4 -2h-2q-2 2 -2 6z" />
<glyph />
<glyph />
<glyph />
<glyph />
<glyph />
<glyph />
<glyph />
<glyph />
<glyph />
<glyph />
<glyph />
<glyph />
<glyph />
<glyph />
<glyph />
<glyph />
<glyph />
<glyph />
<glyph />
<glyph />
<glyph />
<glyph />
<glyph />
<glyph />
<glyph />
<glyph />
<glyph />
<glyph />
<glyph />
<glyph />
<glyph />
<glyph />
<glyph />
<glyph />
<glyph />
<glyph />
<glyph />
<glyph />
<glyph />
<glyph />
<glyph horiz-adv-x="1024" />
<glyph />
<glyph />
<glyph />
<glyph />
<glyph />
</font>
</defs>
</svg>
