<?xml version="1.0" standalone="no"?>
<!DOCTYPE svg PUBLIC "-//W3C//DTD SVG 1.1//EN" "http://www.w3.org/Graphics/SVG/1.1/DTD/svg11.dtd" >
<svg xmlns="http://www.w3.org/2000/svg" xmlns:xlink="http://www.w3.org/1999/xlink" version="1.1">
<metadata></metadata>
<defs>
<font id="mazeletterlabyrinth" horiz-adv-x="2048" >
<font-face units-per-em="2048" ascent="1536" descent="-512" />
<missing-glyph horiz-adv-x="512" />
<glyph horiz-adv-x="0" />
<glyph horiz-adv-x="0" />
<glyph unicode=" "  horiz-adv-x="512" />
<glyph unicode="&#x09;" horiz-adv-x="512" />
<glyph unicode="&#xa0;" horiz-adv-x="512" />
<glyph unicode="!" horiz-adv-x="1024" d="M-55 0l1024 1024l-512 512l55 55l567 -567l-1079 -1079zM-55 256l768 768l-512 512l55 55l567 -567l-823 -823zM-55 -256l1079 1079l55 -55l-1079 -1079zM-55 512l512 512l-512 512l55 55l567 -567l-567 -567zM-55 -512l1079 1079l55 -55l-1079 -1079zM-55 768l256 256 l-256 256l55 55l311 -311l-311 -311zM-55 1024l55 55l55 -55l-55 -55zM201 -512l823 823l55 -55l-823 -823zM457 -512l567 567l55 -55l-567 -567zM713 -512l311 311l55 -55l-311 -311zM713 1536l55 55l311 -311l-55 -55zM973 1536l51 51l51 -51l-51 -51zM975 -512l49 49 l49 -49l-49 -49z" />
<glyph unicode="&#x22;" d="M-55 0l512 512l-512 512l55 55l567 -567l-567 -567zM-55 -256l768 768l-768 768l55 55l823 -823l-768 -768l256 -256l-55 -55zM-55 256l256 256l-256 256l55 55l311 -311l-311 -311zM-55 512l55 55l55 -55l-55 -55zM-55 -512l55 55l55 -55l-55 -55zM-55 1536l55 55 l1079 -1079l-768 -768l256 -256l-55 -55l-311 311l768 768zM201 1536l55 55l952 -952l-55 -55zM457 -256l1079 1079l567 -567l-512 -512l256 -256l-55 -55l-256 256l-256 -256l-55 55l768 768l-457 457l-969 -969l201 -201l768 768l55 -55l-823 -823zM457 1536l55 55 l768 -768l201 201l-512 512l55 55l1079 -1079l-55 -55l-512 512l-256 -256zM713 -256l823 823l311 -311l-823 -823l-55 55l768 768l-201 201l-768 -768zM713 1536l55 55l567 -567l-55 -55zM1225 1536l55 55l823 -823l-55 -55zM1481 -512l55 55l55 -55l-55 -55zM1481 1536 l55 55l567 -567l-55 -55zM1737 -256l311 311l55 -55l-256 -256l256 -256l-55 -55zM1737 1536l55 55l311 -311l-55 -55zM1993 -256l55 55l55 -55l-55 -55zM1993 1536l55 55l55 -55l-55 -55z" />
<glyph unicode="#" d="M-55 0l256 256l-256 256l55 55l311 -311l-311 -311zM-55 -256l512 512l-512 512l55 55l567 -567l-567 -567zM-55 256l55 55l55 -55l-55 -55zM-55 -512l768 768l-768 768l55 55l768 -768l457 457l-768 768l55 55l768 -768l768 768l55 -55l-895 -895l383 -385l-55 -55 l-383 383l-201 -199l383 -385l-55 -55l-383 383l-897 -895zM-55 1280l55 55l768 -768l201 201l-768 768l55 55l823 -823l-311 -311zM-55 1536l55 55l823 -823l-55 -55zM201 -512l567 567l311 -311l-311 -311l-55 55l256 256l-201 201l-512 -512zM457 -512l311 311l55 -55 l-311 -311zM713 1536l55 55l512 -512l512 512l55 -55l-567 -567zM840 129l57 55l383 -385l201 201l-385 385l57 55l383 -385l201 201l-385 385l57 55l383 -385l256 256l55 -55l-256 -256l256 -256l-55 -55l-256 256l-457 -457l256 -256l-55 -55l-256 256l-256 -256l-55 55 l256 256zM969 1536l55 55l256 -256l256 256l55 -55l-311 -311zM1225 -512l55 55l55 -55l-55 -55zM1225 1536l55 55l55 -55l-55 -55zM1481 -256l311 311l311 -311l-55 -55l-256 256l-201 -201l256 -256l-55 -55zM1481 768l567 567l55 -55l-512 -512l201 -201l256 256l55 -55 l-311 -311zM1737 -256l55 55l311 -311l-55 -55zM1737 768l311 311l55 -55l-311 -311zM1993 256l55 55l55 -55l-55 -55z" />
<glyph unicode="$" d="M-55 0l55 55l55 -55l-55 -55zM-55 -256l256 256l-256 256l55 55l311 -311l-311 -311zM-55 -512l512 512l-512 512l55 55l256 -256l201 201l-512 512l567 567l256 -256l256 256l55 -55l-311 -311l-256 256l-457 -457l512 -512l-256 -256l512 -512l-55 -55l-256 256 l-512 -512zM-55 768l55 55l311 -311l-55 -55zM-55 1280l311 311l55 -55l-311 -311zM-55 1536l55 55l55 -55l-55 -55zM201 -512l311 311l184 -184l-55 -55l-129 129l-256 -256zM201 1024l311 311l256 -256l256 256l567 -567l-256 -256l457 -457l256 256l55 -55l-311 -311 l-823 823l55 55l256 -256l201 201l-457 457l-256 -256l-256 256l-201 -201l768 -768l-55 -55l-256 256l-201 -201l457 -457l256 256l311 -311l-55 -55l-256 256l-512 -512l-55 55l256 256l-512 512l256 256zM457 -512l55 55l55 -55l-55 -55zM457 1024l55 55l256 -256 l256 256l311 -311l-55 -55l-256 256l-201 -201l969 -969l256 256l55 -55l-567 -567l-256 256l-256 -256l-55 55l311 311l256 -256l201 201l-457 457l-256 -256l-311 311l55 55l256 -256l201 201zM713 1536l55 55l55 -55l-55 -55zM1096 1409l184 182l256 -256l256 256l55 -55 l-311 -311l-256 256l-127 -129zM1225 -512l55 55l55 -55l-55 -55zM1225 1280l55 55l256 -256l512 512l55 -55l-512 -512l256 -256l-256 -256l256 -256l-55 -55l-311 311l256 256zM1481 1536l55 55l55 -55l-55 -55zM1737 512l256 256l-256 256l311 311l55 -55l-256 -256 l256 -256l-256 -256l74 -72l127 127l55 -55l-182 -184zM1737 -512l311 311l55 -55l-311 -311zM1993 -512l55 55l55 -55l-55 -55zM1993 1024l55 55l55 -55l-55 -55z" />
<glyph unicode="%" d="M-55 0l256 256l-256 256l55 55l311 -311l-311 -311zM-55 256l55 55l55 -55l-55 -55zM-55 -256l440 440l55 -55l-440 -440zM-55 -512l567 567l512 -512l256 256l256 -256l512 512l55 -55l-567 -567l-256 256l-256 -256l-512 512l-512 -512zM-55 768l55 55l512 -512 l256 256l55 -55l-256 -256l457 -457l201 201l-256 256l567 567l567 -567l-567 -567l-256 256l-256 -256zM-55 1024l55 55l512 -512l256 256l311 -311l-256 -256l256 -256l-55 -55l-311 311l256 256l-201 201l-256 -256zM-55 1280l311 311l55 -55l-256 -256l457 -457l457 457 l-256 256l55 55l311 -311l-256 -256l201 -201l457 457l-256 256l55 55l823 -823l-55 -55l-512 512l-457 -457l129 -127l-55 -57l-385 385l-256 -256zM-55 1536l55 55l55 -55l-55 -55zM201 -512l311 311l311 -311l-55 -55l-256 256l-256 -256zM201 1280l311 311l311 -311 l-311 -311zM311 1280l201 -201l201 201l-201 201zM457 -512l55 55l55 -55l-55 -55zM457 1280l55 55l55 -55l-55 -55zM969 1024l256 256l-256 256l55 55l311 -311l-311 -311zM1079 256l457 -457l457 457l-457 457zM1225 256l311 311l311 -311l-311 -311zM1225 -512l55 55 l55 -55l-55 -55zM1225 766l311 330l567 -584l-55 -55l-512 526l-254 -270zM1335 256l201 -201l201 201l-201 201zM1481 256l55 55l55 -55l-55 -55zM1481 1536l55 55l129 -127l127 127l55 -55l-182 -184zM1737 -512l311 311l55 -55l-311 -311zM1737 1280l311 311l55 -55 l-256 -256l256 -256l-55 -55zM1993 -512l55 55l55 -55l-55 -55zM1993 1280l55 55l55 -55l-55 -55z" />
<glyph unicode="&#x26;" d="M-55 0l55 55l512 -512l201 201l-768 768l311 311l1280 -1280l512 512l55 -55l-567 -567l-1280 1280l-201 -201l768 -768l-311 -311zM-55 256l55 55l567 -567l-55 -55zM-55 -256l55 55l311 -311l-55 -55zM-55 -512l55 55l55 -55l-55 -55zM-55 768l184 184l55 -55 l-184 -184zM-55 1024l55 55l55 -55l-55 -55zM-55 1280l55 55l1536 -1536l457 457l-1024 1024l55 55l1079 -1079l-567 -567zM-55 1536l55 55l1536 -1536l201 201l-1024 1024l311 311l768 -768l201 201l-512 512l55 55l567 -567l-311 -311l-768 768l-201 -201l1024 -1024 l-311 -311zM201 512l55 55l1079 -1079l-55 -55zM201 1536l55 55l1335 -1335l-55 -55zM457 1536l55 55l55 -55l-55 -55zM584 1409l184 182l55 -55l-182 -184zM713 -512l184 184l55 -55l-184 -184zM969 -512l55 55l55 -55l-55 -55zM1225 1536l55 55l567 -567l-55 -55z M1737 -512l311 311l55 -55l-311 -311zM1737 1536l55 55l311 -311l-55 -55zM1864 641l184 182l55 -55l-182 -184zM1993 512l55 55l55 -55l-55 -55zM1993 -512l55 55l55 -55l-55 -55zM1993 1536l55 55l55 -55l-55 -55z" />
<glyph unicode="'" d="M-55 0l512 512l-512 512l55 55l567 -567l-567 -567zM-55 -256l768 768l-768 768l311 311l55 -55l-256 -256l768 -768l-823 -823zM-55 256l256 256l-256 256l55 55l311 -311l-311 -311zM-55 -512l1024 1024l-768 768l311 311l55 -55l-256 -256l768 -768l-1079 -1079z M-55 512l55 55l55 -55l-55 -55zM-55 1536l55 55l55 -55l-55 -55zM201 -512l952 952l55 -55l-952 -952zM457 -512l823 823l256 -256l512 512l55 -55l-1079 -1079l-55 55l512 512l-201 201l-768 -768zM457 1280l311 311l823 -823l-55 -55l-768 768l-201 -201l969 -969l457 457 l-768 768l55 55l256 -256l256 256l55 -55l-256 -256l512 -512l-567 -567zM713 -512l567 567l55 -55l-567 -567zM713 1280l55 55l768 -768l201 201l-768 768l55 55l823 -823l-311 -311zM1225 -512l823 823l55 -55l-823 -823zM1481 -512l567 567l55 -55l-567 -567zM1481 1536 l55 55l55 -55l-55 -55zM1737 -512l311 311l55 -55l-311 -311zM1737 1280l311 311l55 -55l-256 -256l256 -256l-55 -55zM1993 -512l55 55l55 -55l-55 -55zM1993 1280l55 55l55 -55l-55 -55z" />
<glyph unicode="(" horiz-adv-x="512" d="M-55 0l55 55l311 -311l-311 -311l-55 55l256 256zM-55 256l55 55l440 -440l-55 -55zM-55 -256l55 55l55 -55l-55 -55zM-55 512l567 567l55 -55l-512 -512l512 -512l-55 -55zM-55 768l440 440l55 -55l-440 -440zM-55 1024l256 256l-256 256l55 55l311 -311l-311 -311z M-55 1280l55 55l55 -55l-55 -55zM201 512l55 55l129 -127l127 127l55 -55l-127 -127l127 -129l-55 -55zM201 -512l311 311l55 -55l-311 -311zM201 1536l55 55l311 -311l-55 -55zM328 641l184 182l55 -55l-182 -184zM457 -512l55 55l55 -55l-55 -55zM457 1536l55 55l55 -55 l-55 -55z" />
<glyph unicode=")" horiz-adv-x="512" d="M-55 12l512 512l-512 512l55 56l567 -568l-567 -567zM-55 -244l55 56l311 -312l-55 -55zM-55 268l184 185l55 -56l-184 -184zM-55 -500l55 56l55 -56l-55 -55zM-55 524l127 129l-127 127l55 56l311 -312l-55 -55l-127 127l-129 -127zM-55 1292l311 312l55 -56l-311 -311z M-55 1548l55 56l55 -56l-55 -55zM72 -117l440 441l55 -56l-438 -440zM72 1165l57 56l438 -441l-55 -55zM201 -244l311 312l55 -56l-256 -256l256 -256l-55 -55zM201 1292l311 312l55 -56l-256 -256l256 -256l-55 -55zM457 -244l55 56l55 -56l-55 -55zM457 1292l55 56l55 -56 l-55 -55z" />
<glyph unicode="*" d="M-55 0l256 256l-256 256l55 55l311 -311l-311 -311zM-55 256l55 55l55 -55l-55 -55zM-55 -256l440 440l55 -55l-440 -440zM-55 -512l1335 1335l55 -55l-1335 -1335zM-55 768l440 440l55 -55l-385 -385l457 -457l201 201l-256 256l55 55l256 -256l201 201l-713 713 l-256 -256l-55 55l311 311l512 -512l201 201l-256 256l55 55l256 -256l256 256l184 -182l-55 -57l-129 129l-457 -457l201 -201l512 512l55 -55l-1079 -1079zM-55 1024l311 311l55 -55l-311 -311zM-55 1536l55 55l55 -55l-55 -55zM201 -512l1280 1280l-129 129l57 55 l182 -184l-1335 -1335zM201 768l311 311l311 -311l-55 -55l-256 256l-201 -201l256 -256l-55 -55zM457 -512l184 184l182 -184l-55 -55l-127 127l-129 -127zM457 1536l55 55l311 -311l-55 -55zM713 -256l311 311l55 -55l-256 -256l256 -256l-55 -55zM969 -256l256 256 l-129 129l57 55l694 -696l-55 -55l-512 512l-256 -256zM969 1024l311 311l55 -55l-311 -311zM969 1536l55 55l55 -55l-55 -55zM1096 -383l57 55l182 -184l-55 -55zM1225 256l55 55l823 -823l-55 -55zM1225 -256l55 55l311 -311l-55 -55zM1352 385l57 55l383 -385l201 201 l-256 256l55 55l311 -311l-256 -256l256 -256l-55 -55zM1481 512l256 256l-256 256l55 55l311 -311l-256 -256l256 -256l-55 -55zM1481 1536l55 55l311 -311l-55 -55zM1608 1153l57 55l438 -440l-127 -127l127 -129l-55 -55l-184 184l129 127zM1737 1536l55 55l55 -55 l-55 -55zM1864 1153l129 127l-129 129l184 182l55 -55l-127 -127l127 -129l-182 -184zM1993 0l55 55l55 -55l-55 -55zM1993 1024l55 55l55 -55l-55 -55z" />
<glyph unicode="+" horiz-adv-x="512" d="M-55 0l256 256l-256 256l55 55l311 -311l-311 -311zM-55 256l55 55l55 -55l-55 -55zM-55 -256l567 567l55 -55l-512 -512l256 -256l-55 -55zM-55 -512l55 55l55 -55l-55 -55zM-55 768l567 567l55 -55l-512 -512l385 -383l-55 -57zM-55 1024l256 256l-256 256l55 55 l311 -311l-311 -311zM-55 1280l55 55l55 -55l-55 -55zM201 -256l311 311l55 -55l-256 -256l256 -256l-55 -55zM201 768l311 311l55 -55l-256 -256l256 -256l-55 -55zM201 1536l55 55l184 -182l-55 -57zM457 -256l55 55l55 -55l-55 -55zM457 768l55 55l55 -55l-55 -55z M457 1536l55 55l55 -55l-55 -55z" />
<glyph unicode="," horiz-adv-x="512" d="M-55 0l256 256l-256 256l55 55l311 -311l-311 -311zM-55 256l55 55l55 -55l-55 -55zM-55 -256l567 567l55 -55l-567 -567zM-55 -512l567 567l55 -55l-567 -567zM-55 768l55 55l440 -438l-55 -57zM-55 1024l55 55l567 -567l-55 -55zM-55 1280l311 311l55 -55l-311 -311z M-55 1536l55 55l55 -55l-55 -55zM72 1153l57 55l438 -440l-55 -55zM201 -512l311 311l55 -55l-311 -311zM201 1280l311 311l55 -55l-256 -256l256 -256l-55 -55zM457 -512l55 55l55 -55l-55 -55zM457 1280l55 55l55 -55l-55 -55z" />
<glyph unicode="-" horiz-adv-x="512" d="M-55 0l567 567l55 -55l-567 -567zM-55 256l567 567l55 -55l-567 -567zM-55 -256l567 567l55 -55l-567 -567zM-55 512l567 567l55 -55l-567 -567zM-55 -512l184 184l182 -184l-55 -55l-127 127l-129 -127zM-55 768l567 567l55 -55l-567 -567zM-55 1024l256 256l-256 256 l55 55l311 -311l-311 -311zM-55 1280l55 55l55 -55l-55 -55zM201 -256l311 311l55 -55l-256 -256l256 -256l-55 -55zM201 1536l55 55l129 -127l127 127l55 -55l-182 -184zM457 -256l55 55l55 -55l-55 -55z" />
<glyph unicode="." horiz-adv-x="512" d="M-55 0l55 55l55 -55l-55 -55zM-55 -256l256 256l-256 256l55 55l311 -311l-311 -311zM-55 -512l512 512l-512 512l512 512l-512 512l55 55l567 -567l-512 -512l512 -512l-567 -567zM-55 768l256 256l-256 256l55 55l311 -311l-311 -311zM-55 1024l55 55l55 -55l-55 -55z M201 512l311 311l55 -55l-256 -256l256 -256l-55 -55zM201 -512l311 311l55 -55l-311 -311zM201 1536l55 55l311 -311l-55 -55zM457 512l55 55l55 -55l-55 -55zM457 -512l55 55l55 -55l-55 -55zM457 1536l55 55l55 -55l-55 -55z" />
<glyph unicode="/" horiz-adv-x="1024" d="M-55 0l55 55l567 -567l-55 -55zM-55 256l55 55l823 -823l-55 -55zM-55 -256l55 55l311 -311l-55 -55zM-55 512l256 256l-256 256l55 55l311 -311l-311 -311zM-55 -512l55 55l55 -55l-55 -55zM-55 768l55 55l55 -55l-55 -55zM-55 1280l55 55l567 -567l-440 -440l-55 57 l385 383zM-55 1536l55 55l823 -823l-512 -512l768 -768l-55 -55l-823 823l512 512zM201 1536l55 55l823 -823l-55 -55zM457 256l438 440l57 -55l-385 -385l512 -512l-55 -55zM457 1536l55 55l567 -567l-55 -55zM713 256l311 311l55 -55l-256 -256l256 -256l-55 -55z M713 1536l55 55l311 -311l-55 -55zM969 256l55 55l55 -55l-55 -55zM969 1536l55 55l55 -55l-55 -55z" />
<glyph unicode="0" d="M-55 0l311 311l823 -823l-55 -55l-768 768l-256 -256zM-55 256l1335 1335l823 -823l-55 -55l-768 768l-457 -457l129 -127l-55 -57l-129 129l-768 -768zM-55 -256l311 311l567 -567l-55 -55l-512 512l-256 -256zM-55 512l55 55l55 -55l-55 -55zM-55 -512l311 311 l311 -311l-55 -55l-256 256l-256 -256zM-55 768l55 55l184 -182l-55 -57zM-55 1024l55 55l256 -256l768 768l55 -55l-823 -823zM-55 1280l55 55l256 -256l512 512l55 -55l-567 -567zM-55 1536l55 55l256 -256l256 256l55 -55l-311 -311zM201 -512l55 55l55 -55l-55 -55z M201 1536l55 55l55 -55l-55 -55zM328 385l57 55l895 -897l768 768l55 -55l-823 -823zM457 512l311 311l55 -55l-256 -256l713 -713l328 330l-199 199l-129 -127l-311 311l311 311l311 -311l-127 -127l201 -201l328 328l-713 713l-256 -256l-55 55l311 311l823 -823 l-823 -823zM713 512l567 567l567 -567l-182 -184l-57 57l129 127l-457 457l-457 -457l457 -457l129 129l55 -55l-184 -184zM1079 512l201 -201l201 201l-201 201zM1225 512l55 55l55 -55l-55 -55zM1481 -512l567 567l55 -55l-567 -567zM1481 1536l55 55l567 -567l-55 -55z M1737 -512l311 311l55 -55l-311 -311zM1737 1536l55 55l311 -311l-55 -55zM1993 -512l55 55l55 -55l-55 -55zM1993 1536l55 55l55 -55l-55 -55z" />
<glyph unicode="1" d="M-55 0l1591 1591l55 -55l-1591 -1591zM-55 256l512 512l-201 201l-256 -256l-55 55l311 311l256 -256l768 768l55 -55l-1335 -1335zM-55 -256l1591 1591l256 -256l256 256l55 -55l-1206 -1208l-57 57l897 895l-201 201l-1536 -1536zM-55 -512l1591 1591l55 -55 l-1591 -1591zM-55 512l311 311l55 -55l-311 -311zM-55 1024l567 567l55 -55l-567 -567zM-55 1280l311 311l55 -55l-311 -311zM-55 1536l55 55l55 -55l-55 -55zM201 -512l567 567l256 -256l1024 1024l55 -55l-1335 -1335l-55 55l256 256l-201 201l-512 -512zM328 1153 l440 438l55 -55l-438 -440zM457 -512l311 311l55 -55l-311 -311zM457 1024l567 567l55 -55l-567 -567zM969 0l1079 1079l55 -55l-1079 -1079zM969 -512l1079 1079l55 -55l-1079 -1079zM1225 -512l823 823l55 -55l-823 -823zM1481 -512l567 567l55 -55l-567 -567zM1608 1409 l184 182l55 -55l-182 -184zM1737 -512l311 311l55 -55l-311 -311zM1737 1280l311 311l55 -55l-311 -311zM1993 -512l55 55l55 -55l-55 -55z" />
<glyph unicode="2" d="M-55 0l512 512l-256 256l55 55l256 -256l457 457l-256 256l55 55l256 -256l512 512l311 -311l-55 -55l-256 256l-457 -457l256 -256l-55 -55l-256 256l-457 -457l256 -256l-55 -55l-256 256l-457 -457l256 -256l-55 -55zM-55 256l256 256l-256 256l311 311l256 -256 l201 201l-256 256l311 311l256 -256l256 256l55 -55l-311 -311l-256 256l-201 -201l256 -256l-311 -311l-256 256l-201 -201l256 -256l-311 -311zM-55 -256l55 55l256 -256l201 201l-256 256l311 311l256 -256l201 201l-256 256l311 311l256 -256l201 201l-256 256l311 311 l256 -256l201 201l-256 256l55 55l311 -311l-311 -311l-256 256l-201 -201l256 -256l-311 -311l-256 256l-201 -201l256 -256l-311 -311l-256 256l-201 -201l256 -256l-311 -311zM-55 512l55 55l55 -55l-55 -55zM-55 -512l55 55l55 -55l-55 -55zM-55 1024l256 256l-256 256 l55 55l256 -256l256 256l55 -55l-256 -256l256 -256l-55 -55l-256 256l-256 -256zM-55 1280l55 55l55 -55l-55 -55zM201 1536l55 55l55 -55l-55 -55zM457 0l55 55l256 -256l457 457l-256 256l55 55l256 -256l457 457l-256 256l55 55l256 -256l256 256l55 -55l-256 -256 l256 -256l-55 -55l-256 256l-457 -457l256 -256l-55 -55l-256 256l-457 -457l256 -256l-55 -55l-256 256l-256 -256l-55 55l256 256zM713 -512l55 55l55 -55l-55 -55zM969 -256l311 311l256 -256l201 201l-256 256l311 311l311 -311l-55 -55l-256 256l-201 -201l256 -256 l-311 -311l-256 256l-201 -201l256 -256l-55 -55zM969 1536l55 55l55 -55l-55 -55zM1225 -256l55 55l256 -256l457 457l-256 256l55 55l311 -311l-567 -567zM1737 -512l311 311l55 -55l-311 -311zM1993 -512l55 55l55 -55l-55 -55zM1993 768l55 55l55 -55l-55 -55z M1993 1536l55 55l55 -55l-55 -55z" />
<glyph unicode="3" d="M-55 0l55 55l256 -256l201 201l-512 512l55 55l512 -512l201 201l-768 768l55 55l823 -823l-823 -823l-55 55l256 256zM-55 256l55 55l311 -311l-55 -55zM-55 -256l55 55l55 -55l-55 -55zM-55 768l55 55l567 -567l-55 -55zM-55 1280l55 55l1024 -1024l1024 1024l55 -55 l-1079 -1079zM-55 1536l55 55l1024 -1024l201 201l-768 768l55 55l768 -768l201 201l-512 512l55 55l512 -512l201 201l-256 256l55 55l256 -256l256 256l55 -55l-1079 -1079zM201 -512l696 696l55 -55l-696 -696zM201 1536l55 55l823 -823l-55 -55zM457 -512l1591 1591 l55 -55l-1591 -1591zM713 -512l1335 1335l55 -55l-1335 -1335zM713 1536l55 55l567 -567l-55 -55zM969 -512l1079 1079l55 -55l-1079 -1079zM1225 -512l823 823l55 -55l-823 -823zM1225 1536l55 55l311 -311l-55 -55zM1481 -512l567 567l55 -55l-567 -567zM1737 -512 l311 311l55 -55l-311 -311zM1741 1536l51 51l51 -51l-51 -51zM2003 -512l49 51l51 -51l-51 -51z" />
<glyph unicode="4" d="M-55 0l567 567l567 -567l-55 -55l-512 512l-457 -457l201 -201l256 256l184 -184l-55 -55l-129 129l-201 -201l256 -256l-55 -55zM-55 256l567 567l823 -823l-256 -256l256 -256l-55 -55l-311 311l256 256l-713 713l-512 -512zM-55 -256l55 55l311 -311l-55 -55zM-55 512 l1079 1079l256 -256l129 129l182 -184l-55 -55l-129 127l-199 -199l328 -330l256 256l55 -55l-311 -311l-440 440l129 127l-201 201l-457 -457l969 -969l512 512l55 -55l-512 -512l512 -512l-55 -55l-512 512l-256 -256l-55 55l256 256l-969 969l-512 -512zM-55 -512l55 55 l55 -55l-55 -55zM-55 768l127 129l-127 127l55 55l184 -182l-184 -184zM-55 1280l55 55l256 -256l201 201l-256 256l55 55l311 -311l-311 -311zM-55 1536l55 55l311 -311l-55 -55zM201 0l311 311l440 -440l-129 -127l256 -256l-55 -55l-256 256l-127 -129l-184 184l55 55 l129 -127l199 199l-328 330l-256 -256zM457 1536l55 55l129 -127l127 127l55 -55l-182 -184zM713 -512l55 55l55 -55l-55 -55zM713 1024l311 311l55 -55l-256 -256l713 -713l512 512l55 -55l-567 -567zM969 1024l55 55l512 -512l457 457l-201 201l-256 -256l-184 184l57 55 l127 -129l201 201l-256 256l55 55l567 -567l-567 -567zM1225 1536l55 55l55 -55l-55 -55zM1352 -385l184 184l311 -311l-55 -55l-256 256l-72 -74l127 -127l-55 -55zM1737 0l311 311l55 -55l-256 -256l256 -256l-55 -55zM1737 1536l55 55l311 -311l-55 -55zM1993 0l55 55 l55 -55l-55 -55zM1993 1536l55 55l55 -55l-55 -55z" />
<glyph unicode="5" d="M-55 0l256 256l-256 256l55 55l311 -311l-311 -311zM-55 -256l512 512l-512 512l823 823l55 -55l-768 -768l713 -713l512 512l311 -311l-512 -512l129 -129l-55 -55l-184 184l512 512l-201 201l-512 -512l-256 256l-457 -457l256 -256l-55 -55zM-55 256l55 55l55 -55 l-55 -55zM-55 -512l55 55l55 -55l-55 -55zM-55 1024l567 567l55 -55l-567 -567zM-55 1280l311 311l55 -55l-311 -311zM-55 1536l55 55l55 -55l-55 -55zM201 -256l311 311l256 -256l512 512l55 -55l-512 -512l256 -256l-55 -55l-512 512l-201 -201l256 -256l-55 -55zM201 768 l823 823l55 -55l-768 -768l457 -457l512 512l567 -567l-567 -567l-55 55l512 512l-457 457l-512 -512zM457 -256l55 55l311 -311l-55 -55zM457 768l823 823l55 -55l-768 -768l201 -201l512 512l823 -823l-823 -823l-55 55l768 768l-713 713l-512 -512zM713 768l823 823 l55 -55l-256 -256l201 -201l512 512l55 -55l-567 -567l-256 256l-512 -512zM1481 -512l567 567l55 -55l-567 -567zM1481 1280l311 311l55 -55l-311 -311zM1608 897l440 438l55 -55l-438 -440zM1737 -512l311 311l55 -55l-311 -311zM1737 768l311 311l55 -55l-256 -256 l256 -256l-55 -55zM1993 -512l55 55l55 -55l-55 -55zM1993 768l55 55l55 -55l-55 -55z" />
<glyph unicode="6" d="M-55 0l55 55l311 -311l-311 -311l-55 55l256 256zM-55 256l567 567l440 -438l-55 -57l-385 385l-457 -457l512 -512l-311 -311l-55 55l256 256zM-55 -256l55 55l55 -55l-55 -55zM-55 512l512 512l-201 201l-256 -256l-55 55l311 311l311 -311l-567 -567zM-55 768l311 311 l55 -55l-311 -311zM-55 1280l311 311l512 -512l512 512l55 -55l-256 -256l457 -457l512 512l55 -55l-768 -768l457 -457l256 256l55 -55l-694 -696l-57 55l385 385l-457 457l-457 -457l512 -512l-55 -55l-567 567l768 768l-457 457l-256 -256l-512 512l-256 -256zM-55 1536 l55 55l55 -55l-55 -55zM201 256l311 311l311 -311l-311 -311zM311 256l201 -201l201 201l-201 201zM457 256l55 55l55 -55l-55 -55zM457 -512l311 311l311 -311l-55 -55l-256 256l-256 -256zM457 1536l55 55l256 -256l256 256l55 -55l-311 -311zM584 -129l57 57l55 -57 l-55 -55zM584 897l57 55l55 -55l-55 -57zM713 -512l55 55l55 -55l-55 -55zM713 768l311 311l311 -311l-311 -311zM713 1536l55 55l55 -55l-55 -55zM823 768l201 -201l201 201l-201 201zM969 0l311 311l311 -311l-311 -311zM969 768l55 55l55 -55l-55 -55zM1079 0l201 -201 l201 201l-201 201zM1225 0l55 55l55 -55l-55 -55zM1225 1280l311 311l55 -55l-256 -256l201 -201l512 512l55 -55l-567 -567zM1481 512l567 567l55 -55l-512 -512l201 -201l256 256l55 -55l-311 -311zM1481 -512l567 567l55 -55l-567 -567zM1481 1280l311 311l55 -55 l-311 -311zM1737 512l311 311l55 -55l-311 -311zM1737 -512l311 311l55 -55l-311 -311zM1993 -512l55 55l55 -55l-55 -55z" />
<glyph unicode="7" d="M-55 0l256 256l-256 256l55 55l311 -311l-311 -311zM-55 -256l512 512l-512 512l823 823l55 -55l-768 -768l512 -512l-567 -567zM-55 256l55 55l55 -55l-55 -55zM-55 -512l768 768l-512 512l823 823l256 -256l256 256l55 -55l-311 -311l-256 256l-713 -713l512 -512 l-823 -823zM-55 1024l567 567l55 -55l-567 -567zM-55 1280l311 311l55 -55l-311 -311zM-55 1536l55 55l55 -55l-55 -55zM201 -512l768 768l-512 512l567 567l184 -182l-55 -57l-129 129l-457 -457l512 -512l-823 -823zM457 -512l768 768l-512 512l311 311l55 -55l-256 -256 l512 -512l-823 -823zM713 -512l768 768l-512 512l823 823l55 -55l-768 -768l512 -512l-823 -823zM969 -512l55 55l55 -55l-55 -55zM1096 -383l57 55l127 -129l713 713l-512 512l567 567l55 -55l-512 -512l512 -512l-823 -823zM1225 -256l512 512l-512 512l823 823l55 -55 l-768 -768l512 -512l-567 -567zM1225 1536l55 55l55 -55l-55 -55zM1481 -512l567 567l55 -55l-567 -567zM1737 -512l311 311l55 -55l-311 -311zM1737 768l311 311l55 -55l-256 -256l256 -256l-55 -55zM1993 -512l55 55l55 -55l-55 -55zM1993 768l55 55l55 -55l-55 -55z" />
<glyph unicode="8" d="M-55 0l55 55l567 -567l-55 -55zM-55 256l55 55l823 -823l-55 -55zM-55 -256l55 55l311 -311l-55 -55zM-55 512l256 256l-256 256l55 55l311 -311l-311 -311zM-55 -512l55 55l55 -55l-55 -55zM-55 768l55 55l55 -55l-55 -55zM-55 1280l55 55l512 -512l457 457l-256 256 l55 55l1335 -1335l-55 -55l-1024 1024l-457 -457l768 -768l-182 -184l-57 55l129 129l-713 713l-383 -385l-57 57l385 383zM-55 1536l55 55l512 -512l201 201l-256 256l55 55l311 -311l-311 -311zM201 256l311 311l567 -567l-55 -55l-512 512l-201 -201l768 -768l-55 -55z M201 1536l55 55l311 -311l-55 -55zM457 256l55 55l823 -823l-55 -55zM713 768l311 311l1079 -1079l-55 -55l-1024 1024l-201 -201l768 -768l-256 -256l256 -256l-55 -55l-311 311l256 256zM969 768l55 55l1079 -1079l-55 -55l-256 256l-201 -201l256 -256l-55 -55l-311 311 l256 256zM969 1536l55 55l1079 -1079l-55 -55zM1225 1536l55 55l823 -823l-55 -55zM1481 1536l55 55l567 -567l-55 -55zM1737 -256l55 55l311 -311l-55 -55zM1737 1536l55 55l311 -311l-55 -55zM1993 1536l55 55l55 -55l-55 -55z" />
<glyph unicode="9" d="M-55 0l55 55l567 -567l-55 -55zM-55 256l55 55l696 -694l-55 -57zM-55 -256l55 55l311 -311l-55 -55zM-55 512l1079 1079l55 -55l-1024 -1024l768 -768l-55 -55zM-55 -512l55 55l55 -55l-55 -55zM-55 768l823 823l55 -55l-823 -823zM-55 1024l567 567l55 -55l-567 -567z M-55 1280l311 311l55 -55l-311 -311zM-55 1536l55 55l55 -55l-55 -55zM201 512l440 440l55 -55l-385 -385l768 -768l-311 -311l-55 55l256 256zM457 512l311 311l55 -55l-256 -256l768 -768l-311 -311l-55 55l256 256zM713 512l256 256l-256 256l55 55l256 -256l256 256 l823 -823l-55 -55l-768 768l-457 -457l1024 -1024l-55 -55zM840 1153l440 438l823 -823l-55 -55l-768 768l-383 -385zM969 512l311 311l823 -823l-55 -55l-768 768l-201 -201l1024 -1024l-55 -55zM969 1024l311 311l823 -823l-55 -55l-768 768l-256 -256zM1225 512l55 55 l823 -823l-55 -55zM1225 -512l184 184l182 -184l-55 -55l-127 127l-129 -127zM1481 1536l55 55l567 -567l-55 -55zM1737 1536l55 55l311 -311l-55 -55zM1993 1536l55 55l55 -55l-55 -55z" />
<glyph unicode=":" horiz-adv-x="512" d="M-55 0l512 512l-512 512l567 567l55 -55l-512 -512l512 -512l-512 -512l512 -512l-55 -55zM-55 256l55 55l55 -55l-55 -55zM-55 -256l55 55l311 -311l-55 -55zM-55 512l55 55l129 -127l72 72l-256 256l55 55l311 -311l-182 -184zM-55 -512l55 55l55 -55l-55 -55z M-55 1280l311 311l55 -55l-311 -311zM-55 1536l55 55l55 -55l-55 -55zM201 0l184 184l182 -184l-55 -55l-127 127l-74 -72l256 -256l-55 -55zM201 1024l184 184l182 -184l-55 -55l-127 127l-74 -72l256 -256l-55 -55zM457 256l55 55l55 -55l-55 -55zM457 1280l55 55l55 -55 l-55 -55z" />
<glyph unicode=";" horiz-adv-x="512" d="M-55 0l567 567l55 -55l-567 -567zM-55 256l440 440l55 -55l-440 -440zM-55 -256l55 55l311 -311l-55 -55zM-55 512l256 256l-256 256l55 55l311 -311l-311 -311zM-55 -512l55 55l55 -55l-55 -55zM-55 768l55 55l55 -55l-55 -55zM-55 1280l55 55l567 -567l-55 -55z M-55 1536l55 55l567 -567l-55 -55zM72 -129l440 440l55 -55l-438 -440zM201 -256l311 311l55 -55l-256 -256l256 -256l-55 -55zM201 1536l55 55l311 -311l-55 -55zM457 -256l55 55l55 -55l-55 -55zM457 1536l55 55l55 -55l-55 -55z" />
<glyph unicode="&#x3c;" horiz-adv-x="512" d="M-55 4l55 55l55 -55l-55 -55zM-55 -252l184 184l55 -57l-184 -182zM-55 260l55 55l567 -567l-311 -311l-55 55l256 256zM-55 -508l311 311l55 -55l-311 -311zM-55 516l567 567l55 -55l-512 -512l512 -512l-55 -55zM-55 772l512 512l-256 256l55 55l311 -311l-567 -567z M-55 1028l55 55l55 -55l-55 -55zM-55 1284l55 55l184 -182l-55 -57zM-55 1540l55 55l311 -311l-55 -55zM201 516l311 311l55 -55l-256 -256l256 -256l-55 -55zM457 -508l55 55l55 -55l-55 -55zM457 516l55 55l55 -55l-55 -55zM457 1540l55 55l55 -55l-55 -55z" />
<glyph unicode="=" horiz-adv-x="512" d="M-55 0l127 129l-127 127l55 55l184 -182l-184 -184zM-55 -256l311 311l311 -311l-55 -55l-256 256l-256 -256zM-55 512l55 55l567 -567l-55 -55zM-55 -512l311 311l311 -311l-55 -55l-256 256l-256 -256zM-55 768l55 55l567 -567l-55 -55zM-55 1024l55 55l567 -567 l-55 -55zM-55 1280l55 55l567 -567l-55 -55zM-55 1536l55 55l256 -256l256 256l55 -55l-311 -311zM201 -512l55 55l55 -55l-55 -55zM201 1536l55 55l55 -55l-55 -55zM328 1153l184 182l55 -55l-127 -127l127 -129l-55 -55z" />
<glyph unicode="&#x3e;" horiz-adv-x="512" d="M-55 0l512 512l-512 512l55 55l567 -567l-567 -567zM-55 256l256 256l-256 256l55 55l311 -311l-311 -311zM-55 -256l567 567l55 -55l-567 -567zM-55 512l55 55l55 -55l-55 -55zM-55 -512l55 55l55 -55l-55 -55zM-55 1280l55 55l567 -567l-55 -55zM-55 1536l55 55l55 -55 l-55 -55zM72 -385l57 57l182 -184l-55 -55zM72 1409l184 182l55 -55l-182 -184zM201 -256l55 55l311 -311l-55 -55zM201 1280l311 311l55 -55l-311 -311zM328 -129l184 184l55 -55l-127 -129l127 -127l-55 -55zM328 1153l184 182l55 -55l-127 -127l127 -129l-55 -55z" />
<glyph unicode="?" horiz-adv-x="1024" d="M-55 0l1024 1024l-512 512l55 55l567 -567l-768 -768l457 -457l256 256l55 -55l-567 -567l-55 55l256 256l-457 457l-256 -256zM-55 256l768 768l-512 512l55 55l567 -567l-823 -823zM-55 -256l311 311l311 -311l-311 -311l-55 55l256 256l-201 201l-256 -256zM-55 512 l512 512l-512 512l55 55l567 -567l-567 -567zM-55 -512l311 311l55 -55l-311 -311zM-55 768l256 256l-256 256l55 55l311 -311l-311 -311zM-55 1024l55 55l55 -55l-55 -55zM457 256l567 567l55 -55l-512 -512l201 -201l256 256l55 -55l-311 -311zM713 256l311 311l55 -55 l-311 -311zM713 -512l311 311l55 -55l-311 -311zM713 1536l55 55l311 -311l-55 -55zM969 -512l55 55l55 -55l-55 -55zM969 1536l55 55l55 -55l-55 -55z" />
<glyph unicode="@" d="M-55 0l55 55l567 -567l-55 -55zM-55 256l55 55l696 -696l-55 -55zM-55 -256l55 55l311 -311l-55 -55zM-55 512l55 55l768 -768l713 713l-457 457l-256 -256l-55 55l311 311l567 -567l-823 -823zM-55 -512l55 55l55 -55l-55 -55zM-55 768l55 55l768 -768l457 457l-201 201 l-256 -256l-311 311l567 567l823 -823l-1079 -1079l-55 55l1024 1024l-713 713l-457 -457l201 -201l256 256l311 -311l-567 -567zM-55 1024l567 567l55 -55l-567 -567zM-55 1280l311 311l55 -55l-311 -311zM-55 1536l55 55l55 -55l-55 -55zM72 897l696 694l55 -55l-694 -696 zM201 768l823 823l1079 -1079l-1079 -1079l-55 55l1024 1024l-969 969l-713 -713l457 -457l256 256l55 -55l-311 -311zM1225 -512l823 823l55 -55l-823 -823zM1225 1536l55 55l823 -823l-55 -55zM1481 -512l567 567l55 -55l-567 -567zM1481 1536l55 55l55 -55l-55 -55z M1608 1409l184 182l55 -55l-182 -184zM1737 -512l311 311l55 -55l-311 -311zM1737 1280l311 311l55 -55l-256 -256l256 -256l-55 -55zM1993 -512l55 55l55 -55l-55 -55zM1993 1280l55 55l55 -55l-55 -55z" />
<glyph unicode="A" horiz-adv-x="512" d="M-55 0l567 567l55 -55l-567 -567zM-55 256l567 567l55 -55l-567 -567zM-55 -256l567 567l55 -55l-567 -567zM-55 512l567 567l55 -55l-567 -567zM-55 -512l567 567l55 -55l-567 -567zM-55 768l567 567l55 -55l-567 -567zM-55 1024l567 567l55 -55l-567 -567zM-55 1280 l311 311l55 -55l-311 -311zM-55 1536l55 55l55 -55l-55 -55zM201 -512l311 311l55 -55l-311 -311zM457 -512l55 55l55 -55l-55 -55z" />
<glyph unicode="B" d="M-55 0l256 256l-256 256l55 55l311 -311l-311 -311zM-55 -256l512 512l-512 512l55 55l567 -567l-567 -567zM-55 256l55 55l55 -55l-55 -55zM-55 -512l768 768l-768 768l55 55l768 -768l768 768l55 -55l-1591 -1591zM-55 1280l55 55l512 -512l768 768l55 -55l-768 -768 l256 -256l-55 -55zM-55 1536l55 55l512 -512l512 512l55 -55l-567 -567zM201 -512l1536 1536l-201 201l-639 -641l-57 57l696 694l311 -311l-1024 -1024l512 -512l-55 -55l-512 512l-512 -512zM201 1536l55 55l256 -256l256 256l55 -55l-311 -311zM457 -512l311 311 l311 -311l-55 -55l-256 256l-256 -256zM457 1536l55 55l55 -55l-55 -55zM713 -512l55 55l55 -55l-55 -55zM713 768l823 823l567 -567l-1024 -1024l512 -512l-55 -55l-567 567l1024 1024l-457 457l-768 -768zM1225 0l823 823l55 -55l-768 -768l512 -512l-55 -55zM1481 0 l567 567l55 -55l-512 -512l512 -512l-55 -55zM1737 0l311 311l55 -55l-256 -256l256 -256l-55 -55zM1737 1536l55 55l311 -311l-55 -55zM1993 0l55 55l55 -55l-55 -55zM1993 1536l55 55l55 -55l-55 -55z" />
<glyph unicode="C" d="M-55 0l55 55l55 -55l-55 -55zM-55 -256l256 256l-256 256l55 55l256 -256l457 457l-256 256l311 311l256 -256l457 457l-256 256l55 55l311 -311l-567 -567l-256 256l-201 -201l713 -713l201 201l-256 256l567 567l311 -311l-55 -55l-256 256l-457 -457l256 -256 l-311 -311l-512 512l-768 -768zM-55 512l55 55l256 -256l201 201l-256 256l567 567l256 -256l201 201l-256 256l55 55l311 -311l-311 -311l-256 256l-457 -457l256 -256l-311 -311zM-55 -512l823 823l512 -512l457 457l-256 256l311 311l311 -311l-55 -55l-256 256 l-201 -201l256 -256l-567 -567l-512 512l-768 -768zM-55 768l823 823l311 -311l-55 -55l-256 256l-713 -713l256 -256l-55 -55zM-55 1024l567 567l55 -55l-567 -567zM-55 1280l311 311l55 -55l-311 -311zM-55 1536l55 55l55 -55l-55 -55zM201 -512l567 567l55 -55l-567 -567 zM457 -512l311 311l311 -311l-55 -55l-256 256l-256 -256zM713 -512l55 55l55 -55l-55 -55zM713 768l55 55l256 -256l713 713l-256 256l55 55l567 -567l-55 -55l-256 256l-713 -713l256 -256l-55 -55zM840 -129l57 57l383 -385l713 713l-256 256l55 55l311 -311l-823 -823z M1481 -512l567 567l55 -55l-567 -567zM1737 -512l311 311l55 -55l-311 -311zM1737 1536l55 55l311 -311l-55 -55zM1993 -512l55 55l55 -55l-55 -55zM1993 1536l55 55l55 -55l-55 -55z" />
<glyph unicode="D" d="M-55 0l55 55l256 -256l201 201l-256 256l512 512l-256 256l311 311l1335 -1335l-55 -55l-1280 1280l-201 -201l256 -256l-512 -512l256 -256l-311 -311zM-55 -256l55 55l256 -256l457 457l-256 256l440 440l55 -55l-385 -385l768 -768l-55 -55l-512 512l-512 -512z M-55 256l55 55l311 -311l-55 -55zM-55 512l256 256l-256 256l55 55l311 -311l-311 -311zM-55 -512l55 55l55 -55l-55 -55zM-55 768l55 55l55 -55l-55 -55zM-55 1280l55 55l256 -256l512 512l1335 -1335l-55 -55l-1280 1280l-457 -457l256 -256l-438 -440l-57 57l385 383z M-55 1536l55 55l256 -256l256 256l55 -55l-311 -311zM201 1536l55 55l55 -55l-55 -55zM457 -512l311 311l311 -311l-55 -55l-256 256l-256 -256zM713 256l311 311l1079 -1079l-55 -55l-1024 1024l-201 -201l768 -768l-55 -55zM713 -512l55 55l55 -55l-55 -55zM713 1024 l55 55l1335 -1335l-55 -55zM969 256l55 55l823 -823l-55 -55zM969 1536l55 55l1079 -1079l-55 -55zM1225 1536l55 55l823 -823l-55 -55zM1481 1536l55 55l567 -567l-55 -55zM1737 1536l55 55l311 -311l-55 -55zM1993 1536l55 55l55 -55l-55 -55z" />
<glyph unicode="E" horiz-adv-x="512" d="M-55 0l567 567l55 -55l-512 -512l512 -512l-55 -55zM-55 256l567 567l55 -55l-567 -567zM-55 -256l55 55l311 -311l-55 -55zM-55 512l567 567l55 -55l-567 -567zM-55 -512l55 55l55 -55l-55 -55zM-55 768l567 567l55 -55l-567 -567zM-55 1024l567 567l55 -55l-567 -567z M-55 1280l311 311l55 -55l-311 -311zM-55 1536l55 55l55 -55l-55 -55zM201 0l55 55l311 -311l-55 -55zM328 129l184 182l55 -55l-182 -184zM457 0l55 55l55 -55l-55 -55z" />
<glyph unicode="F" d="M-55 0l311 311l311 -311l-567 -567l-55 55l512 512l-201 201l-256 -256zM-55 256l311 311l567 -567l-567 -567l-55 55l512 512l-457 457l-256 -256zM-55 -256l311 311l55 -55l-311 -311zM-55 512l311 311l823 -823l-567 -567l-55 55l512 512l-713 713l-256 -256zM-55 768 l311 311l1536 -1536l256 256l55 -55l-311 -311l-512 512l-512 -512l-55 55l512 512l-969 969l-256 -256zM-55 1024l311 311l1536 -1536l256 256l55 -55l-311 -311l-1536 1536l-256 -256zM-55 1280l311 311l512 -512l512 512l55 -55l-512 -512l969 -969l256 256l55 -55 l-311 -311l-1536 1536l-256 -256zM-55 1536l55 55l55 -55l-55 -55zM457 1536l55 55l256 -256l256 256l55 -55l-311 -311zM713 1536l55 55l55 -55l-55 -55zM969 -512l311 311l311 -311l-55 -55l-256 256l-256 -256zM969 1024l567 567l55 -55l-512 -512l713 -713l256 256 l55 -55l-311 -311zM1225 -512l55 55l55 -55l-55 -55zM1225 1024l567 567l55 -55l-512 -512l457 -457l256 256l55 -55l-311 -311zM1481 1024l567 567l55 -55l-512 -512l201 -201l256 256l55 -55l-311 -311zM1737 1024l311 311l55 -55l-311 -311zM1993 -512l55 55l55 -55 l-55 -55z" />
<glyph unicode="G" d="M-55 0l55 55l567 -567l-55 -55zM-55 256l55 55l823 -823l-55 -55zM-55 -256l55 55l311 -311l-55 -55zM-55 512l55 55l1079 -1079l-55 -55zM-55 -512l55 55l55 -55l-55 -55zM-55 768l823 823l55 -55l-768 -768l385 -385l-55 -55zM-55 1024l567 567l55 -55l-567 -567z M-55 1280l311 311l55 -55l-311 -311zM-55 1536l55 55l55 -55l-55 -55zM201 768l823 823l55 -55l-768 -768l201 -201l768 768l567 -567l-567 -567l-55 55l512 512l-457 457l-768 -768zM457 256l823 823l311 -311l-512 -512l201 -201l713 713l-713 713l-768 -768l-55 55 l823 823l823 -823l-823 -823l-311 311l512 512l-201 201l-713 -713l713 -713l768 768l55 -55l-823 -823zM713 256l567 567l55 -55l-512 -512l457 -457l768 768l55 -55l-823 -823zM1481 -512l567 567l55 -55l-567 -567zM1481 1536l55 55l567 -567l-55 -55zM1737 -512l311 311 l55 -55l-311 -311zM1737 1536l55 55l311 -311l-55 -55zM1993 -512l55 55l55 -55l-55 -55zM1993 1536l55 55l55 -55l-55 -55z" />
<glyph unicode="H" horiz-adv-x="1024" d="M-55 0l311 311l311 -311l-567 -567l-55 55l512 512l-201 201l-256 -256zM-55 256l311 311l567 -567l-567 -567l-55 55l512 512l-457 457l-256 -256zM-55 -256l311 311l55 -55l-311 -311zM-55 512l512 512l-201 201l-256 -256l-55 55l311 311l311 -311l-567 -567zM-55 768 l311 311l55 -55l-311 -311zM-55 1280l311 311l512 -512l256 256l55 -55l-694 -696l-57 57l385 383l-457 457l-256 -256zM-55 1536l55 55l55 -55l-55 -55zM457 512l567 567l55 -55l-512 -512l201 -201l256 256l55 -55l-311 -311zM457 -512l567 567l55 -55l-567 -567z M457 1536l55 55l256 -256l256 256l55 -55l-311 -311zM713 512l311 311l55 -55l-311 -311zM713 -512l311 311l55 -55l-311 -311zM713 1536l55 55l55 -55l-55 -55zM840 129l184 182l55 -55l-182 -184zM969 -512l55 55l55 -55l-55 -55z" />
<glyph unicode="I" horiz-adv-x="512" d="M-55 0l567 567l55 -55l-567 -567zM-55 256l567 567l55 -55l-567 -567zM-55 -256l567 567l55 -55l-567 -567zM-55 512l512 512l-512 512l55 55l567 -567l-567 -567zM-55 -512l567 567l55 -55l-567 -567zM-55 768l256 256l-72 72l-129 -127l-55 55l184 184l182 -184 l-311 -311zM-55 1280l55 55l55 -55l-55 -55zM201 -512l311 311l55 -55l-311 -311zM201 1536l55 55l311 -311l-55 -55zM457 -512l55 55l55 -55l-55 -55zM457 1536l55 55l55 -55l-55 -55z" />
<glyph unicode="J" d="M-55 0l311 311l823 -823l-55 -55l-768 768l-201 -201l512 -512l-55 -55zM-55 256l311 311l1079 -1079l-55 -55l-1024 1024l-256 -256zM-55 -256l55 55l311 -311l-55 -55zM-55 512l311 311l1335 -1335l-55 -55l-1280 1280l-256 -256zM-55 -512l55 55l55 -55l-55 -55z M-55 768l311 311l1536 -1536l256 256l55 -55l-311 -311l-1536 1536l-256 -256zM-55 1024l311 311l1536 -1536l256 256l55 -55l-311 -311l-1536 1536l-256 -256zM-55 1280l311 311l1536 -1536l256 256l55 -55l-311 -311l-1536 1536l-256 -256zM-55 1536l55 55l55 -55l-55 -55 zM201 0l55 55l567 -567l-55 -55zM457 1536l55 55l1280 -1280l256 256l55 -55l-311 -311zM713 1536l55 55l1024 -1024l256 256l55 -55l-311 -311zM969 1536l55 55l768 -768l201 201l-512 512l55 55l567 -567l-311 -311zM1225 1536l55 55l567 -567l-55 -55zM1737 1536l55 55 l311 -311l-55 -55zM1993 -512l55 55l55 -55l-55 -55zM1993 1536l55 55l55 -55l-55 -55z" />
<glyph unicode="K" d="M-55 0l311 311l256 -256l201 201l-457 457l-256 -256l-55 55l311 311l567 -567l-311 -311l-256 256l-256 -256zM-55 -256l311 311l256 -256l457 457l-713 713l-256 -256l-55 55l823 823l55 -55l-512 -512l1153 -1153l-55 -55l-385 385l-768 -768l-55 55l256 256l-201 201 l-256 -256zM-55 256l311 311l311 -311l-55 -55l-256 256l-256 -256zM-55 -512l311 311l55 -55l-311 -311zM-55 1024l567 567l55 -55l-567 -567zM-55 1280l311 311l55 -55l-311 -311zM-55 1536l55 55l55 -55l-55 -55zM457 -512l567 567l311 -311l-311 -311l-55 55l256 256 l-201 201l-512 -512zM457 1024l567 567l55 -55l-512 -512l969 -969l512 512l55 -55l-567 -567zM713 -512l311 311l55 -55l-311 -311zM713 1024l567 567l256 -256l256 256l55 -55l-311 -311l-256 256l-457 -457l713 -713l512 512l55 -55l-567 -567zM969 1024l311 311 l256 -256l512 512l55 -55l-567 -567l-256 256l-201 -201l457 -457l512 512l55 -55l-567 -567zM1225 -512l823 823l55 -55l-823 -823zM1225 1024l55 55l256 -256l512 512l55 -55l-567 -567zM1481 -512l567 567l55 -55l-567 -567zM1481 1536l55 55l55 -55l-55 -55zM1737 -512 l311 311l55 -55l-311 -311zM1993 -512l55 55l55 -55l-55 -55z" />
<glyph unicode="L" horiz-adv-x="1024" d="M-55 0l256 256l-256 256l1079 1079l55 -55l-1024 -1024l256 -256l-311 -311zM-55 256l55 55l55 -55l-55 -55zM-55 -256l567 567l55 -55l-567 -567zM-55 -512l768 768l-256 256l567 567l55 -55l-512 -512l256 -256l-823 -823zM-55 768l823 823l55 -55l-823 -823zM-55 1024 l567 567l55 -55l-567 -567zM-55 1280l311 311l55 -55l-311 -311zM-55 1536l55 55l55 -55l-55 -55zM201 512l823 823l55 -55l-768 -768l129 -127l-55 -57zM201 -512l768 768l-256 256l311 311l55 -55l-256 -256l256 -256l-823 -823zM457 -512l567 567l55 -55l-567 -567z M713 -512l311 311l55 -55l-311 -311zM969 512l55 55l55 -55l-55 -55zM969 -512l55 55l55 -55l-55 -55z" />
<glyph unicode="M" d="M-55 0l256 256l-256 256l55 55l311 -311l-256 -256l201 -201l256 256l311 -311l-311 -311l-55 55l256 256l-201 201l-256 -256zM-55 256l55 55l55 -55l-55 -55zM-55 -256l55 55l256 -256l256 256l55 -55l-311 -311zM-55 -512l55 55l55 -55l-55 -55zM-55 768l311 311 l55 -55l-256 -256l457 -457l256 256l55 -55l-256 -256l457 -457l256 256l55 -55l-567 -567l-55 55l256 256l-457 457l-256 -256l-55 55l256 256zM-55 1024l311 311l311 -311l-256 -256l201 -201l256 256l256 -256l512 512l311 -311l-256 -256l201 -201l256 256l55 -55 l-311 -311l-311 311l256 256l-201 201l-768 -768l-55 55l256 256l-201 201l-256 -256l-311 311l256 256l-201 201l-256 -256zM-55 1280l311 311l512 -512l512 512l55 -55l-512 -512l201 -201l768 768l55 -55l-256 -256l512 -512l-311 -311l-55 55l256 256l-457 457 l-512 -512l-256 256l-256 -256l-55 55l256 256l-457 457l-256 -256zM-55 1536l55 55l55 -55l-55 -55zM457 1536l55 55l256 -256l256 256l55 -55l-311 -311zM713 1536l55 55l55 -55l-55 -55zM840 127l696 696l55 -55l-256 -256l457 -457l256 256l55 -55l-256 -256l256 -256 l-55 -55l-256 256l-512 -512l-55 55l512 512l-457 457l-383 -385zM969 0l311 311l311 -311l-567 -567l-55 55l512 512l-201 201l-256 -256zM969 1024l567 567l55 -55l-567 -567zM1481 -512l311 311l311 -311l-55 -55l-256 256l-256 -256zM1737 -512l55 55l55 -55l-55 -55z M1737 1280l311 311l55 -55l-256 -256l256 -256l-55 -55zM1993 0l55 55l55 -55l-55 -55zM1993 1280l55 55l55 -55l-55 -55z" />
<glyph unicode="N" d="M-55 0l768 768l-768 768l55 55l512 -512l201 201l-256 256l55 55l311 -311l-256 -256l457 -457l256 256l311 -311l-55 -55l-256 256l-256 -256l-256 256l-768 -768zM-55 -256l823 823l256 -256l256 256l256 -256l512 512l55 -55l-567 -567l-256 256l-256 -256l-256 256 l-713 -713l201 -201l256 256l311 -311l-55 -55l-256 256l-256 -256zM-55 256l512 512l-512 512l55 55l567 -567l-567 -567zM-55 512l256 256l-256 256l55 55l311 -311l-311 -311zM-55 -512l55 55l55 -55l-55 -55zM-55 768l55 55l55 -55l-55 -55zM201 -256l311 311l512 -512 l256 256l55 -55l-311 -311l-512 512l-256 -256zM201 1536l55 55l311 -311l-55 -55zM457 -512l55 55l55 -55l-55 -55zM584 129l57 55l383 -385l256 256l311 -311l-311 -311l-55 55l256 256l-201 201l-256 -256zM713 256l55 55l256 -256l256 256l256 -256l512 512l55 -55 l-512 -512l512 -512l-55 -55l-256 256l-256 -256l-55 55l256 256l-457 457l-256 -256zM713 1024l256 256l-256 256l55 55l311 -311l-256 -256l201 -201l256 256l440 -438l-55 -57l-385 385l-256 -256zM969 1024l256 256l-256 256l55 55l768 -768l256 256l55 -55l-311 -311 l-512 512l-256 -256zM1225 1536l55 55l512 -512l201 201l-256 256l55 55l311 -311l-311 -311zM1481 1536l55 55l311 -311l-55 -55zM1737 0l311 311l55 -55l-256 -256l256 -256l-55 -55zM1737 -512l55 55l55 -55l-55 -55zM1993 0l55 55l55 -55l-55 -55zM1993 1536l55 55 l55 -55l-55 -55z" />
<glyph unicode="O" horiz-adv-x="512" d="M-55 0l55 55l567 -567l-55 -55zM-55 256l55 55l567 -567l-55 -55zM-55 -256l55 55l311 -311l-55 -55zM-55 512l567 567l55 -55l-512 -512l512 -512l-55 -55zM-55 -512l55 55l55 -55l-55 -55zM-55 768l567 567l55 -55l-567 -567zM-55 1024l567 567l55 -55l-567 -567z M-55 1280l311 311l55 -55l-311 -311zM-55 1536l55 55l55 -55l-55 -55zM201 512l311 311l55 -55l-256 -256l256 -256l-55 -55zM457 512l55 55l55 -55l-55 -55z" />
<glyph unicode="P" d="M-55 0l311 311l823 -823l-55 -55l-768 768l-256 -256zM-55 256l311 311l1079 -1079l-55 -55l-1024 1024l-256 -256zM-55 -256l311 311l567 -567l-55 -55l-512 512l-256 -256zM-55 512l311 311l1335 -1335l-55 -55l-1280 1280l-256 -256zM-55 -512l311 311l311 -311 l-55 -55l-256 256l-256 -256zM-55 768l823 823l55 -55l-512 -512l1536 -1536l-55 -55l-1536 1536l-256 -256zM-55 1024l567 567l55 -55l-567 -567zM-55 1280l311 311l55 -55l-311 -311zM-55 1536l55 55l55 -55l-55 -55zM201 -512l55 55l55 -55l-55 -55zM457 1024l567 567 l55 -55l-512 -512l1536 -1536l-55 -55zM713 1024l567 567l55 -55l-512 -512l1280 -1280l-55 -55zM969 1024l567 567l55 -55l-512 -512l1024 -1024l-55 -55zM1225 1024l567 567l311 -311l-55 -55l-256 256l-457 -457l768 -768l-55 -55zM1481 1024l311 311l311 -311l-55 -55 l-256 256l-256 -256zM1608 897l184 182l311 -311l-55 -55l-256 256l-127 -129zM1737 768l55 55l311 -311l-55 -55zM1993 1536l55 55l55 -55l-55 -55z" />
<glyph unicode="Q" d="M-55 0l256 256l-256 256l55 55l311 -311l-256 -256l512 -512l-55 -55zM-55 256l55 55l55 -55l-55 -55zM-55 -256l55 55l311 -311l-55 -55zM-55 -512l55 55l55 -55l-55 -55zM-55 768l256 256l-256 256l55 55l311 -311l-256 -256l512 -512l-256 -256l512 -512l-55 -55 l-567 567l256 256zM-55 1024l55 55l55 -55l-55 -55zM-55 1536l55 55l567 -567l-256 -256l1280 -1280l-55 -55l-768 768l-201 -201l512 -512l-55 -55l-567 567l256 256l-512 512l256 256zM201 1536l55 55l567 -567l-256 -256l713 -713l201 201l-256 256l512 512l-512 512 l55 55l567 -567l-256 -256l512 -512l-256 -256l256 -256l-55 -55l-311 311l256 256l-457 457l-201 -201l256 -256l-311 -311l-823 823l256 256zM457 1536l55 55l567 -567l-256 -256l201 -201l457 457l-512 512l55 55l567 -567l-512 -512l256 -256l-55 -55l-567 567l256 256z M713 0l55 55l567 -567l-55 -55zM713 1536l55 55l567 -567l-311 -311l-55 55l256 256zM1352 -129l57 57l438 -440l-55 -55zM1481 0l256 256l-256 256l55 55l311 -311l-256 -256l512 -512l-55 -55zM1481 1536l55 55l567 -567l-256 -256l256 -256l-55 -55l-311 311l256 256z M1737 1536l55 55l311 -311l-55 -55zM1993 0l55 55l55 -55l-55 -55zM1993 768l55 55l55 -55l-55 -55zM1993 1536l55 55l55 -55l-55 -55z" />
<glyph unicode="R" horiz-adv-x="1024" d="M-55 0l1024 1024l-512 512l55 55l567 -567l-1079 -1079zM-55 256l768 768l-512 512l55 55l567 -567l-823 -823zM-55 -256l567 567l567 -567l-55 -55l-512 512l-512 -512zM-55 512l512 512l-512 512l55 55l567 -567l-567 -567zM-55 -512l567 567l567 -567l-55 -55 l-512 512l-512 -512zM-55 768l256 256l-256 256l55 55l311 -311l-311 -311zM-55 1024l55 55l55 -55l-55 -55zM201 -512l311 311l311 -311l-55 -55l-256 256l-256 -256zM457 -512l55 55l55 -55l-55 -55zM584 385l440 438l55 -55l-438 -440zM713 256l311 311l55 -55l-256 -256 l256 -256l-55 -55zM713 1536l55 55l311 -311l-55 -55zM969 256l55 55l55 -55l-55 -55zM969 1536l55 55l55 -55l-55 -55z" />
<glyph unicode="S" horiz-adv-x="1024" d="M-55 0l55 55l567 -567l-55 -55zM-55 256l55 55l823 -823l-55 -55zM-55 -256l55 55l311 -311l-55 -55zM-55 512l55 55l512 -512l457 457l-512 512l55 55l567 -567l-512 -512l512 -512l-55 -55zM-55 -512l55 55l55 -55l-55 -55zM-55 768l55 55l512 -512l201 201l-512 512 l311 311l567 -567l-55 -55l-512 512l-201 -201l512 -512l-311 -311zM-55 1024l567 567l567 -567l-55 -55l-512 512l-457 -457l512 -512l-55 -55zM-55 1280l311 311l55 -55l-311 -311zM-55 1536l55 55l55 -55l-55 -55zM713 0l311 311l55 -55l-256 -256l256 -256l-55 -55z M713 1536l55 55l311 -311l-55 -55zM969 0l55 55l55 -55l-55 -55zM969 1536l55 55l55 -55l-55 -55z" />
<glyph unicode="T" horiz-adv-x="1024" d="M-55 0l256 256l-256 256l55 55l311 -311l-311 -311zM-55 -256l512 512l-512 512l55 55l567 -567l-567 -567zM-55 256l55 55l55 -55l-55 -55zM-55 -512l1079 1079l55 -55l-1079 -1079zM-55 1024l55 55l512 -512l201 201l-768 768l55 55l823 -823l-311 -311zM-55 1280 l55 55l567 -567l-55 -55zM201 -512l823 823l55 -55l-823 -823zM201 1536l55 55l823 -823l-438 -440l-57 57l385 383zM457 -512l567 567l55 -55l-567 -567zM457 1536l55 55l567 -567l-55 -55zM713 -512l311 311l55 -55l-311 -311zM713 1536l55 55l311 -311l-55 -55zM969 -512 l55 55l55 -55l-55 -55zM969 1536l55 55l55 -55l-55 -55z" />
<glyph unicode="U" horiz-adv-x="512" d="M-55 0l567 567l55 -55l-512 -512l512 -512l-55 -55zM-55 256l567 567l55 -55l-567 -567zM-55 -256l55 55l311 -311l-55 -55zM-55 512l512 512l-512 512l55 55l567 -567l-567 -567zM-55 -512l55 55l55 -55l-55 -55zM-55 768l127 129l-127 127l55 55l184 -182l-184 -184z M-55 1280l55 55l311 -311l-55 -55zM201 0l311 311l55 -55l-311 -311zM201 1536l55 55l311 -311l-55 -55zM328 -129l184 184l55 -55l-127 -129l127 -127l-55 -55zM457 1536l55 55l55 -55l-55 -55z" />
<glyph unicode="V" d="M-55 0l256 256l-256 256l55 55l311 -311l-311 -311zM-55 -256l512 512l-512 512l55 55l567 -567l-567 -567zM-55 256l55 55l55 -55l-55 -55zM-55 -512l768 768l-768 768l55 55l256 -256l457 457l-256 256l55 55l512 -512l201 201l-256 256l55 55l311 -311l-311 -311 l-256 256l-457 -457l768 -768l-55 -55l-256 256l-768 -768zM-55 1280l55 55l256 -256l201 201l-256 256l55 55l311 -311l-311 -311zM-55 1536l55 55l311 -311l-55 -55zM201 -512l567 567l184 -184l-55 -55l-129 129l-512 -512zM457 -512l311 311l311 -311l-55 -55l-256 256 l-256 -256zM457 768l311 311l256 -256l457 457l-256 256l55 55l311 -311l-567 -567l-256 256l-201 -201l768 -768l-256 -256l256 -256l-55 -55l-311 311l256 256zM713 -512l55 55l55 -55l-55 -55zM713 768l55 55l256 -256l713 713l-256 256l55 55l567 -567l-55 -55l-256 256 l-713 -713l1024 -1024l-55 -55zM713 1536l55 55l311 -311l-55 -55zM1225 -256l55 55l311 -311l-55 -55zM1225 512l567 567l311 -311l-55 -55l-256 256l-457 -457l768 -768l-55 -55zM1352 -129l57 57l438 -440l-55 -55zM1481 512l311 311l311 -311l-55 -55l-256 256 l-201 -201l512 -512l-55 -55zM1737 512l55 55l311 -311l-55 -55zM1737 1536l55 55l311 -311l-55 -55zM1993 1536l55 55l55 -55l-55 -55z" />
<glyph unicode="W" d="M-55 0l512 512l-512 512l55 55l567 -567l-512 -512l457 -457l256 256l256 -256l256 256l55 -55l-311 -311l-256 256l-256 -256zM-55 256l256 256l-256 256l55 55l311 -311l-311 -311zM-55 -256l55 55l311 -311l-55 -55zM-55 512l55 55l55 -55l-55 -55zM-55 -512l55 55 l55 -55l-55 -55zM-55 1280l55 55l1079 -1079l-55 -55l-256 256l-457 -457l201 -201l256 256l256 -256l256 256l311 -311l-311 -311l-55 55l256 256l-201 201l-256 -256l-256 256l-256 -256l-311 311l512 512zM-55 1536l55 55l1536 -1536l201 201l-512 512l823 823l55 -55 l-768 -768l457 -457l256 256l55 -55l-567 -567l-256 256l-256 -256l-256 256l-256 -256l-55 55l311 311l256 -256l201 201zM201 1536l55 55l768 -768l768 768l55 -55l-768 -768l512 -512l-55 -55zM457 1536l55 55l512 -512l512 512l55 -55l-567 -567zM713 -512l55 55l55 -55 l-55 -55zM713 1536l55 55l256 -256l256 256l55 -55l-311 -311zM969 1536l55 55l55 -55l-55 -55zM1481 -512l567 567l55 -55l-567 -567zM1481 768l567 567l55 -55l-512 -512l201 -201l256 256l55 -55l-311 -311zM1608 -129l440 440l55 -55l-438 -440zM1737 -512l311 311 l55 -55l-311 -311zM1737 768l311 311l55 -55l-311 -311zM1993 -512l55 55l55 -55l-55 -55z" />
<glyph unicode="X" d="M-55 0l311 311l55 -55l-256 -256l256 -256l-55 -55zM-55 -256l55 55l256 -256l201 201l-256 256l256 256l-201 201l-256 -256l-55 55l256 256l-256 256l311 311l256 -256l256 256l55 -55l-311 -311l-256 256l-201 -201l713 -713l201 201l-256 256l311 311l256 -256 l201 201l-713 713l-256 -256l-55 55l311 311l256 -256l256 256l55 -55l-256 -256l512 -512l-311 -311l-256 256l-201 -201l256 -256l-311 -311l-256 256l-201 -201l256 -256l-311 -311zM-55 512l55 55l55 -55l-55 -55zM-55 -512l55 55l55 -55l-55 -55zM-55 1024l256 256 l-256 256l55 55l256 -256l256 256l55 -55l-256 -256l201 -201l256 256l567 -567l-55 -55l-256 256l-457 -457l256 -256l-55 -55l-567 567l55 55l256 -256l457 457l-201 201l-256 -256l-256 256l-256 -256zM-55 1280l55 55l55 -55l-55 -55zM201 1536l55 55l55 -55l-55 -55z M457 0l55 55l256 -256l457 457l-256 256l55 55l256 -256l256 256l55 -55l-256 -256l256 -256l-256 -256l201 -201l457 457l-256 256l55 55l311 -311l-567 -567l-311 311l256 256l-201 201l-457 -457l256 -256l-55 -55l-256 256l-256 -256l-55 55l256 256zM713 -512l55 55 l55 -55l-55 -55zM969 -256l311 311l55 -55l-256 -256l256 -256l-55 -55zM973 1536l51 51l51 -51l-51 -51zM1225 1280l311 311l311 -311l-55 -55l-256 256l-201 -201l457 -457l256 256l55 -55l-256 -256l256 -256l-55 -55zM1481 -256l256 256l-256 256l256 256l-129 127 l57 57l438 -440l-55 -55l-256 256l-201 -201l256 -256l-311 -311zM1481 1280l55 55l256 -256l201 201l-256 256l55 55l311 -311l-311 -311zM1737 -512l311 311l55 -55l-311 -311zM1993 -512l55 55l55 -55l-55 -55zM1993 768l55 55l55 -55l-55 -55zM1993 1536l55 55l55 -55 l-55 -55z" />
<glyph unicode="Y" horiz-adv-x="512" d="M-55 0l256 256l-256 256l55 55l311 -311l-311 -311zM-55 256l55 55l55 -55l-55 -55zM-55 -256l440 440l55 -55l-440 -440zM-55 -512l567 567l55 -55l-567 -567zM-55 768l55 55l567 -567l-55 -55zM-55 1024l567 567l55 -55l-567 -567zM-55 1280l311 311l55 -55l-311 -311z M-55 1536l55 55l55 -55l-55 -55zM72 897l440 438l55 -55l-438 -440zM201 -512l311 311l55 -55l-311 -311zM201 768l311 311l55 -55l-256 -256l256 -256l-55 -55zM457 -512l55 55l55 -55l-55 -55zM457 768l55 55l55 -55l-55 -55z" />
<glyph unicode="Z" d="M-55 0l55 55l55 -55l-55 -55zM-55 -256l256 256l-256 256l55 55l311 -311l-311 -311zM-55 -512l512 512l-512 512l55 55l256 -256l713 713l-256 256l55 55l311 -311l-768 -768l256 -256l-567 -567zM-55 768l256 256l-256 256l311 311l55 -55l-256 -256l256 -256 l-256 -256l201 -201l457 457l-256 256l311 311l567 -567l-768 -768l256 -256l-567 -567l-55 55l512 512l-256 256l768 768l-457 457l-201 -201l256 -256l-567 -567zM-55 1024l55 55l55 -55l-55 -55zM-55 1536l55 55l55 -55l-55 -55zM201 768l256 256l-256 256l311 311 l55 -55l-256 -256l256 -256l-311 -311zM457 -512l512 512l-256 256l768 768l-512 512l55 55l256 -256l256 256l55 -55l-256 -256l256 -256l-768 -768l256 -256l-256 -256l256 -256l-55 -55l-256 256l-256 -256zM713 -512l55 55l55 -55l-55 -55zM969 256l768 768l-256 256 l311 311l311 -311l-55 -55l-256 256l-201 -201l256 -256l-823 -823zM969 -256l256 256l-129 127l57 57l182 -184l-256 -256l201 -201l457 457l-256 256l311 311l311 -311l-55 -55l-256 256l-201 -201l256 -256l-567 -567zM1225 -256l256 256l-256 256l768 768l-256 256 l55 55l311 -311l-256 -256l256 -256l-55 -55l-256 256l-457 -457l256 -256l-311 -311zM1225 1536l55 55l55 -55l-55 -55zM1481 -512l512 512l-256 256l55 55l311 -311l-256 -256l256 -256l-55 -55l-256 256l-256 -256zM1737 -512l55 55l55 -55l-55 -55zM1993 -256l55 55 l55 -55l-55 -55zM1993 768l55 55l55 -55l-55 -55zM1997 1536l51 51l51 -51l-51 -51z" />
<glyph unicode="[" horiz-adv-x="512" d="M-55 0l512 512l-256 256l55 55l311 -311l-567 -567zM-55 256l256 256l-256 256l55 55l311 -311l-311 -311zM-55 -256l567 567l55 -55l-512 -512l256 -256l-55 -55zM-55 512l55 55l55 -55l-55 -55zM-55 -512l55 55l55 -55l-55 -55zM-55 1024l567 567l55 -55l-567 -567z M-55 1280l311 311l55 -55l-311 -311zM-55 1536l55 55l55 -55l-55 -55zM72 897l184 182l311 -311l-55 -55l-256 256l-127 -129zM201 -256l55 55l311 -311l-55 -55zM328 -129l184 184l55 -55l-127 -129l127 -127l-55 -55zM328 1153l184 182l55 -55l-127 -127l127 -129l-55 -55 z" />
<glyph unicode="\" horiz-adv-x="1024" d="M-55 0l55 55l567 -567l-55 -55zM-55 256l55 55l823 -823l-55 -55zM-55 -256l55 55l311 -311l-55 -55zM-55 512l55 55l256 -256l457 457l-768 768l55 55l1079 -1079l-55 -55l-256 256l-457 -457l768 -768l-55 -55zM-55 -512l55 55l55 -55l-55 -55zM-55 768l55 55l256 -256 l201 201l-512 512l55 55l567 -567l-311 -311zM-55 1024l55 55l311 -311l-55 -55zM201 1536l55 55l823 -823l-55 -55zM457 256l311 311l311 -311l-55 -55l-256 256l-201 -201l512 -512l-55 -55zM457 1536l55 55l567 -567l-55 -55zM713 256l55 55l311 -311l-55 -55zM713 1536 l55 55l311 -311l-55 -55zM969 1536l55 55l55 -55l-55 -55z" />
<glyph unicode="]" horiz-adv-x="512" d="M-55 0l55 55l184 -184l-184 -182l-55 55l127 127zM-55 256l55 55l256 -256l129 129l55 -55l-184 -184zM-55 512l567 567l55 -55l-512 -512l256 -256l-55 -55zM-55 -512l567 567l55 -55l-567 -567zM-55 768l512 512l-256 256l55 55l311 -311l-567 -567zM-55 1024l127 129 l-127 127l55 55l184 -182l-184 -184zM-55 1536l55 55l311 -311l-55 -55zM201 512l311 311l55 -55l-256 -256l256 -256l-55 -55zM201 -512l311 311l55 -55l-311 -311zM457 512l55 55l55 -55l-55 -55zM457 -512l55 55l55 -55l-55 -55zM457 1536l55 55l55 -55l-55 -55z" />
<glyph unicode="^" d="M-55 0l55 55l256 -256l768 768l1079 -1079l-55 -55l-1024 1024l-1024 -1024l-55 55l256 256zM-55 256l55 55l256 -256l768 768l1079 -1079l-55 -55l-1024 1024l-768 -768zM-55 -256l55 55l55 -55l-55 -55zM-55 512l256 256l-256 256l55 55l256 -256l768 768l823 -823 l-55 -55l-768 768l-1024 -1024zM-55 768l55 55l55 -55l-55 -55zM-55 1280l311 311l55 -55l-256 -256l201 -201l512 512l55 -55l-567 -567zM-55 1536l55 55l55 -55l-55 -55zM72 385l952 950l768 -768l256 256l55 -55l-311 -311l-768 768l-895 -897zM201 256l823 823l768 -768 l256 256l55 -55l-256 -256l256 -256l-55 -55l-1024 1024l-768 -768zM201 -512l823 823l823 -823l-55 -55l-768 768l-768 -768zM201 1280l311 311l55 -55l-311 -311zM457 -512l567 567l567 -567l-55 -55l-512 512l-512 -512zM713 -512l311 311l311 -311l-55 -55l-256 256 l-256 -256zM969 -512l55 55l55 -55l-55 -55zM1225 1536l55 55l696 -694l-55 -57zM1481 1536l55 55l567 -567l-55 -55zM1737 1536l55 55l311 -311l-55 -55zM1993 256l55 55l55 -55l-55 -55zM1993 1536l55 55l55 -55l-55 -55z" />
<glyph unicode="_" horiz-adv-x="512" d="M-55 12l55 56l129 -127l72 71l-256 256l567 568l55 -56l-512 -512l256 -256l-182 -184zM-55 -244l55 56l55 -56l-55 -55zM-55 -500l512 512l-256 256l311 312l55 -56l-256 -256l256 -256l-567 -567zM-55 524l512 512l-256 256l311 312l55 -56l-256 -256l256 -256 l-567 -567zM-55 780l55 56l55 -56l-55 -55zM-55 1036l55 56l129 -127l72 71l-256 256l311 312l55 -56l-256 -256l256 -256l-182 -184zM-55 1548l55 56l55 -56l-55 -55zM201 -500l311 312l55 -56l-311 -311zM457 268l55 56l55 -56l-55 -55zM457 -500l55 56l55 -56l-55 -55z M457 1292l55 56l55 -56l-55 -55z" />
<glyph unicode="`" horiz-adv-x="512" d="M-55 0l55 55l567 -567l-55 -55zM-55 256l55 55l567 -567l-55 -55zM-55 -256l55 55l311 -311l-55 -55zM-55 512l55 55l567 -567l-55 -55zM-55 -512l55 55l55 -55l-55 -55zM-55 768l55 55l567 -567l-55 -55zM-55 1024l55 55l256 -256l256 256l55 -55l-311 -311zM-55 1280 l55 55l256 -256l256 256l55 -55l-311 -311zM-55 1536l55 55l256 -256l256 256l55 -55l-311 -311zM201 1536l55 55l55 -55l-55 -55zM328 641l184 182l55 -55l-182 -184zM457 512l55 55l55 -55l-55 -55z" />
<glyph unicode="a" horiz-adv-x="512" d="M-55 0l55 55l567 -567l-55 -55zM-55 256l55 55l567 -567l-55 -55zM-55 -256l55 55l311 -311l-55 -55zM-55 512l55 55l567 -567l-55 -55zM-55 -512l55 55l55 -55l-55 -55zM-55 768l55 55l567 -567l-55 -55zM-55 1024l55 55l567 -567l-55 -55zM-55 1280l55 55l567 -567 l-55 -55zM-55 1536l55 55l567 -567l-55 -55zM201 1536l55 55l311 -311l-55 -55zM457 1536l55 55l55 -55l-55 -55z" />
<glyph unicode="b" d="M-55 0l567 567l1024 -1024l457 457l-768 768l55 55l823 -823l-567 -567l-1024 1024l-512 -512zM-55 256l512 512l-512 512l55 55l1536 -1536l201 201l-641 641l57 55l694 -696l-311 -311l-1024 1024l-512 -512zM-55 -256l567 567l823 -823l-55 -55l-768 768l-512 -512z M-55 512l256 256l-256 256l55 55l311 -311l-311 -311zM-55 -512l567 567l567 -567l-55 -55l-512 512l-512 -512zM-55 768l55 55l55 -55l-55 -55zM-55 1536l55 55l768 -768l768 768l55 -55l-768 -768l768 -768l-55 -55zM201 -512l311 311l311 -311l-55 -55l-256 256 l-256 -256zM201 1536l55 55l512 -512l512 512l55 -55l-567 -567zM457 -512l55 55l55 -55l-55 -55zM457 1536l55 55l256 -256l256 256l55 -55l-311 -311zM713 1536l55 55l55 -55l-55 -55zM969 768l823 823l55 -55l-512 -512l768 -768l-55 -55l-768 768l-256 -256zM1481 1024 l567 567l55 -55l-512 -512l512 -512l-55 -55zM1737 -512l311 311l55 -55l-311 -311zM1737 1024l311 311l55 -55l-256 -256l256 -256l-55 -55zM1993 -512l55 55l55 -55l-55 -55zM1993 1024l55 55l55 -55l-55 -55z" />
<glyph unicode="c" d="M-55 0l55 55l567 -567l-55 -55zM-55 256l440 440l55 -55l-385 -385l713 -713l256 256l55 -55l-311 -311zM-55 -256l55 55l311 -311l-55 -55zM-55 512l256 256l-256 256l55 55l311 -311l-311 -311zM-55 -512l55 55l55 -55l-55 -55zM-55 768l55 55l55 -55l-55 -55z M-55 1280l55 55l567 -567l-55 -55zM-55 1536l55 55l823 -823l-512 -512l457 -457l256 256l311 -311l-311 -311l-55 55l256 256l-201 201l-256 -256l-567 567l512 512zM201 1536l55 55l256 -256l256 256l55 -55l-256 -256l457 -457l256 256l311 -311l-256 -256l457 -457 l256 256l55 -55l-311 -311l-567 567l256 256l-201 201l-713 -713l201 -201l256 256l567 -567l-311 -311l-55 55l256 256l-457 457l-256 -256l-311 311l512 512zM457 1536l55 55l55 -55l-55 -55zM713 256l567 567l55 -55l-256 -256l713 -713l256 256l55 -55l-567 -567l-55 55 l256 256l-713 713l-256 -256zM713 1280l311 311l55 -55l-256 -256l201 -201l256 256l567 -567l-256 -256l201 -201l256 256l55 -55l-311 -311l-311 311l256 256l-457 457l-256 -256zM969 1280l311 311l823 -823l-311 -311l-55 55l256 256l-713 713l-256 -256zM1481 1536 l55 55l567 -567l-55 -55zM1737 -512l311 311l55 -55l-311 -311zM1737 1536l55 55l311 -311l-55 -55zM1993 -512l55 55l55 -55l-55 -55zM1993 1536l55 55l55 -55l-55 -55z" />
<glyph unicode="d" d="M-55 0l55 55l311 -311l-311 -311l-55 55l256 256zM-55 256l1335 1335l55 -55l-1280 -1280l457 -457l256 256l440 -440l-55 -55l-385 385l-512 -512l-55 55l256 256zM-55 -256l55 55l55 -55l-55 -55zM-55 512l1079 1079l55 -55l-1079 -1079zM-55 768l823 823l55 -55 l-823 -823zM-55 1024l567 567l55 -55l-567 -567zM-55 1280l311 311l55 -55l-311 -311zM-55 1536l55 55l55 -55l-55 -55zM201 256l1335 1335l55 -55l-1280 -1280l201 -201l256 256l512 -512l256 256l311 -311l-311 -311l-55 55l256 256l-201 201l-256 -256l-512 512 l-256 -256zM457 256l1335 1335l55 -55l-1335 -1335zM457 -512l311 311l311 -311l-55 -55l-256 256l-256 -256zM713 -512l55 55l55 -55l-55 -55zM840 385l57 55l383 -385l768 768l55 -55l-512 -512l512 -512l-311 -311l-55 55l256 256l-457 457l-256 -256zM969 512l1079 1079 l55 -55l-1024 -1024l201 -201l768 768l55 -55l-823 -823zM1225 512l823 823l55 -55l-823 -823zM1225 -512l311 311l55 -55l-311 -311zM1737 256l311 311l55 -55l-256 -256l256 -256l-55 -55zM1993 256l55 55l55 -55l-55 -55zM1993 -512l55 55l55 -55l-55 -55z" />
<glyph unicode="e" horiz-adv-x="512" d="M-55 0l55 55l55 -55l-55 -55zM-55 256l55 55l184 -182l-55 -57zM-55 -256l311 311l55 -55l-311 -311zM-55 -512l512 512l-512 512l55 55l567 -567l-567 -567zM-55 768l55 55l567 -567l-55 -55zM-55 1024l55 55l567 -567l-55 -55zM-55 1280l55 55l567 -567l-55 -55z M-55 1536l55 55l567 -567l-55 -55zM201 -512l311 311l55 -55l-311 -311zM201 1536l55 55l311 -311l-55 -55zM457 -512l55 55l55 -55l-55 -55zM457 1536l55 55l55 -55l-55 -55z" />
<glyph unicode="f" d="M-55 0l256 256l-256 256l55 55l311 -311l-311 -311zM-55 -256l512 512l-512 512l55 55l512 -512l969 969l-256 256l55 55l311 -311l-1536 -1536l256 -256l-55 -55zM-55 256l55 55l55 -55l-55 -55zM-55 -512l55 55l55 -55l-55 -55zM-55 1024l55 55l512 -512l713 713 l-256 256l55 55l311 -311l-823 -823zM-55 1280l55 55l512 -512l457 457l-256 256l55 55l311 -311l-567 -567zM-55 1536l55 55l512 -512l201 201l-256 256l55 55l311 -311l-311 -311zM201 -256l1536 1536l-256 256l55 55l311 -311l-1536 -1536l256 -256l-55 -55zM201 1536 l55 55l311 -311l-55 -55zM457 -256l1536 1536l-256 256l55 55l311 -311l-512 -512l512 -512l-55 -55l-512 512l-969 -969l256 -256l-55 -55zM713 -256l823 823l567 -567l-55 -55l-512 512l-713 -713l256 -256l-55 -55zM969 -256l567 567l567 -567l-55 -55l-512 512 l-457 -457l256 -256l-55 -55zM1225 -256l311 311l567 -567l-55 -55l-512 512l-201 -201l256 -256l-55 -55zM1481 -256l55 55l311 -311l-55 -55zM1737 768l311 311l55 -55l-256 -256l256 -256l-55 -55zM1993 768l55 55l55 -55l-55 -55zM1993 1536l55 55l55 -55l-55 -55z" />
<glyph unicode="g" d="M-55 0l55 55l567 -567l-55 -55zM-55 256l823 823l823 -823l-311 -311l-512 512l-201 -201l713 -713l713 713l-768 768l55 55l823 -823l-823 -823l-823 823l311 311l512 -512l201 201l-713 713l-713 -713l768 -768l-55 -55zM-55 -256l55 55l311 -311l-55 -55zM-55 512 l1079 1079l55 -55l-1079 -1079zM-55 -512l55 55l55 -55l-55 -55zM-55 768l823 823l55 -55l-823 -823zM-55 1024l567 567l55 -55l-567 -567zM-55 1280l311 311l55 -55l-311 -311zM-55 1536l55 55l55 -55l-55 -55zM201 256l567 567l567 -567l-55 -55l-512 512l-457 -457 l768 -768l-55 -55zM713 256l55 55l512 -512l457 457l-768 768l311 311l823 -823l-55 -55l-768 768l-201 -201l768 -768l-567 -567zM840 1151l440 440l823 -823l-55 -55l-768 768l-383 -385zM1481 -512l567 567l55 -55l-567 -567zM1481 1536l55 55l567 -567l-55 -55z M1737 -512l311 311l55 -55l-311 -311zM1737 1536l55 55l311 -311l-55 -55zM1993 -512l55 55l55 -55l-55 -55zM1993 1536l55 55l55 -55l-55 -55z" />
<glyph unicode="h" horiz-adv-x="1024" d="M-55 0l55 55l256 -256l201 201l-512 512l55 55l567 -567l-311 -311zM-55 -256l55 55l256 -256l457 457l-385 385l57 55l694 -696l-55 -55l-256 256l-512 -512zM-55 256l55 55l311 -311l-55 -55zM-55 -512l55 55l55 -55l-55 -55zM-55 768l55 55l256 -256l457 457l-512 512 l55 55l567 -567l-567 -567zM-55 1024l55 55l256 -256l201 201l-512 512l55 55l567 -567l-311 -311zM-55 1280l55 55l311 -311l-55 -55zM457 512l311 311l311 -311l-55 -55l-256 256l-201 -201l512 -512l-55 -55zM457 -512l311 311l311 -311l-55 -55l-256 256l-256 -256z M457 1536l55 55l567 -567l-55 -55zM713 512l55 55l311 -311l-55 -55zM713 -512l55 55l55 -55l-55 -55zM713 1536l55 55l311 -311l-55 -55zM840 897l57 55l182 -184l-55 -55zM969 1536l55 55l55 -55l-55 -55z" />
<glyph unicode="i" horiz-adv-x="512" d="M-55 0l55 55l567 -567l-55 -55zM-55 256l55 55l567 -567l-55 -55zM-55 -256l55 55l311 -311l-55 -55zM-55 512l55 55l567 -567l-55 -55zM-55 -512l55 55l55 -55l-55 -55zM-55 768l55 55l567 -567l-55 -55zM-55 1024l567 567l55 -55l-512 -512l512 -512l-55 -55zM-55 1280 l311 311l55 -55l-311 -311zM-55 1536l55 55l55 -55l-55 -55zM201 1024l184 184l182 -184l-55 -55l-127 127l-74 -72l256 -256l-55 -55zM457 1280l55 55l55 -55l-55 -55z" />
<glyph unicode="j" d="M-55 0l1280 1280l-256 256l55 55l311 -311l-1335 -1335zM-55 256l1024 1024l-256 256l55 55l311 -311l-1079 -1079zM-55 -256l1536 1536l-256 256l55 55l311 -311l-1536 -1536l256 -256l-55 -55zM-55 512l768 768l-201 201l-512 -512l-55 55l567 567l311 -311l-823 -823z M-55 -512l55 55l55 -55l-55 -55zM-55 768l567 567l55 -55l-567 -567zM-55 1280l311 311l55 -55l-311 -311zM-55 1536l55 55l55 -55l-55 -55zM201 -256l1536 1536l-256 256l55 55l311 -311l-1536 -1536l256 -256l-55 -55zM457 -256l1536 1536l-256 256l55 55l311 -311 l-1536 -1536l256 -256l-55 -55zM713 -256l1335 1335l55 -55l-1280 -1280l256 -256l-55 -55zM969 -256l1079 1079l55 -55l-1024 -1024l256 -256l-55 -55zM1225 -256l823 823l55 -55l-768 -768l201 -201l512 512l55 -55l-567 -567zM1481 -256l567 567l55 -55l-567 -567z M1737 -512l311 311l55 -55l-311 -311zM1993 -512l55 55l55 -55l-55 -55zM1993 1536l55 55l55 -55l-55 -55z" />
<glyph unicode="k" d="M-55 0l55 55l567 -567l-55 -55zM-55 256l55 55l823 -823l-55 -55zM-55 -256l55 55l311 -311l-55 -55zM-55 512l55 55l256 -256l201 201l-512 512l55 55l567 -567l-311 -311zM-55 -512l55 55l55 -55l-55 -55zM-55 768l55 55l311 -311l-55 -55zM-55 1280l55 55l256 -256 l201 201l-256 256l55 55l311 -311l-256 -256l457 -457l713 713l-256 256l55 55l823 -823l-55 -55l-512 512l-1151 -1153l-57 55l385 385zM-55 1536l55 55l311 -311l-55 -55zM457 0l1079 1079l567 -567l-55 -55l-512 512l-969 -969l512 -512l-55 -55zM457 1024l256 256 l-256 256l55 55l311 -311l-256 -256l201 -201l457 457l-256 256l55 55l311 -311l-567 -567zM713 0l823 823l567 -567l-256 -256l256 -256l-55 -55l-311 311l256 256l-457 457l-713 -713l512 -512l-55 -55zM713 1024l256 256l-256 256l55 55l311 -311l-311 -311zM969 0 l567 567l311 -311l-256 -256l512 -512l-55 -55l-567 567l256 256l-201 201l-457 -457l512 -512l-55 -55zM1225 0l311 311l55 -55l-256 -256l512 -512l-55 -55zM1481 1536l55 55l567 -567l-55 -55zM1737 1536l55 55l311 -311l-55 -55zM1993 0l55 55l55 -55l-55 -55z M1993 1536l55 55l55 -55l-55 -55z" />
<glyph unicode="l" horiz-adv-x="1024" d="M-55 0l55 55l567 -567l-55 -55zM-55 256l55 55l823 -823l-55 -55zM-55 -256l55 55l311 -311l-55 -55zM-55 512l256 256l-256 256l55 55l311 -311l-256 -256l1024 -1024l-55 -55zM-55 -512l55 55l55 -55l-55 -55zM-55 768l55 55l55 -55l-55 -55zM-55 1280l55 55l567 -567 l-182 -184l-57 57l129 127zM-55 1536l55 55l823 -823l-256 -256l512 -512l-55 -55l-567 567l256 256zM201 512l55 55l823 -823l-55 -55zM201 1536l55 55l823 -823l-256 -256l256 -256l-55 -55l-311 311l256 256zM457 1536l55 55l567 -567l-55 -55zM713 1536l55 55l311 -311 l-55 -55zM969 512l55 55l55 -55l-55 -55zM969 1536l55 55l55 -55l-55 -55z" />
<glyph unicode="m" d="M-55 0l55 55l311 -311l-311 -311l-55 55l256 256zM-55 256l55 55l512 -512l457 457l-385 385l57 55l694 -696l-55 -55l-256 256l-457 -457l256 -256l-55 -55l-256 256l-256 -256l-55 55l256 256zM-55 -256l55 55l55 -55l-55 -55zM-55 512l55 55l512 -512l201 201 l-256 256l55 55l311 -311l-311 -311zM-55 768l55 55l256 -256l457 457l-256 256l55 55l256 -256l512 512l311 -311l-55 -55l-256 256l-457 -457l256 -256l-55 -55l-256 256l-457 -457l256 -256l-55 -55zM-55 1024l55 55l256 -256l201 201l-256 256l311 311l256 -256l256 256 l55 -55l-311 -311l-256 256l-201 -201l256 -256l-311 -311zM-55 1280l311 311l55 -55l-256 -256l256 -256l-55 -55zM-55 1536l55 55l55 -55l-55 -55zM457 -512l55 55l55 -55l-55 -55zM713 -256l311 311l256 -256l201 201l-768 768l55 55l256 -256l201 201l-256 256l311 311 l256 -256l201 201l-256 256l55 55l311 -311l-311 -311l-256 256l-201 -201l256 -256l-256 -256l512 -512l-311 -311l-256 256l-201 -201l256 -256l-55 -55zM713 1536l55 55l55 -55l-55 -55zM969 -256l55 55l256 -256l457 457l-512 512l256 256l-256 256l55 55l256 -256 l457 457l-256 256l55 55l311 -311l-512 -512l512 -512l-55 -55l-512 512l-201 -201l768 -768l-55 -55l-256 256l-512 -512zM1481 512l55 55l567 -567l-55 -55zM1481 -512l311 311l311 -311l-55 -55l-256 256l-256 -256zM1737 -512l55 55l55 -55l-55 -55zM1737 768l311 311 l55 -55l-256 -256l256 -256l-55 -55zM1993 768l55 55l55 -55l-55 -55zM1993 1536l55 55l55 -55l-55 -55z" />
<glyph unicode="n" d="M-55 0l311 311l256 -256l457 457l-256 256l311 311l55 -55l-256 -256l256 -256l-256 -256l768 -768l-55 -55l-768 768l-768 -768l-55 55l512 512l-201 201l-256 -256zM-55 256l311 311l256 -256l201 201l-256 256l440 440l55 -55l-385 -385l256 -256l-311 -311l-256 256 l-256 -256zM-55 -256l311 311l55 -55l-311 -311zM-55 512l768 768l-256 256l55 55l311 -311l-512 -512l256 -256l-55 -55l-256 256l-256 -256zM-55 768l512 512l-201 201l-256 -256l-55 55l311 311l311 -311l-567 -567zM-55 1024l311 311l55 -55l-311 -311zM-55 1536l55 55 l55 -55l-55 -55zM201 -512l567 567l567 -567l-55 -55l-512 512l-512 -512zM457 -512l311 311l311 -311l-55 -55l-256 256l-256 -256zM713 -512l55 55l55 -55l-55 -55zM713 1536l55 55l567 -567l-256 -256l256 -256l-256 -256l713 -713l201 201l-256 256l311 311l55 -55 l-256 -256l256 -256l-311 -311l-823 823l256 256l-256 256l256 256zM969 1536l55 55l512 -512l512 512l55 -55l-256 -256l256 -256l-55 -55l-256 256l-457 -457l256 -256l-311 -311l-55 55l256 256l-256 256l256 256zM1225 1536l55 55l256 -256l256 256l55 -55l-311 -311z M1352 129l385 383l-256 256l311 311l311 -311l-55 -55l-256 256l-201 -201l256 -256l-438 -440zM1481 0l512 512l-256 256l55 55l311 -311l-512 -512l256 -256l-55 -55zM1481 1536l55 55l55 -55l-55 -55zM1993 0l55 55l55 -55l-55 -55zM1993 -512l55 55l55 -55l-55 -55z M1993 1280l55 55l55 -55l-55 -55z" />
<glyph unicode="o" horiz-adv-x="512" d="M-55 0l512 512l-512 512l55 55l567 -567l-567 -567zM-55 256l256 256l-256 256l55 55l311 -311l-311 -311zM-55 -256l567 567l55 -55l-567 -567zM-55 512l55 55l55 -55l-55 -55zM-55 -512l567 567l55 -55l-567 -567zM-55 1280l55 55l567 -567l-55 -55zM-55 1536l55 55 l567 -567l-55 -55zM201 -512l311 311l55 -55l-311 -311zM201 1536l55 55l311 -311l-55 -55zM457 -512l55 55l55 -55l-55 -55zM457 1536l55 55l55 -55l-55 -55z" />
<glyph unicode="p" d="M-55 0l1280 1280l-256 256l55 55l311 -311l-1335 -1335zM-55 -256l1536 1536l-256 256l55 55l823 -823l-55 -55l-512 512l-1536 -1536zM-55 256l1024 1024l-256 256l55 55l311 -311l-1079 -1079zM-55 512l768 768l-256 256l55 55l311 -311l-823 -823zM-55 -512l1591 1591 l567 -567l-55 -55l-512 512l-1536 -1536zM-55 768l512 512l-256 256l55 55l311 -311l-567 -567zM-55 1024l256 256l-256 256l55 55l311 -311l-311 -311zM-55 1280l55 55l55 -55l-55 -55zM201 -512l1335 1335l567 -567l-55 -55l-512 512l-1280 -1280zM457 -512l1079 1079 l567 -567l-55 -55l-512 512l-1024 -1024zM713 -512l823 823l567 -567l-311 -311l-55 55l256 256l-457 457l-768 -768zM969 -512l311 311l55 -55l-311 -311zM1225 -512l256 256l-129 127l57 57l182 -184l-311 -311zM1481 0l55 55l311 -311l-311 -311l-55 55l256 256z M1481 1536l55 55l567 -567l-55 -55zM1737 1536l55 55l311 -311l-55 -55zM1993 -512l55 55l55 -55l-55 -55zM1993 1536l55 55l55 -55l-55 -55z" />
<glyph unicode="q" d="M-55 0l567 567l256 -256l201 201l-457 457l-512 -512l-55 55l567 567l512 -512l256 256l55 -55l-567 -567l-256 256l-512 -512zM-55 -256l567 567l256 -256l713 713l-201 201l-256 -256l-512 512l-512 -512l-55 55l567 567l256 -256l512 512l256 -256l256 256l55 -55 l-311 -311l-256 256l-457 -457l201 -201l256 256l311 -311l-823 -823l-256 256l-512 -512zM-55 256l567 567l311 -311l-55 -55l-256 256l-512 -512zM-55 -512l567 567l256 -256l1280 1280l55 -55l-768 -768l201 -201l512 512l55 -55l-567 -567l-256 256l-512 -512l-256 256 l-512 -512zM-55 1024l567 567l256 -256l256 256l55 -55l-311 -311l-256 256l-512 -512zM-55 1280l311 311l55 -55l-311 -311zM-55 1536l55 55l55 -55l-55 -55zM201 -512l311 311l256 -256l512 512l256 -256l512 512l55 -55l-567 -567l-256 256l-512 -512l-256 256l-256 -256 zM457 -512l55 55l55 -55l-55 -55zM713 1536l55 55l55 -55l-55 -55zM969 -512l311 311l256 -256l512 512l55 -55l-567 -567l-256 256l-256 -256zM969 1024l311 311l256 -256l512 512l55 -55l-567 -567l-256 256l-256 -256zM1225 -512l55 55l55 -55l-55 -55zM1481 256l567 567 l55 -55l-567 -567zM1481 1536l55 55l55 -55l-55 -55zM1608 895l440 440l55 -55l-438 -440zM1737 -512l311 311l55 -55l-311 -311zM1993 -512l55 55l55 -55l-55 -55z" />
<glyph unicode="r" horiz-adv-x="1024" d="M-55 0l55 55l55 -55l-55 -55zM-55 -256l256 256l-256 256l55 55l311 -311l-311 -311zM-55 -512l512 512l-512 512l55 55l567 -567l-567 -567zM-55 768l55 55l823 -823l-567 -567l-55 55l512 512zM-55 1024l55 55l1079 -1079l-567 -567l-55 55l512 512zM-55 1280l55 55 l512 -512l512 512l55 -55l-567 -567zM-55 1536l55 55l512 -512l512 512l55 -55l-567 -567zM201 1536l55 55l256 -256l256 256l55 -55l-311 -311zM457 1536l55 55l55 -55l-55 -55zM584 641l57 55l438 -440l-55 -55zM713 -512l311 311l55 -55l-311 -311zM713 768l311 311 l55 -55l-256 -256l256 -256l-55 -55zM969 -512l55 55l55 -55l-55 -55zM969 768l55 55l55 -55l-55 -55z" />
<glyph unicode="s" horiz-adv-x="1024" d="M-55 0l567 567l55 -55l-512 -512l457 -457l512 512l55 -55l-567 -567zM-55 256l567 567l311 -311l-512 -512l201 -201l512 512l55 -55l-567 -567l-311 311l512 512l-201 201l-512 -512zM-55 -256l55 55l311 -311l-55 -55zM-55 512l1079 1079l55 -55l-512 -512l512 -512 l-567 -567l-55 55l512 512l-457 457l-512 -512zM-55 -512l55 55l55 -55l-55 -55zM-55 768l823 823l55 -55l-823 -823zM-55 1024l567 567l55 -55l-567 -567zM-55 1280l311 311l55 -55l-311 -311zM-55 1536l55 55l55 -55l-55 -55zM713 -512l311 311l55 -55l-311 -311z M713 1024l311 311l55 -55l-256 -256l256 -256l-55 -55zM969 -512l55 55l55 -55l-55 -55zM969 1024l55 55l55 -55l-55 -55z" />
<glyph unicode="t" horiz-adv-x="1024" d="M-55 0l567 567l311 -311l-823 -823l-55 55l768 768l-201 201l-512 -512zM-55 256l512 512l-512 512l55 55l567 -567l-567 -567zM-55 -256l567 567l55 -55l-567 -567zM-55 512l256 256l-256 256l55 55l311 -311l-311 -311zM-55 768l55 55l55 -55l-55 -55zM-55 1536l55 55 l1079 -1079l-55 -55zM201 -512l768 768l-385 385l57 55l438 -440l-823 -823zM201 1536l55 55l823 -823l-55 -55zM457 -512l567 567l55 -55l-567 -567zM457 1536l55 55l567 -567l-55 -55zM713 -512l311 311l55 -55l-311 -311zM713 1536l55 55l311 -311l-55 -55zM969 -512 l55 55l55 -55l-55 -55zM969 1536l55 55l55 -55l-55 -55z" />
<glyph unicode="u" horiz-adv-x="512" d="M-55 0l127 129l-127 127l55 55l184 -182l-184 -184zM-55 -256l311 311l55 -55l-311 -311zM-55 -512l512 512l-512 512l55 55l567 -567l-567 -567zM-55 768l55 55l567 -567l-55 -55zM-55 1024l567 567l55 -55l-512 -512l512 -512l-55 -55zM-55 1280l311 311l55 -55 l-311 -311zM-55 1536l55 55l55 -55l-55 -55zM201 -512l311 311l55 -55l-311 -311zM201 1024l55 55l311 -311l-55 -55zM328 1153l184 182l55 -55l-127 -127l127 -129l-55 -55zM457 -512l55 55l55 -55l-55 -55z" />
<glyph unicode="v" d="M-55 0l512 512l-201 201l-256 -256l-55 55l311 311l311 -311l-256 -256l457 -457l768 768l55 -55l-256 -256l768 -768l-55 -55l-768 768l-768 -768l-55 55l256 256l-457 457l-256 -256zM-55 256l311 311l55 -55l-311 -311zM-55 -256l311 311l311 -311l-311 -311l-55 55 l256 256l-201 201l-256 -256zM-55 -512l311 311l55 -55l-311 -311zM-55 768l311 311l567 -567l-256 -256l201 -201l768 768l256 -256l256 256l55 -55l-311 -311l-256 256l-768 -768l-311 311l256 256l-457 457l-256 -256zM-55 1024l567 567l55 -55l-256 -256l713 -713 l1024 1024l55 -55l-1335 -1335l-55 55l256 256l-713 713l-256 -256zM-55 1280l311 311l55 -55l-311 -311zM-55 1536l55 55l55 -55l-55 -55zM457 1280l311 311l55 -55l-256 -256l457 -457l768 768l55 -55l-823 -823zM713 -512l567 567l567 -567l-55 -55l-512 512l-512 -512z M713 1280l311 311l55 -55l-256 -256l201 -201l512 512l55 -55l-567 -567zM969 -512l311 311l311 -311l-55 -55l-256 256l-256 -256zM969 1280l311 311l55 -55l-311 -311zM1225 -512l55 55l55 -55l-55 -55zM1481 256l184 184l55 -57l-129 -127l512 -512l-55 -55zM1608 895 l440 440l55 -55l-438 -440zM1737 256l311 311l55 -55l-256 -256l256 -256l-55 -55zM1737 768l311 311l55 -55l-311 -311zM1993 256l55 55l55 -55l-55 -55z" />
<glyph unicode="w" d="M-55 0l512 512l-512 512l567 567l256 -256l256 256l311 -311l-55 -55l-256 256l-256 -256l-256 256l-457 -457l512 -512l-567 -567zM-55 -256l768 768l-512 512l311 311l256 -256l256 256l256 -256l201 201l-256 256l55 55l311 -311l-311 -311l-256 256l-256 -256 l-256 256l-201 -201l457 -457l256 256l55 -55l-1079 -1079zM-55 256l256 256l-256 256l55 55l311 -311l-311 -311zM-55 -512l1280 1280l-201 201l-256 -256l-311 311l55 55l256 -256l256 256l256 -256l256 256l567 -567l-55 -55l-256 256l-457 -457l768 -768l-55 -55 l-823 823l512 512l-201 201l-1536 -1536zM-55 512l55 55l55 -55l-55 -55zM-55 1280l311 311l55 -55l-311 -311zM-55 1536l55 55l55 -55l-55 -55zM201 -512l1335 1335l55 -55l-512 -512l768 -768l-55 -55l-768 768l-768 -768zM457 -512l567 567l567 -567l-55 -55l-512 512 l-512 -512zM713 -512l311 311l311 -311l-55 -55l-256 256l-256 -256zM713 1536l55 55l55 -55l-55 -55zM969 -512l55 55l55 -55l-55 -55zM1481 256l311 311l311 -311l-55 -55l-256 256l-201 -201l512 -512l-55 -55zM1481 1536l55 55l567 -567l-55 -55zM1608 1151l57 57 l438 -440l-55 -55zM1737 256l55 55l311 -311l-55 -55zM1737 1536l55 55l311 -311l-55 -55zM1993 1536l55 55l55 -55l-55 -55z" />
<glyph unicode="x" d="M-55 0l55 55l256 -256l201 201l-256 256l567 567l55 -55l-256 -256l457 -457l256 256l55 -55l-567 -567l-55 55l256 256l-457 457l-201 -201l256 -256l-256 -256l256 -256l-55 -55l-256 256l-256 -256l-55 55l256 256zM-55 256l256 256l-256 256l55 55l256 -256l512 512 l311 -311l-256 -256l201 -201l256 256l311 -311l-256 -256l201 -201l256 256l311 -311l-311 -311l-55 55l256 256l-201 201l-256 -256l-256 256l-201 -201l256 -256l-55 -55l-256 256l-256 -256l-311 311l256 256l-256 256l55 55l311 -311l-256 -256l201 -201l713 713 l-201 201l-256 -256l-311 311l256 256l-201 201l-713 -713l256 -256l-55 -55zM-55 -256l55 55l55 -55l-55 -55zM-55 1024l311 311l55 -55l-256 -256l201 -201l457 457l-256 256l55 55l256 -256l256 256l55 -55l-823 -823zM-55 1280l311 311l311 -311l-311 -311l-55 55 l256 256l-201 201l-256 -256zM-55 1536l55 55l55 -55l-55 -55zM-51 512l51 51l51 -51l-51 -51zM201 -512l55 55l55 -55l-55 -55zM713 1536l55 55l55 -55l-55 -55zM840 1151l440 440l55 -55l-256 -256l201 -201l256 256l311 -311l-55 -55l-256 256l-256 -256l-256 256 l-127 -129zM969 512l256 256l-256 256l55 55l256 -256l256 256l256 -256l201 201l-457 457l-256 -256l-55 55l311 311l567 -567l-311 -311l-256 256l-201 -201l457 -457l256 256l55 -55l-256 -256l256 -256l-55 -55l-256 256l-256 -256l-55 55l256 256l-457 457l-256 -256z M969 -512l55 55l55 -55l-55 -55zM1225 -256l55 55l256 -256l256 256l55 -55l-311 -311zM1481 768l55 55l256 -256l256 256l55 -55l-311 -311zM1737 1536l55 55l311 -311l-55 -55zM1993 256l55 55l55 -55l-55 -55zM1993 -512l55 55l55 -55l-55 -55zM1993 1536l55 55l55 -55 l-55 -55z" />
<glyph unicode="y" horiz-adv-x="512" d="M-55 0l55 55l567 -567l-55 -55zM-55 256l567 567l55 -55l-567 -567zM-55 -256l55 55l311 -311l-55 -55zM-55 512l256 256l-256 256l55 55l311 -311l-311 -311zM-55 -512l55 55l55 -55l-55 -55zM-55 768l55 55l55 -55l-55 -55zM-55 1280l55 55l440 -438l-55 -57zM-55 1536 l55 55l567 -567l-55 -55zM72 129l57 55l438 -440l-55 -55zM201 256l311 311l55 -55l-256 -256l256 -256l-55 -55zM201 1536l55 55l311 -311l-55 -55zM457 256l55 55l55 -55l-55 -55zM457 1536l55 55l55 -55l-55 -55z" />
<glyph unicode="z" d="M-55 0l256 256l-256 256l55 55l512 -512l768 768l256 -256l512 512l55 -55l-256 -256l256 -256l-55 -55l-256 256l-256 -256l-256 256l-768 -768l-256 256l-256 -256zM-55 -256l311 311l256 -256l768 768l55 -55l-823 -823l-256 256l-201 -201l256 -256l-55 -55zM-55 256 l55 55l55 -55l-55 -55zM-55 768l311 311l256 -256l457 457l-201 201l-256 -256l-256 256l-256 -256l-55 55l311 311l256 -256l256 256l311 -311l-567 -567l-256 256l-201 -201l457 -457l768 768l256 -256l512 512l55 -55l-567 -567l-256 256l-768 -768zM-55 1024l311 311 l256 -256l256 256l55 -55l-311 -311l-256 256l-256 -256zM-55 1536l55 55l55 -55l-55 -55zM-51 -512l51 51l51 -51l-51 -51zM201 -256l55 55l256 -256l768 768l256 -256l256 256l55 -55l-311 -311l-256 256l-457 -457l256 -256l-55 -55l-256 256l-256 -256zM201 768l55 55 l256 -256l713 713l-256 256l55 55l512 -512l512 512l55 -55l-567 -567l-256 256l-768 -768zM457 1536l55 55l55 -55l-55 -55zM713 -512l55 55l55 -55l-55 -55zM969 -256l311 311l256 -256l457 457l-201 201l-256 -256l-184 182l57 57l127 -129l256 256l311 -311l-567 -567 l-256 256l-201 -201l256 -256l-55 -55zM1225 -256l55 55l256 -256l512 512l55 -55l-256 -256l256 -256l-55 -55l-256 256l-256 -256zM1225 1536l55 55l256 -256l256 256l55 -55l-311 -311zM1481 1536l55 55l55 -55l-55 -55zM1737 -512l55 55l55 -55l-55 -55zM1993 -256 l55 55l55 -55l-55 -55zM1993 768l55 55l55 -55l-55 -55z" />
<glyph unicode="{" horiz-adv-x="512" d="M-55 0l55 55l55 -55l-55 -55zM-55 256l55 55l567 -567l-55 -55zM-55 -256l184 184l55 -57l-184 -182zM-55 512l567 567l55 -55l-512 -512l512 -512l-55 -55zM-55 -512l311 311l311 -311l-55 -55l-256 256l-256 -256zM-55 768l256 256l-256 256l55 55l311 -311l-311 -311z M-55 1024l55 55l55 -55l-55 -55zM-55 1536l55 55l256 -256l256 256l55 -55l-311 -311zM201 512l311 311l55 -55l-256 -256l256 -256l-55 -55zM201 -512l55 55l55 -55l-55 -55zM201 1536l55 55l55 -55l-55 -55zM328 1153l184 182l55 -55l-182 -184zM457 512l55 55l55 -55 l-55 -55z" />
<glyph unicode="|" horiz-adv-x="1024" d="M-55 0l55 55l567 -567l-55 -55zM-55 256l55 55l823 -823l-55 -55zM-55 -256l55 55l311 -311l-55 -55zM-55 512l311 311l512 -512l256 256l55 -55l-311 -311l-512 512l-256 -256zM-55 768l256 256l-256 256l55 55l768 -768l127 129l57 -55l-184 -184l-512 512l-256 -256z M-55 1024l55 55l55 -55l-55 -55zM-55 1536l55 55l823 -823l-55 -55zM-51 -512l51 51l51 -51l-51 -51zM72 385l184 182l512 -512l256 256l55 -55l-256 -256l256 -256l-55 -55l-768 768l-129 -129zM201 256l55 55l823 -823l-55 -55zM201 1536l55 55l823 -823l-55 -55z M457 1536l55 55l567 -567l-55 -55zM713 1536l55 55l311 -311l-55 -55zM952 1536l56 55l55 -55l-55 -55zM969 0l55 55l55 -55l-55 -55z" />
<glyph unicode="}" horiz-adv-x="512" d="M-55 0l512 512l-512 512l55 55l567 -567l-567 -567zM-55 256l256 256l-256 256l55 55l311 -311l-311 -311zM-55 -256l184 184l55 -57l-184 -182zM-55 512l55 55l55 -55l-55 -55zM-55 -512l311 311l311 -311l-55 -55l-256 256l-256 -256zM-55 1280l55 55l567 -567l-55 -55 zM-55 1536l55 55l256 -256l256 256l55 -55l-311 -311zM201 0l311 311l55 -55l-256 -256l256 -256l-55 -55zM201 -512l55 55l55 -55l-55 -55zM201 1536l55 55l55 -55l-55 -55zM328 1153l184 182l55 -55l-182 -184zM457 0l55 55l55 -55l-55 -55zM457 1024l55 55l55 -55 l-55 -55z" />
<glyph unicode="~" d="M-55 0l256 256l-256 256l55 55l311 -311l-311 -311zM-55 -256l512 512l-512 512l55 55l1024 -1024l201 201l-1280 1280l55 55l1024 -1024l457 457l-201 201l-256 -256l-55 55l823 823l311 -311l-55 -55l-256 256l-457 -457l768 -768l-55 -55l-512 512l-457 -457l256 -256 l-311 -311l-512 512l-457 -457l256 -256l-55 -55zM-55 256l55 55l55 -55l-55 -55zM-55 -512l55 55l55 -55l-55 -55zM-55 1024l55 55l1079 -1079l-55 -55zM-55 1536l55 55l1024 -1024l256 256l55 -55l-311 -311zM201 -256l311 311l512 -512l457 457l-256 256l311 311 l567 -567l-55 -55l-512 512l-201 -201l256 -256l-567 -567l-512 512l-201 -201l256 -256l-55 -55zM201 1536l55 55l512 -512l201 201l-256 256l55 55l256 -256l256 256l55 -55l-512 -512l129 -127l-55 -57zM457 -256l55 55l311 -311l-55 -55zM457 1536l55 55l311 -311 l-55 -55zM969 1024l567 567l55 -55l-567 -567zM969 1536l55 55l55 -55l-55 -55zM1225 -512l512 512l-256 256l55 55l567 -567l-55 -55l-256 256l-512 -512zM1481 -512l311 311l311 -311l-55 -55l-256 256l-256 -256zM1481 1024l311 311l311 -311l-55 -55l-256 256l-201 -201 l512 -512l-55 -55zM1737 -512l55 55l55 -55l-55 -55zM1737 1024l55 55l311 -311l-55 -55zM1993 1536l55 55l55 -55l-55 -55z" />
<glyph unicode="&#xa1;" horiz-adv-x="1024" d="M-55 0l1079 1079l55 -55l-1024 -1024l512 -512l-55 -55zM-55 256l1079 1079l55 -55l-1079 -1079zM-55 -256l55 55l311 -311l-55 -55zM-55 512l1079 1079l55 -55l-1079 -1079zM-55 -512l55 55l55 -55l-55 -55zM-55 768l823 823l55 -55l-823 -823zM-55 1024l567 567l55 -55 l-567 -567zM-55 1280l311 311l55 -55l-311 -311zM-55 1536l55 55l55 -55l-55 -55zM201 0l823 823l55 -55l-768 -768l512 -512l-55 -55zM457 0l567 567l55 -55l-512 -512l512 -512l-55 -55zM713 0l311 311l55 -55l-256 -256l256 -256l-55 -55zM969 0l55 55l55 -55l-55 -55z " />
<glyph unicode="&#xa2;" d="M-55 0l512 512l-201 201l-256 -256l-55 55l311 311l311 -311l-512 -512l457 -457l768 768l823 -823l-55 -55l-512 512l-512 -512l-55 55l512 512l-201 201l-768 -768zM-55 256l311 311l55 -55l-311 -311zM-55 -256l55 55l311 -311l-55 -55zM-55 -512l55 55l55 -55 l-55 -55zM-55 768l256 256l-256 256l55 55l311 -311l-311 -311zM-55 1024l55 55l55 -55l-55 -55zM-55 1536l55 55l512 -512l512 512l55 -55l-512 -512l457 -457l512 512l55 -55l-1079 -1079l-55 55l512 512zM201 0l512 512l-385 385l57 55l438 -440l-512 -512l201 -201 l1225 1225l-201 201l-512 -512l-311 311l567 567l55 -55l-512 -512l201 -201l512 512l311 -311l-1335 -1335zM201 1536l55 55l256 -256l256 256l55 -55l-311 -311zM457 1536l55 55l55 -55l-55 -55zM713 -512l567 567l55 -55l-567 -567zM969 1024l567 567l567 -567l-512 -512 l201 -201l256 256l55 -55l-311 -311l-311 311l512 512l-457 457l-512 -512zM1225 -512l311 311l311 -311l-55 -55l-256 256l-256 -256zM1352 385l57 55l694 -696l-55 -55zM1481 -512l55 55l55 -55l-55 -55zM1737 512l311 311l55 -55l-311 -311zM1737 1536l55 55l311 -311 l-55 -55zM1864 129l184 182l55 -55l-127 -127l127 -129l-55 -55zM1993 1536l55 55l55 -55l-55 -55z" />
<glyph unicode="&#xa3;" horiz-adv-x="512" d="M-55 0l256 256l-256 256l55 55l567 -567l-567 -567l-55 55l512 512l-201 201l-256 -256zM-55 256l55 55l55 -55l-55 -55zM-55 -256l311 311l55 -55l-311 -311zM-55 768l55 55l567 -567l-55 -55zM-55 1024l567 567l55 -55l-512 -512l201 -201l256 256l55 -55l-256 -256 l256 -256l-55 -55zM-55 1280l311 311l55 -55l-311 -311zM-55 1536l55 55l55 -55l-55 -55zM201 -512l311 311l55 -55l-311 -311zM201 1024l311 311l55 -55l-311 -311zM457 -512l55 55l55 -55l-55 -55zM457 768l55 55l55 -55l-55 -55z" />
<glyph unicode="&#xa5;" horiz-adv-x="512" d="M-55 0l55 55l567 -567l-55 -55zM-55 256l567 567l55 -55l-512 -512l256 -256l-55 -55zM-55 -256l55 55l311 -311l-55 -55zM-55 512l184 184l55 -55l-184 -184zM-55 -512l55 55l55 -55l-55 -55zM-55 768l256 256l-256 256l55 55l311 -311l-311 -311zM-55 1024l55 55 l55 -55l-55 -55zM-55 1536l55 55l567 -567l-311 -311l-55 55l256 256zM201 256l311 311l55 -55l-256 -256l256 -256l-55 -55zM201 1536l55 55l311 -311l-55 -55zM328 -127l57 55l182 -184l-55 -55zM457 256l55 55l55 -55l-55 -55zM457 1536l55 55l55 -55l-55 -55z" />
<glyph unicode="&#xa7;" horiz-adv-x="512" d="M-55 8l55 55l55 -55l-55 -55zM-55 -248l256 256l-256 256l55 55l256 -256l256 256l55 -55l-567 -567zM-55 -504l567 567l55 -55l-567 -567zM-55 520l311 311l311 -311l-311 -311zM-55 776l567 567l55 -55l-567 -567zM-55 1032l567 567l55 -55l-567 -567zM-55 1288 l311 311l55 -55l-311 -311zM-55 1544l55 55l55 -55l-55 -55zM55 520l201 -201l201 201l-201 201zM201 -504l311 311l55 -55l-311 -311zM201 520l55 55l55 -55l-55 -55zM328 905l184 182l55 -55l-127 -127l127 -129l-55 -55zM457 -504l55 55l55 -55l-55 -55z" />
<glyph unicode="&#xa8;" horiz-adv-x="512" d="M-55 0l55 55l567 -567l-55 -55l-127 127l-129 -127l-55 55l127 127zM-55 -256l55 55l184 -184l-55 -55zM-55 512l512 512l-72 72l-385 -383l-55 55l383 385l-383 383l55 55l567 -567l-383 -383l383 -385l-55 -55l-383 383l-74 -72l512 -512l-55 -55zM-55 -512l55 55 l55 -55l-55 -55zM-55 1024l55 55l55 -55l-55 -55zM-55 1280l55 55l184 -182l-55 -57zM-33 233l56 56l544 -545l-55 -55zM201 1536l55 55l311 -311l-55 -55zM328 641l184 182l55 -55l-182 -184zM457 512l55 55l55 -55l-55 -55zM457 1536l55 55l55 -55l-55 -55z" />
<glyph unicode="&#xa9;" d="M-55 0l55 55l567 -567l-55 -55zM-55 256l55 55l256 -256l201 201l-512 512l55 55l567 -567l-256 -256l512 -512l-55 -55zM-55 -256l55 55l311 -311l-55 -55zM-55 512l55 55l311 -311l-55 -55zM-55 -512l55 55l55 -55l-55 -55zM-55 1024l55 55l823 -823l-256 -256 l512 -512l-55 -55l-567 567l256 256zM-55 1280l55 55l1079 -1079l-256 -256l512 -512l-55 -55l-567 567l256 256zM-55 1536l55 55l1280 -1280l256 256l567 -567l-55 -55l-512 512l-457 -457l512 -512l-55 -55l-567 567l256 256zM201 1536l55 55l1024 -1024l256 256l567 -567 l-55 -55l-512 512l-256 -256zM457 1536l55 55l768 -768l256 256l567 -567l-55 -55l-512 512l-256 -256zM713 1536l55 55l512 -512l201 201l-256 256l55 55l311 -311l-311 -311zM969 1536l55 55l311 -311l-55 -55zM1225 0l311 311l567 -567l-55 -55l-512 512l-201 -201 l512 -512l-55 -55zM1481 0l55 55l567 -567l-55 -55zM1481 1536l55 55l567 -567l-55 -55zM1608 1153l57 55l438 -440l-55 -55zM1737 1536l55 55l311 -311l-55 -55zM1993 1536l55 55l55 -55l-55 -55z" />
<glyph unicode="&#xaa;" horiz-adv-x="1024" d="M-55 0l256 256l-256 256l1079 1079l55 -55l-1024 -1024l201 -201l256 256l55 -55l-567 -567zM-55 -256l768 768l-201 201l-256 -256l-55 55l823 823l55 -55l-512 -512l256 -256l-823 -823zM-55 256l55 55l55 -55l-55 -55zM-55 -512l1024 1024l-256 256l55 55l311 -311 l-1079 -1079zM-55 768l823 823l55 -55l-823 -823zM-55 1024l256 256l-256 256l55 55l256 -256l256 256l55 -55l-567 -567zM-55 1280l55 55l55 -55l-55 -55zM201 -512l823 823l55 -55l-823 -823zM201 1536l55 55l55 -55l-55 -55zM457 -512l184 184l182 -184l-55 -55l-127 127 l-129 -127zM713 -256l55 55l311 -311l-55 -55zM840 -129l184 184l55 -55l-127 -129l127 -127l-55 -55zM840 897l184 182l55 -55l-127 -127l127 -129l-55 -55z" />
<glyph unicode="&#xab;" horiz-adv-x="1024" d="M-55 0l55 55l256 -256l457 457l-256 256l567 567l55 -55l-512 -512l512 -512l-55 -55l-256 256l-457 -457l256 -256l-55 -55zM-55 256l55 55l256 -256l201 201l-256 256l823 823l55 -55l-768 -768l256 -256l-311 -311zM-55 -256l55 55l311 -311l-55 -55zM-55 512 l1079 1079l55 -55l-1024 -1024l256 -256l-55 -55zM-55 -512l55 55l55 -55l-55 -55zM-55 768l823 823l55 -55l-823 -823zM-55 1024l567 567l55 -55l-567 -567zM-55 1280l311 311l55 -55l-311 -311zM-55 1536l55 55l55 -55l-55 -55zM457 -256l311 311l311 -311l-55 -55 l-256 256l-201 -201l256 -256l-55 -55zM713 -256l55 55l311 -311l-55 -55zM713 512l311 311l55 -55l-256 -256l256 -256l-55 -55zM969 512l55 55l55 -55l-55 -55z" />
<glyph unicode="&#xac;" horiz-adv-x="1024" d="M-55 0l768 768l-512 512l311 311l55 -55l-256 -256l457 -457l256 256l55 -55l-768 -768l512 -512l-311 -311l-55 55l256 256l-457 457l-256 -256zM-55 256l512 512l-512 512l311 311l55 -55l-256 -256l512 -512l-567 -567zM-55 -256l311 311l311 -311l-311 -311l-55 55 l256 256l-201 201l-256 -256zM-55 512l256 256l-256 256l55 55l311 -311l-311 -311zM-55 -512l311 311l55 -55l-311 -311zM-55 768l55 55l55 -55l-55 -55zM-55 1536l55 55l55 -55l-55 -55zM457 256l567 567l55 -55l-512 -512l512 -512l-311 -311l-55 55l256 256zM457 1280 l311 311l55 -55l-256 -256l201 -201l256 256l55 -55l-311 -311zM713 256l311 311l55 -55l-256 -256l256 -256l-55 -55zM713 1280l311 311l55 -55l-311 -311zM969 256l55 55l55 -55l-55 -55zM969 -512l55 55l55 -55l-55 -55z" />
<glyph unicode="&#xae;" horiz-adv-x="1024" d="M-55 0l55 55l256 -256l457 457l-768 768l55 55l823 -823l-256 -256l201 -201l256 256l55 -55l-567 -567l-55 55l256 256l-201 201l-256 -256zM-55 256l55 55l256 -256l201 201l-512 512l55 55l567 -567l-311 -311zM-55 -256l55 55l256 -256l256 256l55 -55l-311 -311z M-55 512l55 55l311 -311l-55 -55zM-55 -512l55 55l55 -55l-55 -55zM-55 1280l55 55l256 -256l512 512l55 -55l-512 -512l201 -201l512 512l55 -55l-512 -512l512 -512l-311 -311l-55 55l256 256zM-55 1536l55 55l256 -256l256 256l55 -55l-311 -311zM201 1536l55 55l55 -55 l-55 -55zM457 1024l567 567l55 -55l-567 -567zM713 -512l311 311l55 -55l-311 -311zM713 768l311 311l55 -55l-256 -256l256 -256l-55 -55zM969 -512l55 55l55 -55l-55 -55zM969 768l55 55l55 -55l-55 -55z" />
<glyph unicode="&#xaf;" horiz-adv-x="512" d="M-55 0l55 55l55 -55l-55 -55zM-55 -256l256 256l-256 256l55 55l311 -311l-256 -256l256 -256l-55 -55zM-55 512l55 55l567 -567l-256 -256l256 -256l-55 -55l-311 311l256 256zM-55 -512l55 55l55 -55l-55 -55zM-55 768l256 256l-256 256l55 55l311 -311l-256 -256 l512 -512l-55 -55zM-55 1024l55 55l55 -55l-55 -55zM-55 1536l55 55l567 -567l-256 -256l256 -256l-55 -55l-311 311l256 256zM201 1536l55 55l311 -311l-55 -55zM457 -256l55 55l55 -55l-55 -55zM457 768l55 55l55 -55l-55 -55zM457 1536l55 55l55 -55l-55 -55z" />
<glyph unicode="&#xb0;" horiz-adv-x="1024" d="M-55 0l55 55l512 -512l512 512l55 -55l-567 -567zM-55 256l55 55l256 -256l201 201l-129 129l184 182l55 -55l-127 -127l127 -129l-256 -256l201 -201l512 512l55 -55l-567 -567zM-55 -256l55 55l311 -311l-55 -55zM-55 512l567 567l55 -55l-512 -512l256 -256l-55 -55z M-55 -512l55 55l55 -55l-55 -55zM-55 768l567 567l567 -567l-55 -55l-256 256l-201 -201l256 -256l-184 -184l-55 57l129 127l-201 201l-256 -256l-55 55l512 512l-201 201l-512 -512zM-55 1024l567 567l567 -567l-55 -55l-512 512l-512 -512zM-55 1280l311 311l55 -55 l-311 -311zM-55 1536l55 55l55 -55l-55 -55zM457 0l512 512l-256 256l55 55l311 -311l-567 -567zM713 -512l311 311l55 -55l-311 -311zM713 1536l55 55l311 -311l-55 -55zM969 -512l55 55l55 -55l-55 -55zM969 1536l55 55l55 -55l-55 -55z" />
<glyph unicode="&#xb1;" horiz-adv-x="512" d="M-55 0l567 567l55 -55l-256 -256l256 -256l-55 -55l-256 256l-256 -256zM-55 256l311 311l55 -55l-311 -311zM-55 -256l311 311l311 -311l-55 -55l-256 256l-256 -256zM-55 512l256 256l-256 256l55 55l256 -256l256 256l55 -55l-567 -567zM-55 -512l311 311l311 -311 l-55 -55l-256 256l-256 -256zM-55 768l55 55l55 -55l-55 -55zM-55 1280l55 55l256 -256l256 256l55 -55l-311 -311zM-55 1536l55 55l256 -256l256 256l55 -55l-311 -311zM201 -512l55 55l55 -55l-55 -55zM201 1536l55 55l55 -55l-55 -55zM328 641l184 182l55 -55l-182 -184z M457 256l55 55l55 -55l-55 -55z" />
<glyph unicode="&#xb4;" horiz-adv-x="512" d="M-55 0l311 311l311 -311l-55 -55l-256 256l-256 -256zM-55 256l184 184l55 -55l-184 -184zM-55 -256l311 311l311 -311l-55 -55l-256 256l-256 -256zM-55 512l55 55l55 -55l-55 -55zM-55 -512l311 311l311 -311l-55 -55l-256 256l-256 -256zM-55 768l55 55l567 -567 l-55 -55zM-55 1024l55 55l567 -567l-55 -55zM-55 1280l55 55l567 -567l-55 -55zM-55 1536l55 55l567 -567l-55 -55zM201 -512l55 55l55 -55l-55 -55zM201 1536l55 55l311 -311l-55 -55zM457 1536l55 55l55 -55l-55 -55z" />
<glyph unicode="&#xb5;" d="M-55 0l256 256l-256 256l55 55l311 -311l-311 -311zM-55 -256l512 512l-512 512l55 55l567 -567l-567 -567zM-55 256l55 55l55 -55l-55 -55zM-55 -512l768 768l-768 768l55 55l823 -823l-823 -823zM-55 1280l55 55l1079 -1079l-823 -823l-55 55l768 768zM-55 1536l55 55 l1280 -1280l713 713l-512 512l55 55l567 -567l-1591 -1591l-55 55l768 768zM201 1536l55 55l1024 -1024l201 201l-768 768l55 55l823 -823l-311 -311zM457 1536l55 55l823 -823l-55 -55zM713 -512l1335 1335l55 -55l-1335 -1335zM969 -512l1079 1079l55 -55l-1079 -1079z M969 1536l55 55l567 -567l-55 -55zM1225 -512l823 823l55 -55l-823 -823zM1225 1536l55 55l567 -567l-182 -184l-57 55l129 129zM1481 -512l567 567l55 -55l-567 -567zM1737 -512l311 311l55 -55l-311 -311zM1737 1536l55 55l311 -311l-55 -55zM1993 -512l55 55l55 -55 l-55 -55zM1993 1536l55 55l55 -55l-55 -55z" />
<glyph unicode="&#xb6;" d="M-55 0l256 256l-256 256l55 55l311 -311l-311 -311zM-55 -256l512 512l-512 512l55 55l567 -567l-567 -567zM-55 256l55 55l55 -55l-55 -55zM-55 -512l768 768l-256 256l567 567l55 -55l-256 -256l713 -713l201 201l-256 256l567 567l55 -55l-512 -512l256 -256 l-567 -567l-55 55l256 256l-713 713l-201 -201l256 -256l-823 -823zM-55 1024l567 567l55 -55l-512 -512l201 -201l768 768l256 -256l256 256l55 -55l-311 -311l-256 256l-768 -768zM-55 1280l311 311l55 -55l-311 -311zM-55 1536l55 55l55 -55l-55 -55zM201 -512l768 768 l-256 256l55 55l567 -567l-567 -567l-55 55l512 512l-201 201l-768 -768zM201 1024l567 567l55 -55l-567 -567zM328 641l696 694l256 -256l512 512l55 -55l-768 -768l201 -201l768 768l55 -55l-768 -768l256 -256l-55 -55l-567 567l256 256l-201 201l-639 -641zM457 -512 l567 567l55 -55l-567 -567zM969 -512l184 184l127 -129l713 713l-256 256l311 311l55 -55l-256 -256l256 -256l-823 -823l-127 127l-129 -127zM1225 768l823 823l55 -55l-823 -823zM1225 1536l55 55l55 -55l-55 -55zM1481 -512l567 567l55 -55l-567 -567zM1737 -512l311 311 l55 -55l-311 -311zM1993 512l55 55l55 -55l-55 -55zM1993 -512l55 55l55 -55l-55 -55z" />
<glyph unicode="&#xb7;" horiz-adv-x="1024" d="M-55 0l311 311l311 -311l-567 -567l-55 55l512 512l-201 201l-256 -256zM-55 256l311 311l440 -438l-55 -57l-385 385l-256 -256zM-55 -256l311 311l55 -55l-311 -311zM-55 512l311 311l512 -512l256 256l55 -55l-311 -311l-512 512l-256 -256zM-55 768l823 823l55 -55 l-823 -823zM-55 1024l567 567l55 -55l-567 -567zM-55 1280l311 311l55 -55l-311 -311zM-55 1536l55 55l55 -55l-55 -55zM201 -512l823 823l55 -55l-823 -823zM328 897l57 55l383 -385l256 256l55 -55l-311 -311zM457 -512l567 567l55 -55l-567 -567zM457 1024l567 567 l55 -55l-512 -512l201 -201l256 256l55 -55l-311 -311zM713 -512l311 311l55 -55l-311 -311zM713 1024l311 311l55 -55l-311 -311zM969 -512l55 55l55 -55l-55 -55z" />
<glyph unicode="&#xb8;" d="M-55 0l256 256l-256 256l55 55l256 -256l457 457l-768 768l55 55l768 -768l457 457l-256 256l55 55l256 -256l256 256l567 -567l-55 -55l-512 512l-201 -201l512 -512l-55 -55l-512 512l-201 -201l256 -256l-55 -55l-256 256l-457 -457l256 -256l-55 -55l-256 256 l-201 -201l512 -512l-55 -55l-512 512l-201 -201l512 -512l-55 -55zM-55 256l55 55l55 -55l-55 -55zM-55 -256l55 55l311 -311l-55 -55zM-55 -512l55 55l55 -55l-55 -55zM-55 768l55 55l256 -256l201 201l-512 512l55 55l567 -567l-311 -311zM-55 1024l55 55l311 -311 l-55 -55zM201 0l55 55l512 -512l201 201l-512 512l55 55l256 -256l201 201l-256 256l311 311l256 -256l201 201l-256 256l55 55l512 -512l201 201l-512 512l55 55l567 -567l-256 -256l256 -256l-55 -55l-512 512l-201 -201l512 -512l-55 -55l-768 768l-201 -201l768 -768 l-55 -55l-512 512l-201 -201l512 -512l-55 -55l-256 256l-256 -256zM201 1536l55 55l512 -512l201 201l-256 256l55 55l311 -311l-311 -311zM457 1536l55 55l311 -311l-55 -55zM969 0l55 55l512 -512l201 201l-768 768l55 55l768 -768l201 201l-512 512l55 55l567 -567 l-567 -567zM969 -512l55 55l55 -55l-55 -55zM1225 1536l55 55l55 -55l-55 -55zM1737 -512l311 311l55 -55l-311 -311zM1737 1536l55 55l311 -311l-55 -55zM1993 512l55 55l55 -55l-55 -55zM1993 -512l55 55l55 -55l-55 -55zM1993 1536l55 55l55 -55l-55 -55z" />
<glyph unicode="&#xba;" horiz-adv-x="1024" d="M-55 0l127 129l-127 127l55 55l184 -182l-184 -184zM-55 -256l768 768l-129 129l57 55l182 -184l-823 -823zM-55 512l1079 1079l55 -55l-1024 -1024l256 -256l-55 -55zM-55 -512l1024 1024l-256 256l55 55l311 -311l-1079 -1079zM-55 768l823 823l55 -55l-823 -823z M-55 1024l127 129l-127 127l55 55l184 -182l-184 -184zM-55 1536l55 55l311 -311l-55 -55zM201 512l823 823l55 -55l-768 -768l129 -127l-55 -57zM201 -512l823 823l55 -55l-823 -823zM201 1536l55 55l129 -127l127 127l55 -55l-182 -184zM457 512l55 55l55 -55l-55 -55z M457 -512l184 184l182 -184l-55 -55l-127 127l-129 -127zM713 -256l55 55l311 -311l-55 -55zM840 -129l184 184l55 -55l-127 -129l127 -127l-55 -55zM840 897l184 182l55 -55l-127 -127l127 -129l-55 -55z" />
<glyph unicode="&#xbb;" horiz-adv-x="1024" d="M-55 0l512 512l-512 512l55 55l256 -256l457 457l-256 256l55 55l567 -567l-55 -55l-256 256l-457 -457l256 -256l-567 -567zM-55 256l256 256l-256 256l55 55l311 -311l-311 -311zM-55 -256l823 823l55 -55l-823 -823zM-55 -512l1024 1024l-256 256l55 55l311 -311 l-1079 -1079zM-55 512l55 55l55 -55l-55 -55zM-55 1280l55 55l256 -256l201 201l-256 256l55 55l311 -311l-311 -311zM-55 1536l55 55l311 -311l-55 -55zM201 -512l823 823l55 -55l-823 -823zM457 -512l567 567l55 -55l-567 -567zM457 768l311 311l311 -311l-55 -55 l-256 256l-201 -201l129 -127l-55 -57zM713 -512l311 311l55 -55l-311 -311zM713 1536l55 55l311 -311l-55 -55zM969 1536l55 55l55 -55l-55 -55z" />
<glyph unicode="&#xbf;" horiz-adv-x="1024" d="M-55 0l768 768l-457 457l-256 -256l-55 55l567 567l55 -55l-256 -256l457 -457l256 256l55 -55l-1024 -1024l512 -512l-55 -55zM-55 256l512 512l-201 201l-256 -256l-55 55l311 311l311 -311l-567 -567zM-55 -256l55 55l311 -311l-55 -55zM-55 512l311 311l55 -55 l-311 -311zM-55 -512l55 55l55 -55l-55 -55zM-55 1280l311 311l55 -55l-311 -311zM-55 1536l55 55l55 -55l-55 -55zM201 0l823 823l55 -55l-768 -768l512 -512l-55 -55zM457 0l567 567l55 -55l-512 -512l512 -512l-55 -55zM457 1280l311 311l55 -55l-256 -256l201 -201 l256 256l55 -55l-311 -311zM713 0l311 311l55 -55l-256 -256l256 -256l-55 -55zM713 1280l311 311l55 -55l-311 -311zM969 0l55 55l55 -55l-55 -55z" />
<glyph unicode="&#xc0;" d="M-55 -512l2103 2103l55 -55l-2103 -2103zM201 -512l1847 1847l55 -55l-1847 -1847zM457 -512l311 311l311 -311l-55 -55l-256 256l-256 -256zM713 -512l55 55l55 -55l-55 -55zM840 -129l57 57l438 -440l-55 -55zM969 0l1079 1079l55 -55l-1024 -1024l512 -512l-55 -55z M1225 0l311 311l567 -567l-55 -55l-512 512l-201 -201l512 -512l-55 -55zM1481 0l55 55l567 -567l-55 -55zM1608 385l440 438l55 -55l-438 -440zM1737 256l311 311l55 -55l-256 -256l256 -256l-55 -55zM1993 256l55 55l55 -55l-55 -55z" />
<glyph unicode="&#xc1;" horiz-adv-x="512" d="M-55 0l311 311l55 -55l-256 -256l512 -512l-55 -55zM-55 256l512 512l-256 256l55 55l311 -311l-567 -567zM-55 -256l55 55l311 -311l-55 -55zM-55 512l256 256l-256 256l55 55l311 -311l-311 -311zM-55 -512l55 55l55 -55l-55 -55zM-55 768l55 55l55 -55l-55 -55z M-55 1280l55 55l184 -182l-55 -57zM-55 1536l55 55l567 -567l-55 -55zM201 0l311 311l55 -55l-256 -256l256 -256l-55 -55zM201 1536l55 55l311 -311l-55 -55zM328 385l184 182l55 -55l-182 -184zM457 0l55 55l55 -55l-55 -55zM457 1536l55 55l55 -55l-55 -55z" />
<glyph unicode="&#xc2;" d="M-55 0l768 768l-768 768l55 55l823 -823l-823 -823zM-55 -256l1024 1024l-768 768l55 55l823 -823l-1079 -1079zM-55 256l512 512l-512 512l55 55l567 -567l-567 -567zM-55 -512l1280 1280l-768 768l55 55l1591 -1591l-567 -567l-55 55l512 512l-713 713l-1280 -1280z M-55 512l256 256l-256 256l55 55l311 -311l-311 -311zM-55 768l55 55l55 -55l-55 -55zM201 -512l1079 1079l311 -311l-823 -823l-55 55l768 768l-201 201l-1024 -1024zM457 -512l823 823l55 -55l-823 -823zM713 1536l55 55l1335 -1335l-55 -55zM969 -512l567 567l55 -55 l-567 -567zM969 1536l55 55l1079 -1079l-55 -55zM1225 -512l512 512l-129 129l57 55l182 -184l-567 -567zM1225 1536l55 55l823 -823l-55 -55zM1481 1536l55 55l567 -567l-55 -55zM1737 -512l311 311l55 -55l-311 -311zM1737 1536l55 55l311 -311l-55 -55zM1993 -512l55 55 l55 -55l-55 -55zM1993 1536l55 55l55 -55l-55 -55z" />
<glyph unicode="&#xc3;" horiz-adv-x="512" d="M-55 0l567 567l55 -55l-512 -512l201 -201l256 256l55 -55l-567 -567l-55 55l256 256zM-55 256l567 567l55 -55l-567 -567zM-55 -256l55 55l55 -55l-55 -55zM-55 512l512 512l-201 201l-256 -256l-55 55l567 567l55 -55l-256 -256l256 -256l-567 -567zM-55 768l311 311 l55 -55l-311 -311zM-55 1280l311 311l55 -55l-311 -311zM-55 1536l55 55l55 -55l-55 -55zM201 0l311 311l55 -55l-311 -311zM201 -512l311 311l55 -55l-311 -311zM457 -512l55 55l55 -55l-55 -55zM457 1280l55 55l55 -55l-55 -55z" />
<glyph unicode="&#xc4;" d="M-55 -512l823 823l567 -567l-311 -311l-55 55l256 256l-457 457l-768 -768zM201 -512l567 567l311 -311l-311 -311l-55 55l256 256l-201 201l-512 -512zM457 -512l311 311l55 -55l-311 -311zM840 385l57 55l639 -641l512 512l55 -55l-823 -823l-55 55l256 256zM969 512 l1079 1079l55 -55l-1024 -1024l457 -457l512 512l55 -55l-567 -567zM1225 512l823 823l55 -55l-768 -768l201 -201l512 512l55 -55l-567 -567zM1481 512l567 567l55 -55l-567 -567zM1481 -512l567 567l55 -55l-567 -567zM1737 -512l311 311l55 -55l-311 -311zM1993 -512 l55 55l55 -55l-55 -55z" />
<glyph unicode="&#xc5;" horiz-adv-x="512" d="M-55 0l311 311l311 -311l-55 -55l-256 256l-256 -256zM-55 256l311 311l311 -311l-55 -55l-256 256l-256 -256zM-55 -256l311 311l311 -311l-55 -55l-256 256l-256 -256zM-55 512l311 311l311 -311l-55 -55l-256 256l-256 -256zM-55 -512l311 311l311 -311l-55 -55 l-256 256l-256 -256zM-55 768l311 311l311 -311l-55 -55l-256 256l-256 -256zM-55 1024l311 311l311 -311l-55 -55l-256 256l-256 -256zM-55 1280l311 311l311 -311l-55 -55l-256 256l-256 -256zM-55 1536l55 55l55 -55l-55 -55zM201 -512l55 55l55 -55l-55 -55zM457 1536 l55 55l55 -55l-55 -55z" />
<glyph unicode="&#xc6;" d="M-55 0l823 823l512 -512l768 768l55 -55l-768 -768l768 -768l-55 -55l-1280 1280l-768 -768zM-55 256l1335 1335l55 -55l-512 -512l201 -201l768 768l55 -55l-768 -768l201 -201l768 768l55 -55l-823 -823l-512 512l-768 -768zM-55 -256l823 823l1079 -1079l-55 -55 l-1024 1024l-768 -768zM-55 512l1079 1079l55 -55l-1079 -1079zM-55 -512l823 823l823 -823l-55 -55l-768 768l-768 -768zM-55 768l823 823l55 -55l-823 -823zM-55 1024l567 567l55 -55l-567 -567zM-55 1280l311 311l55 -55l-311 -311zM-55 1536l55 55l55 -55l-55 -55z M201 -512l567 567l567 -567l-55 -55l-512 512l-512 -512zM457 -512l311 311l311 -311l-55 -55l-256 256l-256 -256zM713 -512l55 55l55 -55l-55 -55zM969 1024l567 567l55 -55l-567 -567zM1225 768l823 823l55 -55l-823 -823zM1481 256l567 567l55 -55l-512 -512l201 -201 l256 256l55 -55l-256 -256l256 -256l-55 -55zM1737 256l311 311l55 -55l-311 -311zM1993 0l55 55l55 -55l-55 -55z" />
<glyph unicode="&#xc7;" d="M-55 0l55 55l567 -567l-55 -55zM-55 256l55 55l823 -823l-55 -55zM-55 -256l55 55l311 -311l-55 -55zM-55 512l768 768l-256 256l55 55l311 -311l-768 -768l969 -969l1024 1024l55 -55l-1079 -1079zM-55 -512l55 55l55 -55l-55 -55zM-55 768l512 512l-201 201l-256 -256 l-55 55l311 311l311 -311l-567 -567zM-55 1024l311 311l55 -55l-311 -311zM-55 1536l55 55l55 -55l-55 -55zM201 512l1079 1079l55 -55l-1024 -1024l713 -713l1024 1024l55 -55l-1079 -1079zM457 512l1079 1079l55 -55l-1024 -1024l457 -457l713 713l-201 201l-512 -512 l-55 55l1079 1079l55 -55l-512 -512l201 -201l256 256l55 -55l-1079 -1079zM713 512l1079 1079l55 -55l-1024 -1024l201 -201l512 512l55 -55l-567 -567zM713 1536l55 55l184 -182l-55 -57zM969 1536l55 55l55 -55l-55 -55zM1225 -512l823 823l55 -55l-823 -823zM1481 -512 l567 567l55 -55l-567 -567zM1737 -512l311 311l55 -55l-311 -311zM1737 1024l311 311l55 -55l-311 -311zM1993 -512l55 55l55 -55l-55 -55z" />
<glyph unicode="&#xc8;" d="M-55 1536l55 55l2103 -2103l-55 -55zM201 1536l55 55l768 -768l768 768l55 -55l-823 -823zM457 1536l55 55l512 -512l512 512l55 -55l-567 -567zM713 1536l55 55l256 -256l256 256l55 -55l-311 -311zM969 1536l55 55l55 -55l-55 -55zM1096 641l57 55l950 -952l-55 -55z M1225 768l823 823l55 -55l-768 -768l768 -768l-55 -55zM1481 768l567 567l55 -55l-512 -512l512 -512l-55 -55zM1737 768l311 311l55 -55l-256 -256l256 -256l-55 -55zM1993 768l55 55l55 -55l-55 -55z" />
<glyph unicode="&#xcb;" d="M-55 1536l55 55l768 -768l768 768l55 -55l-823 -823zM201 1536l55 55l512 -512l512 512l55 -55l-567 -567zM457 1536l55 55l256 -256l256 256l55 -55l-311 -311zM713 1536l55 55l55 -55l-55 -55zM840 641l952 950l55 -55l-950 -952zM969 512l1079 1079l55 -55 l-1079 -1079zM1096 385l952 950l55 -55l-950 -952zM1225 256l823 823l55 -55l-768 -768l768 -768l-55 -55zM1481 256l567 567l55 -55l-512 -512l512 -512l-55 -55zM1737 256l311 311l55 -55l-256 -256l256 -256l-55 -55zM1993 256l55 55l55 -55l-55 -55z" />
<glyph unicode="&#xcd;" horiz-adv-x="1024" d="M-55 0l768 768l-256 256l55 55l311 -311l-256 -256l512 -512l-55 -55l-512 512l-457 -457l256 -256l-311 -311l-55 55l256 256zM-55 256l512 512l-256 256l311 311l567 -567l-256 -256l256 -256l-55 -55l-311 311l256 256l-457 457l-201 -201l256 -256l-567 -567z M-55 -256l55 55l55 -55l-55 -55zM-55 512l256 256l-256 256l567 567l567 -567l-55 -55l-512 512l-457 -457l256 -256l-311 -311zM-55 768l55 55l55 -55l-55 -55zM-55 1280l311 311l55 -55l-311 -311zM-55 1536l55 55l55 -55l-55 -55zM201 0l311 311l567 -567l-311 -311 l-55 55l256 256l-457 457l-201 -201l256 -256l-311 -311l-55 55l256 256zM457 0l55 55l311 -311l-311 -311l-55 55l256 256zM713 1536l55 55l311 -311l-55 -55zM969 512l55 55l55 -55l-55 -55zM969 -512l55 55l55 -55l-55 -55zM969 1536l55 55l55 -55l-55 -55z" />
<glyph unicode="&#xce;" d="M-55 0l55 55l55 -55l-55 -55zM-55 -256l256 256l-256 256l55 55l311 -311l-311 -311zM-55 -512l512 512l-512 512l55 55l567 -567l-567 -567zM-55 768l55 55l823 -823l-567 -567l-55 55l512 512zM-55 1024l567 567l55 -55l-512 -512l201 -201l768 768l55 -55l-823 -823z M-55 1280l311 311l55 -55l-311 -311zM-55 1536l55 55l55 -55l-55 -55zM201 1024l567 567l55 -55l-567 -567zM328 641l952 950l823 -823l-55 -55l-768 768l-895 -897zM457 -512l512 512l-512 512l823 823l823 -823l-55 -55l-768 768l-713 -713l1024 -1024l-55 -55l-512 512 l-512 -512zM713 512l567 567l823 -823l-55 -55l-768 768l-457 -457l1024 -1024l-55 -55zM713 -512l311 311l311 -311l-55 -55l-256 256l-256 -256zM969 512l311 311l823 -823l-55 -55l-768 768l-201 -201l1024 -1024l-55 -55zM969 -512l55 55l55 -55l-55 -55zM1225 512 l55 55l823 -823l-55 -55zM1481 1536l55 55l567 -567l-55 -55zM1737 1536l55 55l311 -311l-55 -55zM1993 1536l55 55l55 -55l-55 -55z" />
<glyph unicode="&#xcf;" d="M-55 0l55 55l256 -256l256 256l55 -55l-256 -256l256 -256l-55 -55l-256 256l-256 -256l-55 55l256 256zM-55 256l512 512l-256 256l256 256l-201 201l-256 -256l-55 55l311 311l311 -311l-256 -256l201 -201l256 256l311 -311l-311 -311l-55 55l256 256l-201 201 l-713 -713l201 -201l256 256l311 -311l-256 -256l201 -201l256 256l256 -256l201 201l-256 256l256 256l-201 201l-256 -256l-55 55l311 311l311 -311l-256 -256l201 -201l512 512l55 -55l-823 -823l-256 256l-256 -256l-311 311l256 256l-201 201l-256 -256zM-55 -256 l55 55l55 -55l-55 -55zM-55 512l256 256l-256 256l311 311l55 -55l-256 -256l256 -256l-311 -311zM-55 768l55 55l55 -55l-55 -55zM-55 1536l55 55l55 -55l-55 -55zM201 256l567 567l55 -55l-256 -256l201 -201l457 457l-457 457l-256 -256l-55 55l256 256l-256 256l55 55 l256 -256l256 256l55 -55l-256 -256l457 -457l256 256l55 -55l-256 -256l457 -457l256 256l55 -55l-567 -567l-55 55l256 256l-457 457l-457 -457l201 -201l256 256l55 -55l-256 -256l256 -256l-55 -55l-256 256l-256 -256l-55 55l256 256l-457 457l-256 -256zM201 -512 l55 55l55 -55l-55 -55zM713 1536l55 55l55 -55l-55 -55zM969 -512l55 55l55 -55l-55 -55zM969 1280l311 311l55 -55l-256 -256l201 -201l256 256l311 -311l-256 -256l201 -201l256 256l55 -55l-311 -311l-311 311l256 256l-201 201l-256 -256zM1225 1280l311 311l567 -567 l-311 -311l-55 55l256 256l-457 457l-256 -256zM1481 -512l567 567l55 -55l-567 -567zM1737 -512l311 311l55 -55l-311 -311zM1737 1536l55 55l311 -311l-55 -55zM1993 -512l55 55l55 -55l-55 -55zM1993 1536l55 55l55 -55l-55 -55z" />
<glyph unicode="&#xd1;" d="M-55 0l55 55l256 -256l201 201l-512 512l55 55l567 -567l-311 -311zM-55 -256l55 55l256 -256l457 457l-768 768l55 55l512 -512l457 457l-256 256l311 311l512 -512l457 457l-256 256l55 55l311 -311l-512 -512l512 -512l-55 -55l-1024 1024l-201 -201l1280 -1280 l-55 -55l-1024 1024l-457 -457l201 -201l256 256l55 -55l-823 -823zM-55 256l55 55l311 -311l-55 -55zM-55 -512l55 55l55 -55l-55 -55zM-55 1024l55 55l512 -512l201 201l-256 256l567 567l512 -512l201 201l-256 256l55 55l311 -311l-311 -311l-512 512l-457 -457 l256 -256l-311 -311zM-55 1280l55 55l256 -256l512 512l55 -55l-512 -512l256 -256l-55 -55zM-55 1536l55 55l256 -256l256 256l55 -55l-311 -311zM201 1536l55 55l55 -55l-55 -55zM457 -512l567 567l55 -55l-567 -567zM713 256l311 311l1079 -1079l-55 -55l-1024 1024 l-256 -256zM713 -512l512 512l-129 129l57 55l694 -696l-55 -55l-512 512l-201 -201l256 -256l-55 -55l-256 256l-256 -256zM969 -512l55 55l55 -55l-55 -55zM969 1024l55 55l1079 -1079l-55 -55zM1225 -256l55 55l311 -311l-55 -55zM1225 1536l55 55l311 -311l-55 -55z M1737 768l311 311l55 -55l-256 -256l256 -256l-55 -55zM1993 768l55 55l55 -55l-55 -55zM1993 1536l55 55l55 -55l-55 -55z" />
<glyph unicode="&#xd2;" horiz-adv-x="1024" d="M-55 0l256 256l-256 256l55 55l311 -311l-311 -311zM-55 -256l512 512l-512 512l55 55l567 -567l-512 -512l256 -256l-55 -55zM-55 256l55 55l55 -55l-55 -55zM-55 -512l55 55l55 -55l-55 -55zM-55 1024l55 55l256 -256l457 457l-256 256l55 55l311 -311l-512 -512 l768 -768l-55 -55l-256 256l-457 -457l256 -256l-55 -55l-311 311l512 512zM-55 1280l55 55l256 -256l201 201l-256 256l55 55l311 -311l-311 -311zM-55 1536l55 55l311 -311l-55 -55zM457 -256l311 311l311 -311l-55 -55l-256 256l-201 -201l256 -256l-55 -55zM457 768 l512 512l-256 256l55 55l311 -311l-512 -512l512 -512l-55 -55zM713 -256l55 55l311 -311l-55 -55zM713 768l311 311l55 -55l-256 -256l256 -256l-55 -55zM969 768l55 55l55 -55l-55 -55zM969 1536l55 55l55 -55l-55 -55z" />
<glyph unicode="&#xd3;" horiz-adv-x="1024" d="M-55 0l567 567l256 -256l256 256l55 -55l-311 -311l-256 256l-457 -457l512 -512l-55 -55zM-55 256l567 567l256 -256l256 256l55 -55l-311 -311l-256 256l-512 -512zM-55 -256l55 55l311 -311l-55 -55zM-55 512l1079 1079l55 -55l-1079 -1079zM-55 -512l55 55l55 -55 l-55 -55zM-55 768l823 823l55 -55l-823 -823zM-55 1024l567 567l55 -55l-567 -567zM-55 1280l311 311l55 -55l-311 -311zM-55 1536l55 55l55 -55l-55 -55zM201 0l311 311l256 -256l256 256l55 -55l-256 -256l256 -256l-55 -55l-512 512l-201 -201l512 -512l-55 -55zM457 0 l55 55l567 -567l-55 -55zM584 897l440 438l55 -55l-438 -440zM713 768l311 311l55 -55l-311 -311zM969 0l55 55l55 -55l-55 -55z" />
<glyph unicode="&#xd4;" d="M-55 0l567 567l567 -567l-567 -567l-55 55l512 512l-457 457l-512 -512zM-55 256l512 512l-201 201l-256 -256l-55 55l311 311l1079 -1079l-567 -567l-55 55l512 512l-713 713l-512 -512zM-55 -256l567 567l311 -311l-567 -567l-55 55l512 512l-201 201l-512 -512z M-55 512l311 311l55 -55l-311 -311zM-55 -512l567 567l55 -55l-567 -567zM-55 1024l567 567l55 -55l-256 -256l1792 -1792l-55 -55l-1792 1792l-256 -256zM-55 1280l311 311l55 -55l-311 -311zM-55 1536l55 55l55 -55l-55 -55zM457 1280l311 311l55 -55l-256 -256l129 -127 l-55 -57zM713 1024l567 567l55 -55l-512 -512l713 -713l512 512l55 -55l-512 -512l512 -512l-55 -55zM713 1280l311 311l55 -55l-311 -311zM969 -512l311 311l311 -311l-55 -55l-256 256l-256 -256zM969 1024l567 567l55 -55l-512 -512l457 -457l512 512l55 -55l-567 -567z M1225 -512l55 55l55 -55l-55 -55zM1225 1024l567 567l55 -55l-512 -512l201 -201l512 512l55 -55l-567 -567zM1352 -129l57 57l438 -440l-55 -55zM1481 1024l567 567l55 -55l-567 -567zM1737 256l311 311l55 -55l-256 -256l256 -256l-55 -55zM1993 256l55 55l55 -55l-55 -55 z" />
<glyph unicode="&#xd5;" horiz-adv-x="512" d="M-55 0l256 256l-256 256l55 55l567 -567l-55 -55l-256 256l-256 -256zM-55 256l55 55l55 -55l-55 -55zM-55 -256l55 55l311 -311l-55 -55zM-55 -512l55 55l55 -55l-55 -55zM-55 768l311 311l55 -55l-256 -256l512 -512l-55 -55zM-55 1024l256 256l-256 256l55 55 l567 -567l-55 -55l-256 256l-256 -256zM-55 1280l55 55l55 -55l-55 -55zM72 -129l184 184l311 -311l-55 -55l-256 256l-127 -129zM201 -256l55 55l311 -311l-55 -55zM201 768l55 55l311 -311l-55 -55zM201 1536l55 55l311 -311l-55 -55zM328 897l57 55l182 -184l-55 -55z M457 1536l55 55l55 -55l-55 -55z" />
<glyph unicode="&#xd7;" horiz-adv-x="512" d="M-55 0l55 55l311 -311l-311 -311l-55 55l256 256zM-55 256l440 440l55 -55l-385 -385l512 -512l-55 -55zM-55 -256l55 55l55 -55l-55 -55zM-55 512l256 256l-256 256l55 55l311 -311l-311 -311zM-55 768l55 55l55 -55l-55 -55zM-55 1280l311 311l55 -55l-256 -256 l512 -512l-55 -55zM-55 1536l55 55l55 -55l-55 -55zM201 256l311 311l55 -55l-256 -256l256 -256l-55 -55zM201 -512l184 184l55 -57l-184 -182zM201 1280l311 311l55 -55l-256 -256l256 -256l-55 -55zM457 256l55 55l55 -55l-55 -55zM457 -512l55 55l55 -55l-55 -55z M457 1280l55 55l55 -55l-55 -55z" />
<glyph unicode="&#xd8;" horiz-adv-x="512" d="M-55 0l311 311l311 -311l-55 -55l-256 256l-201 -201l512 -512l-55 -55zM-55 256l184 184l55 -55l-184 -184zM-55 -256l55 55l311 -311l-55 -55zM-55 512l55 55l55 -55l-55 -55zM-55 -512l55 55l55 -55l-55 -55zM-55 768l55 55l567 -567l-55 -55zM-55 1024l567 567 l55 -55l-512 -512l512 -512l-55 -55zM-55 1280l311 311l55 -55l-311 -311zM-55 1536l55 55l55 -55l-55 -55zM201 0l55 55l311 -311l-55 -55zM201 1024l311 311l55 -55l-256 -256l256 -256l-55 -55zM457 1024l55 55l55 -55l-55 -55z" />
<glyph unicode="&#xda;" horiz-adv-x="512" d="M-55 0l512 512l-512 512l55 55l567 -567l-512 -512l512 -512l-55 -55zM-55 256l311 311l55 -55l-311 -311zM-55 -256l55 55l311 -311l-55 -55zM-55 512l55 55l55 -55l-55 -55zM-55 -512l55 55l55 -55l-55 -55zM-55 768l55 55l184 -182l-55 -57zM-55 1280l55 55l184 -182 l-55 -57zM-55 1536l55 55l567 -567l-55 -55zM201 0l55 55l311 -311l-55 -55zM201 1024l55 55l311 -311l-55 -55zM201 1536l55 55l311 -311l-55 -55zM328 129l184 182l55 -55l-182 -184zM457 0l55 55l55 -55l-55 -55zM457 1536l55 55l55 -55l-55 -55z" />
<glyph unicode="&#xdf;" horiz-adv-x="1024" d="M-55 0l256 256l-256 256l55 55l311 -311l-256 -256l457 -457l512 512l55 -55l-567 -567zM-55 256l55 55l55 -55l-55 -55zM-55 -256l55 55l311 -311l-55 -55zM-55 -512l55 55l55 -55l-55 -55zM-55 768l55 55l567 -567l-256 -256l201 -201l457 457l-256 256l311 311l55 -55 l-256 -256l256 -256l-567 -567l-311 311l256 256zM-55 1024l256 256l-256 256l55 55l311 -311l-256 -256l457 -457l512 512l55 -55l-512 -512l256 -256l-311 -311l-55 55l256 256zM-55 1280l55 55l55 -55l-55 -55zM201 1024l256 256l-256 256l55 55l311 -311l-256 -256 l201 -201l457 457l-256 256l55 55l311 -311l-567 -567zM457 1024l256 256l-256 256l55 55l311 -311l-311 -311zM713 -512l311 311l55 -55l-311 -311zM969 512l55 55l55 -55l-55 -55zM969 -512l55 55l55 -55l-55 -55zM969 1536l55 55l55 -55l-55 -55z" />
<glyph unicode="&#xe0;" d="M-55 0l1024 1024l-512 512l55 55l567 -567l-1079 -1079zM-55 -256l1847 1847l55 -55l-1847 -1847zM-55 256l440 440l55 -55l-440 -440zM-55 -512l2103 2103l55 -55l-2103 -2103zM-55 512l256 256l-256 256l55 55l311 -311l-311 -311zM-55 768l55 55l55 -55l-55 -55z M-55 1280l55 55l512 -512l201 201l-512 512l55 55l567 -567l-311 -311zM-55 1536l55 55l567 -567l-55 -55zM713 1536l55 55l440 -440l-55 -55zM969 1536l55 55l256 -256l256 256l55 -55l-311 -311zM1225 1536l55 55l55 -55l-55 -55z" />
<glyph unicode="&#xe3;" horiz-adv-x="512" d="M-55 0l55 55l256 -256l201 201l-512 512l55 55l567 -567l-256 -256l256 -256l-55 -55zM-55 256l55 55l311 -311l-55 -55zM-55 -256l55 55l311 -311l-55 -55zM-55 -512l55 55l55 -55l-55 -55zM-55 768l55 55l567 -567l-55 -55zM-55 1024l256 256l-256 256l55 55l567 -567 l-55 -55l-256 256l-201 -201l512 -512l-55 -55zM-55 1280l55 55l55 -55l-55 -55zM201 1024l55 55l311 -311l-55 -55zM201 1536l55 55l311 -311l-55 -55zM457 -256l55 55l55 -55l-55 -55zM457 1536l55 55l55 -55l-55 -55z" />
<glyph unicode="&#xe4;" d="M-55 0l567 567l55 -55l-567 -567zM-55 -256l768 768l-201 201l-512 -512l-55 55l567 567l311 -311l-823 -823zM-55 -512l1024 1024l-457 457l-512 -512l-55 55l567 567l567 -567l-1079 -1079zM-55 768l823 823l55 -55l-256 -256l641 -639l-55 -57l-641 641l-512 -512z M-55 1024l567 567l55 -55l-567 -567zM-55 1280l311 311l55 -55l-311 -311zM-55 1536l55 55l55 -55l-55 -55zM713 1280l311 311l55 -55l-256 -256l457 -457l768 768l55 -55l-823 -823zM969 1280l311 311l55 -55l-256 -256l201 -201l512 512l55 -55l-567 -567zM1225 1280 l311 311l55 -55l-311 -311z" />
<glyph unicode="&#xe5;" horiz-adv-x="512" d="M-55 0l55 55l256 -256l256 256l55 -55l-311 -311zM-55 256l55 55l256 -256l256 256l55 -55l-311 -311zM-55 -256l55 55l256 -256l256 256l55 -55l-311 -311zM-55 512l55 55l256 -256l256 256l55 -55l-311 -311zM-55 -512l55 55l55 -55l-55 -55zM-55 768l55 55l256 -256 l256 256l55 -55l-311 -311zM-55 1024l55 55l256 -256l256 256l55 -55l-311 -311zM-55 1280l55 55l256 -256l256 256l55 -55l-311 -311zM-55 1536l55 55l256 -256l256 256l55 -55l-311 -311zM201 1536l55 55l55 -55l-55 -55zM457 -512l55 55l55 -55l-55 -55z" />
<glyph unicode="&#xe6;" d="M-55 0l55 55l567 -567l-55 -55zM-55 256l55 55l823 -823l-55 -55zM-55 -256l55 55l311 -311l-55 -55zM-55 512l55 55l1079 -1079l-55 -55zM-55 -512l55 55l55 -55l-55 -55zM-55 768l55 55l512 -512l201 201l-768 768l55 55l768 -768l201 201l-768 768l55 55l823 -823 l-512 -512l768 -768l-55 -55zM-55 1024l55 55l567 -567l-55 -55zM-55 1536l55 55l823 -823l-55 -55zM457 1536l55 55l768 -768l768 768l55 -55l-1280 -1280l768 -768l-55 -55l-823 823l512 512zM713 1536l55 55l512 -512l201 201l-256 256l55 55l256 -256l256 256l55 -55 l-567 -567zM969 256l1079 1079l55 -55l-1024 -1024l768 -768l-55 -55zM969 1536l55 55l311 -311l-55 -55zM1225 256l823 823l55 -55l-768 -768l768 -768l-55 -55zM1481 256l567 567l55 -55l-512 -512l512 -512l-55 -55zM1481 1536l55 55l55 -55l-55 -55zM1737 256l311 311 l55 -55l-256 -256l256 -256l-55 -55zM1993 256l55 55l55 -55l-55 -55z" />
<glyph unicode="&#xe7;" d="M-55 0l55 55l311 -311l-55 -55zM-55 -256l55 55l256 -256l201 201l-512 512l55 55l567 -567l-311 -311zM-55 512l1079 1079l1079 -1079l-55 -55l-1024 1024l-969 -969l768 -768l-311 -311l-55 55l256 256zM-55 -512l55 55l55 -55l-55 -55zM-55 768l823 823l55 -55 l-823 -823zM-55 1024l567 567l55 -55l-567 -567zM-55 1280l311 311l55 -55l-311 -311zM-55 1536l55 55l55 -55l-55 -55zM201 512l823 823l1079 -1079l-55 -55l-1024 1024l-713 -713l1024 -1024l-55 -55zM457 512l567 567l1079 -1079l-55 -55l-256 256l-201 -201l512 -512 l-55 -55l-1079 1079l55 55l512 -512l201 201l-713 713l-457 -457l1024 -1024l-55 -55zM713 512l311 311l567 -567l-55 -55l-512 512l-201 -201l1024 -1024l-55 -55zM713 -512l184 184l55 -57l-184 -182zM969 -512l55 55l55 -55l-55 -55zM1225 1536l55 55l823 -823l-55 -55z M1481 1536l55 55l567 -567l-55 -55zM1737 0l55 55l311 -311l-55 -55zM1737 1536l55 55l311 -311l-55 -55zM1993 1536l55 55l55 -55l-55 -55z" />
<glyph unicode="&#xe8;" d="M-55 0l256 256l-256 256l55 55l311 -311l-311 -311zM-55 -256l512 512l-512 512l55 55l567 -567l-567 -567zM-55 256l55 55l55 -55l-55 -55zM-55 -512l768 768l-768 768l55 55l823 -823l-823 -823zM-55 1280l55 55l952 -950l-55 -57zM-55 1536l55 55l2103 -2103l-55 -55z M201 -512l823 823l823 -823l-55 -55l-768 768l-768 -768zM457 -512l567 567l567 -567l-55 -55l-512 512l-512 -512zM713 -512l311 311l311 -311l-55 -55l-256 256l-256 -256zM969 -512l55 55l55 -55l-55 -55z" />
<glyph unicode="&#xe9;" horiz-adv-x="512" d="M-55 0l55 55l567 -567l-55 -55zM-55 256l55 55l567 -567l-55 -55zM-55 -256l55 55l311 -311l-55 -55zM-55 512l55 55l567 -567l-55 -55zM-55 -512l55 55l55 -55l-55 -55zM-55 768l55 55l567 -567l-55 -55zM-55 1024l55 55l256 -256l256 256l55 -55l-311 -311zM-55 1280 l55 55l256 -256l256 256l55 -55l-311 -311zM-55 1536l55 55l256 -256l256 256l55 -55l-311 -311zM201 1536l55 55l55 -55l-55 -55zM328 641l184 182l55 -55l-182 -184zM457 512l55 55l55 -55l-55 -55z" />
<glyph unicode="&#xeb;" d="M-55 0l768 768l-768 768l55 55l823 -823l-823 -823zM-55 256l512 512l-512 512l55 55l567 -567l-567 -567zM-55 -256l952 952l55 -55l-952 -952zM-55 512l256 256l-256 256l55 55l311 -311l-311 -311zM-55 -512l1079 1079l55 -55l-1079 -1079zM-55 768l55 55l55 -55 l-55 -55zM201 -512l952 952l55 -55l-952 -952zM457 -512l823 823l823 -823l-55 -55l-768 768l-768 -768zM713 -512l567 567l567 -567l-55 -55l-512 512l-512 -512zM969 -512l311 311l311 -311l-55 -55l-256 256l-256 -256zM1225 -512l55 55l55 -55l-55 -55z" />
<glyph unicode="&#xee;" horiz-adv-x="512" d="M-55 0l55 55l55 -55l-55 -55zM-55 -256l256 256l-256 256l55 55l311 -311l-311 -311zM-55 -512l512 512l-512 512l55 55l567 -567l-567 -567zM-55 768l567 567l55 -55l-567 -567zM-55 1024l567 567l55 -55l-567 -567zM-55 1280l311 311l55 -55l-311 -311zM-55 1536l55 55 l55 -55l-55 -55zM72 641l57 55l438 -440l-55 -55zM201 -512l311 311l55 -55l-311 -311zM201 768l311 311l55 -55l-256 -256l256 -256l-55 -55zM457 -512l55 55l55 -55l-55 -55zM457 768l55 55l55 -55l-55 -55z" />
<glyph unicode="&#xf1;" d="M-55 0l55 55l256 -256l201 201l-512 512l55 55l567 -567l-311 -311zM-55 -256l55 55l256 -256l457 457l-768 768l55 55l512 -512l457 457l-256 256l311 311l512 -512l457 457l-256 256l55 55l311 -311l-512 -512l512 -512l-55 -55l-1024 1024l-201 -201l1280 -1280 l-55 -55l-1024 1024l-457 -457l201 -201l256 256l55 -55l-823 -823zM-55 256l55 55l311 -311l-55 -55zM-55 -512l55 55l55 -55l-55 -55zM-55 1024l55 55l512 -512l201 201l-256 256l567 567l512 -512l201 201l-256 256l55 55l311 -311l-311 -311l-512 512l-457 -457 l256 -256l-311 -311zM-55 1280l55 55l256 -256l512 512l55 -55l-512 -512l256 -256l-55 -55zM-55 1536l55 55l256 -256l256 256l55 -55l-311 -311zM201 1536l55 55l55 -55l-55 -55zM457 -512l567 567l55 -55l-567 -567zM713 256l311 311l1079 -1079l-55 -55l-1024 1024 l-256 -256zM713 -512l512 512l-129 129l57 55l694 -696l-55 -55l-512 512l-201 -201l256 -256l-55 -55l-256 256l-256 -256zM969 -512l55 55l55 -55l-55 -55zM969 1024l55 55l1079 -1079l-55 -55zM1225 -256l55 55l311 -311l-55 -55zM1225 1536l55 55l311 -311l-55 -55z M1737 768l311 311l55 -55l-256 -256l256 -256l-55 -55zM1993 768l55 55l55 -55l-55 -55zM1993 1536l55 55l55 -55l-55 -55z" />
<glyph unicode="&#xf5;" horiz-adv-x="512" d="M-55 0l567 567l55 -55l-256 -256l256 -256l-55 -55l-256 256l-256 -256zM-55 256l567 567l55 -55l-567 -567zM-55 -256l184 184l55 -57l-184 -182zM-55 512l311 311l55 -55l-311 -311zM-55 -512l311 311l55 -55l-311 -311zM-55 768l311 311l184 -182l-55 -57l-129 129 l-256 -256zM-55 1024l567 567l55 -55l-256 -256l256 -256l-55 -55l-256 256l-256 -256zM-55 1280l311 311l55 -55l-311 -311zM-55 1536l55 55l55 -55l-55 -55zM201 0l55 55l311 -311l-311 -311l-55 55l256 256zM457 256l55 55l55 -55l-55 -55zM457 -512l55 55l55 -55 l-55 -55zM457 1280l55 55l55 -55l-55 -55z" />
<glyph unicode="&#xf7;" horiz-adv-x="512" d="M-55 0l55 55l311 -311l-311 -311l-55 55l256 256zM-55 256l55 55l567 -567l-311 -311l-55 55l256 256zM-55 -256l55 55l55 -55l-55 -55zM-55 512l55 55l567 -567l-55 -55zM-55 768l55 55l567 -567l-55 -55zM-55 1024l55 55l567 -567l-55 -55zM-55 1280l311 311l55 -55 l-256 -256l512 -512l-55 -55zM-55 1536l55 55l55 -55l-55 -55zM201 1280l311 311l55 -55l-256 -256l256 -256l-55 -55zM457 -512l55 55l55 -55l-55 -55zM457 1280l55 55l55 -55l-55 -55z" />
<glyph unicode="&#xf8;" horiz-adv-x="512" d="M-55 0l55 55l55 -55l-55 -55zM-55 -256l256 256l-256 256l55 55l311 -311l-311 -311zM-55 -512l512 512l-512 512l55 55l567 -567l-567 -567zM-55 768l55 55l567 -567l-55 -55zM-55 1024l55 55l256 -256l201 201l-512 512l55 55l567 -567l-311 -311zM-55 1280l55 55 l311 -311l-55 -55zM201 -512l311 311l55 -55l-311 -311zM201 1536l55 55l311 -311l-55 -55zM328 641l184 182l55 -55l-182 -184zM457 512l55 55l55 -55l-55 -55zM457 -512l55 55l55 -55l-55 -55zM457 1536l55 55l55 -55l-55 -55z" />
<glyph unicode="&#xfc;" horiz-adv-x="512" d="M-55 0l55 55l55 -55l-55 -55zM-55 256l55 55l385 -383l72 72l-512 512l567 567l55 -55l-512 -512l74 -72l383 383l55 -55l-383 -383l383 -385l-567 -567l-55 55l383 385zM-55 -256l184 184l55 -55l-184 -184zM-55 1024l383 385l-127 127l55 55l129 -127l127 127l55 -55 l-567 -567zM-55 1280l184 184l55 -55l-184 -184zM-55 1536l55 55l55 -55l-55 -55zM-33 791l545 544l55 -55l-544 -545zM201 -512l311 311l55 -55l-311 -311zM328 385l57 55l182 -184l-55 -55zM457 512l55 55l55 -55l-55 -55zM457 -512l55 55l55 -55l-55 -55z" />
<glyph unicode="&#x131;" d="M-55 0l55 55l55 -55l-55 -55zM-55 -256l311 311l256 -256l1280 1280l311 -311l-55 -55l-256 256l-1280 -1280l-256 256l-256 -256zM-55 256l55 55l184 -182l-55 -57zM-55 512l55 55l512 -512l1536 1536l55 -55l-1591 -1591zM-55 -512l311 311l55 -55l-311 -311zM-55 768 l823 823l55 -55l-768 -768l457 -457l1280 1280l55 -55l-1335 -1335zM-55 1024l567 567l55 -55l-567 -567zM-55 1280l311 311l55 -55l-311 -311zM-55 1536l55 55l55 -55l-55 -55zM201 -512l184 184l55 -57l-184 -182zM201 768l823 823l55 -55l-768 -768l201 -201l1024 1024 l55 -55l-1079 -1079zM457 -512l1335 1335l311 -311l-55 -55l-256 256l-1280 -1280zM457 768l823 823l55 -55l-823 -823zM713 -512l1079 1079l311 -311l-55 -55l-256 256l-1024 -1024zM969 -512l823 823l311 -311l-567 -567l-55 55l512 512l-201 201l-768 -768zM1225 -512 l567 567l55 -55l-567 -567zM1737 -512l311 311l55 -55l-311 -311zM1864 1153l184 182l55 -55l-182 -184zM1993 -512l55 55l55 -55l-55 -55zM1993 1024l55 55l55 -55l-55 -55z" />
<glyph unicode="&#x152;" d="M-55 0l768 768l-457 457l-256 -256l-55 55l567 567l55 -55l-256 -256l512 -512l-823 -823zM-55 -256l1024 1024l-512 512l311 311l55 -55l-256 -256l1225 -1225l256 256l55 -55l-311 -311l-768 768l-1024 -1024zM-55 256l512 512l-201 201l-256 -256l-55 55l311 311 l311 -311l-567 -567zM-55 -512l1079 1079l768 -768l256 256l55 -55l-567 -567l-55 55l256 256l-713 713l-1024 -1024zM-55 512l311 311l55 -55l-311 -311zM-55 1280l311 311l55 -55l-311 -311zM-55 1536l55 55l55 -55l-55 -55zM201 -512l823 823l567 -567l-311 -311l-55 55 l256 256l-457 457l-768 -768zM457 -512l567 567l55 -55l-567 -567zM713 -512l440 440l55 -57l-440 -438zM713 1280l311 311l55 -55l-256 -256l457 -457l768 768l55 -55l-768 -768l457 -457l256 256l55 -55l-311 -311zM969 -512l311 311l55 -55l-311 -311zM969 1280l311 311 l55 -55l-256 -256l201 -201l512 512l55 -55l-567 -567zM1225 1280l311 311l55 -55l-311 -311zM1481 768l567 567l55 -55l-512 -512l201 -201l256 256l55 -55l-311 -311zM1737 -512l311 311l55 -55l-311 -311zM1737 768l311 311l55 -55l-311 -311zM1993 -512l55 55l55 -55 l-55 -55z" />
<glyph unicode="&#x153;" d="M-55 0l55 55l256 -256l457 457l-768 768l55 55l823 -823l-512 -512l256 -256l-55 -55zM-55 256l55 55l256 -256l201 201l-512 512l55 55l567 -567l-311 -311zM-55 -256l55 55l311 -311l-55 -55zM-55 512l55 55l311 -311l-55 -55zM-55 -512l55 55l55 -55l-55 -55z M-55 1280l55 55l1024 -1024l768 768l311 -311l-55 -55l-256 256l-1225 -1225l256 -256l-55 -55l-311 311l512 512zM-55 1536l55 55l1024 -1024l713 713l-256 256l55 55l567 -567l-55 -55l-256 256l-768 -768zM201 1536l55 55l768 -768l457 457l-256 256l55 55l311 -311 l-567 -567zM457 1536l55 55l567 -567l-55 -55zM713 -256l1079 1079l311 -311l-55 -55l-256 256l-457 -457l768 -768l-55 -55l-768 768l-457 -457l256 -256l-55 -55zM713 1536l55 55l440 -440l-55 -55zM969 -256l311 311l567 -567l-55 -55l-512 512l-201 -201l256 -256 l-55 -55zM969 1536l55 55l311 -311l-55 -55zM1225 -256l55 55l311 -311l-55 -55zM1481 256l311 311l311 -311l-55 -55l-256 256l-201 -201l512 -512l-55 -55zM1737 256l55 55l311 -311l-55 -55zM1737 1536l55 55l311 -311l-55 -55zM1993 1536l55 55l55 -55l-55 -55z" />
<glyph unicode="&#x192;" d="M-55 0l256 256l-256 256l55 55l311 -311l-256 -256l256 -256l-55 -55zM-55 -256l55 55l256 -256l201 201l-256 256l256 256l-512 512l311 311l256 -256l201 201l-256 256l311 311l256 -256l256 256l823 -823l-55 -55l-512 512l-201 -201l256 -256l-311 -311l-311 311 l55 55l256 -256l201 201l-256 256l256 256l-201 201l-256 -256l-256 256l-201 -201l256 -256l-311 -311l-256 256l-201 -201l713 -713l201 201l-256 256l55 55l311 -311l-311 -311l-256 256l-201 -201l256 -256l-311 -311zM-55 256l55 55l55 -55l-55 -55zM-55 -512l55 55 l55 -55l-55 -55zM-55 1024l256 256l-256 256l55 55l256 -256l256 256l55 -55l-256 -256l256 -256l-55 -55l-256 256l-256 -256zM-55 1280l55 55l55 -55l-55 -55zM201 768l55 55l256 -256l457 457l-256 256l55 55l256 -256l256 256l55 -55l-256 -256l256 -256l-55 -55 l-256 256l-201 -201l457 -457l457 457l-256 256l55 55l567 -567l-55 -55l-256 256l-457 -457l256 -256l-55 -55l-256 256l-457 -457l256 -256l-55 -55l-256 256l-256 -256l-55 55l256 256l-256 256l55 55l256 -256l457 457l-457 457l-201 -201l256 -256l-55 -55zM201 1536 l55 55l55 -55l-55 -55zM713 -512l55 55l55 -55l-55 -55zM969 -256l311 311l256 -256l201 201l-256 256l311 311l311 -311l-55 -55l-256 256l-201 -201l256 -256l-311 -311l-256 256l-201 -201l256 -256l-55 -55zM969 1536l55 55l55 -55l-55 -55zM1225 -256l55 55l256 -256 l457 457l-256 256l55 55l311 -311l-567 -567zM1481 1536l55 55l567 -567l-55 -55zM1737 -512l311 311l55 -55l-311 -311zM1737 1536l55 55l311 -311l-55 -55zM1993 -512l55 55l55 -55l-55 -55zM1993 1536l55 55l55 -55l-55 -55z" />
<glyph unicode="&#x2c6;" horiz-adv-x="512" d="M-55 0l256 256l-256 256l55 55l311 -311l-311 -311zM-55 256l55 55l55 -55l-55 -55zM-55 -256l567 567l55 -55l-567 -567zM-55 -512l567 567l55 -55l-567 -567zM-55 768l55 55l440 -438l-55 -57zM-55 1024l567 567l55 -55l-512 -512l512 -512l-55 -55zM-55 1280l311 311 l55 -55l-311 -311zM-55 1536l55 55l55 -55l-55 -55zM201 -512l311 311l55 -55l-311 -311zM201 1024l311 311l55 -55l-256 -256l256 -256l-55 -55zM457 -512l55 55l55 -55l-55 -55zM457 1024l55 55l55 -55l-55 -55z" />
<glyph unicode="&#x2c7;" horiz-adv-x="1024" d="M-55 0l55 55l567 -567l-55 -55zM-55 256l55 55l823 -823l-55 -55zM-55 -256l55 55l311 -311l-55 -55zM-55 512l55 55l1079 -1079l-55 -55zM-55 -512l55 55l55 -55l-55 -55zM-55 768l823 823l55 -55l-768 -768l201 -201l256 256l567 -567l-55 -55l-512 512l-256 -256z M-55 1024l567 567l55 -55l-567 -567zM-55 1280l311 311l55 -55l-311 -311zM-55 1536l55 55l55 -55l-55 -55zM201 768l823 823l55 -55l-823 -823zM328 385l57 55l694 -696l-55 -55zM457 512l55 55l567 -567l-55 -55zM584 897l440 438l55 -55l-438 -440zM713 768l311 311 l55 -55l-256 -256l256 -256l-55 -55zM969 768l55 55l55 -55l-55 -55z" />
<glyph unicode="&#x2d8;" horiz-adv-x="512" d="M-55 0l512 512l-512 512l567 567l55 -55l-512 -512l512 -512l-567 -567zM-55 256l256 256l-256 256l55 55l311 -311l-311 -311zM-55 -256l567 567l55 -55l-567 -567zM-55 512l55 55l55 -55l-55 -55zM-55 -512l567 567l55 -55l-567 -567zM-55 1280l311 311l55 -55 l-311 -311zM-55 1536l55 55l55 -55l-55 -55zM201 -512l311 311l55 -55l-311 -311zM201 1024l311 311l55 -55l-256 -256l256 -256l-55 -55zM457 -512l55 55l55 -55l-55 -55zM457 1024l55 55l55 -55l-55 -55z" />
<glyph unicode="&#x2d9;" horiz-adv-x="1024" d="M-55 0l55 55l567 -567l-55 -55zM-55 256l55 55l823 -823l-55 -55zM-55 -256l55 55l311 -311l-55 -55zM-55 512l55 55l1079 -1079l-55 -55zM-55 -512l55 55l55 -55l-55 -55zM-55 768l55 55l512 -512l256 256l311 -311l-55 -55l-256 256l-256 -256zM-55 1024l567 567 l55 -55l-512 -512l457 -457l256 256l311 -311l-55 -55l-256 256l-256 -256zM-55 1280l311 311l55 -55l-311 -311zM-55 1536l55 55l55 -55l-55 -55zM201 1024l567 567l55 -55l-512 -512l201 -201l512 512l55 -55l-256 -256l256 -256l-55 -55l-256 256l-256 -256zM457 1024 l567 567l55 -55l-567 -567zM584 129l57 55l438 -440l-55 -55zM713 256l55 55l311 -311l-55 -55zM969 1024l55 55l55 -55l-55 -55z" />
<glyph unicode="&#x2da;" d="M-55 0l1591 1591l55 -55l-256 -256l768 -768l-55 -55l-768 768l-1280 -1280zM-55 256l768 768l-201 201l-512 -512l-55 55l823 823l55 -55l-256 -256l256 -256l-823 -823zM-55 -256l440 440l55 -57l-440 -438zM-55 512l567 567l55 -55l-567 -567zM-55 -512l567 567 l55 -55l-567 -567zM-55 1024l567 567l55 -55l-567 -567zM-55 1280l311 311l55 -55l-311 -311zM-55 1536l55 55l55 -55l-55 -55zM201 -512l512 512l-256 256l823 823l823 -823l-55 -55l-768 768l-713 -713l201 -201l512 512l55 -55l-1079 -1079zM457 -512l1024 1024l-201 201 l-512 -512l-55 55l567 567l823 -823l-55 -55l-512 512l-1024 -1024zM713 -512l823 823l567 -567l-55 -55l-512 512l-768 -768zM713 1280l311 311l55 -55l-311 -311zM840 1151l440 440l55 -55l-438 -440zM969 -512l567 567l567 -567l-55 -55l-512 512l-512 -512zM1225 -512 l311 311l311 -311l-55 -55l-256 256l-256 -256zM1481 -512l55 55l55 -55l-55 -55zM1481 1280l311 311l55 -55l-256 -256l512 -512l-55 -55zM1737 1280l311 311l55 -55l-256 -256l256 -256l-55 -55zM1993 1280l55 55l55 -55l-55 -55z" />
<glyph unicode="&#x2db;" d="M-55 0l768 768l-201 215l-512 -526l-55 55l567 586l256 -273l201 199l-256 256l311 311l55 -55l-256 -256l201 -201l512 512l55 -55l-639 -641l201 -199l895 895l55 -55l-768 -768l201 -201l512 512l55 -55l-567 -567l-256 256l-201 -201l256 -256l-823 -823l-311 311 l895 895l-199 201l-74 -72v-2l-28 -27l-795 -794zM-55 256l567 567l55 -55l-567 -567zM-55 -256l952 952l55 -57l-897 -895l256 -256l-55 -55zM-55 -512l55 55l55 -55l-55 -55zM-55 768l512 512l-256 256l55 55l256 -256l256 256l55 -55l-256 -256l256 -256l-55 -55 l-256 256l-512 -512zM-55 1024l256 256l-256 256l55 55l311 -311l-311 -311zM-55 1280l55 55l55 -55l-55 -55zM311 -256l201 -201l713 713l-201 201zM457 -256l567 567l55 -55l-567 -567zM457 1536l55 55l55 -55l-55 -55zM713 -512l768 768l-256 256l55 55l823 -823l-55 -55 l-512 512l-768 -768zM969 -512l567 567l567 -567l-55 -55l-256 256l-256 -256l-55 55l256 256l-201 201l-512 -512zM969 1280l311 311l55 -55l-311 -311zM1096 895l696 696l55 -55l-694 -696zM1225 -512l311 311l55 -55l-311 -311zM1481 768l567 567l55 -55l-567 -567z M1608 383l440 440l55 -55l-438 -440zM1737 256l311 311l55 -55l-256 -256l256 -256l-55 -55zM1737 -512l55 55l55 -55l-55 -55zM1993 256l55 55l55 -55l-55 -55z" />
<glyph unicode="&#x2dc;" d="M-55 0l256 256l-256 256l55 55l311 -311l-311 -311zM-55 -256l512 512l-512 512l55 55l1024 -1024l201 201l-1280 1280l55 55l1024 -1024l457 457l-201 201l-256 -256l-55 55l823 823l311 -311l-55 -55l-256 256l-457 -457l768 -768l-55 -55l-512 512l-457 -457l256 -256 l-311 -311l-512 512l-457 -457l256 -256l-55 -55zM-55 256l55 55l55 -55l-55 -55zM-55 -512l55 55l55 -55l-55 -55zM-55 1024l55 55l1079 -1079l-55 -55zM-55 1536l55 55l1024 -1024l256 256l55 -55l-311 -311zM201 -256l311 311l512 -512l457 457l-256 256l311 311 l567 -567l-55 -55l-512 512l-201 -201l256 -256l-567 -567l-512 512l-201 -201l256 -256l-55 -55zM201 1536l55 55l512 -512l201 201l-256 256l55 55l256 -256l256 256l55 -55l-512 -512l129 -129l-55 -55zM457 -256l55 55l311 -311l-55 -55zM457 1536l55 55l311 -311 l-55 -55zM969 1024l567 567l55 -55l-567 -567zM969 1536l55 55l55 -55l-55 -55zM1225 -512l512 512l-256 256l55 55l567 -567l-55 -55l-256 256l-512 -512zM1481 -512l311 311l311 -311l-55 -55l-256 256l-256 -256zM1481 1024l311 311l311 -311l-55 -55l-256 256l-201 -201 l512 -512l-55 -55zM1737 -512l55 55l55 -55l-55 -55zM1737 1024l55 55l311 -311l-55 -55zM1993 1536l55 55l55 -55l-55 -55z" />
<glyph unicode="&#x2dd;" d="M-55 0l768 768l-256 256l567 567l55 -55l-512 -512l256 -256l-823 -823zM-55 -256l1024 1024l-256 256l567 567l55 -55l-512 -512l256 -256l-1079 -1079zM-55 256l512 512l-201 201l-256 -256l-55 55l311 311l311 -311l-567 -567zM-55 -512l1280 1280l-256 256l567 567 l55 -55l-512 -512l457 -457l512 512l55 -55l-567 -567l-256 256l-1280 -1280zM-55 512l311 311l55 -55l-311 -311zM-55 1024l567 567l55 -55l-567 -567zM-55 1280l311 311l55 -55l-311 -311zM-55 1536l55 55l55 -55l-55 -55zM201 -512l1079 1079l256 -256l512 512l55 -55 l-567 -567l-256 256l-1024 -1024zM328 1151l440 440l55 -55l-438 -440zM457 -512l823 823l256 -256l512 512l55 -55l-567 -567l-256 256l-768 -768zM713 -512l567 567l256 -256l512 512l55 -55l-823 -823l-55 55l256 256l-201 201l-512 -512zM969 -512l311 311l55 -55 l-311 -311zM1225 1024l567 567l55 -55l-512 -512l201 -201l512 512l55 -55l-567 -567zM1481 -512l567 567l55 -55l-567 -567zM1481 1024l567 567l55 -55l-567 -567zM1737 -512l311 311l55 -55l-311 -311zM1993 -512l55 55l55 -55l-55 -55z" />
<glyph unicode="&#x3a9;" d="M-55 0l311 311l55 -55l-311 -311zM-55 -256l512 512l-201 201l-256 -256l-55 55l311 311l311 -311l-567 -567zM-55 -512l768 768l-457 457l-256 -256l-55 55l256 256l-256 256l567 567l55 -55l-512 -512l201 -201l512 512l55 -55l-512 -512l201 -201l256 256l55 -55 l-256 -256l457 -457l256 256l55 -55l-256 -256l201 -201l512 512l55 -55l-512 -512l201 -201l512 512l55 -55l-567 -567l-256 256l-256 -256l-55 55l256 256l-457 457l-768 -768zM-55 768l55 55l55 -55l-55 -55zM-55 1280l311 311l55 -55l-311 -311zM-55 1536l55 55l55 -55 l-55 -55zM201 -512l567 567l311 -311l-311 -311l-55 55l256 256l-201 201l-512 -512zM201 1024l567 567l256 -256l256 256l55 -55l-512 -512l201 -201l512 512l55 -55l-768 -768l201 -201l768 768l55 -55l-512 -512l201 -201l512 512l55 -55l-256 -256l256 -256l-567 -567 l-55 55l512 512l-201 201l-512 -512l-55 55l256 256l-201 201l-256 -256l-311 311l256 256l-201 201l-256 -256l-55 55l512 512l-201 201l-512 -512zM457 -512l311 311l55 -55l-311 -311zM969 512l768 768l-201 201l-512 -512l-55 55l567 567l567 -567l-567 -567l-55 55 l512 512l-201 201l-768 -768zM969 1536l55 55l55 -55l-55 -55zM1225 -512l55 55l55 -55l-55 -55zM1737 -512l311 311l55 -55l-311 -311zM1737 1536l55 55l311 -311l-55 -55zM1993 512l55 55l55 -55l-55 -55zM1993 -512l55 55l55 -55l-55 -55zM1993 1536l55 55l55 -55 l-55 -55z" />
<glyph unicode="&#x3c0;" d="M-55 0l512 512l-512 512l55 55l567 -567l-567 -567zM-55 -256l768 768l-129 129l57 55l1206 -1208l-55 -55l-1024 1024l-768 -768zM-55 256l256 256l-256 256l55 55l311 -311l-311 -311zM-55 -512l823 823l823 -823l-55 -55l-768 768l-768 -768zM-55 512l55 55l55 -55 l-55 -55zM-55 1280l55 55l512 -512l256 256l1335 -1335l-55 -55l-1280 1280l-256 -256zM-55 1536l55 55l567 -567l-55 -55zM201 -512l567 567l567 -567l-55 -55l-512 512l-512 -512zM201 1536l55 55l440 -438l-55 -57zM457 -512l311 311l311 -311l-55 -55l-256 256 l-256 -256zM457 1536l55 55l768 -768l768 768l55 -55l-768 -768l768 -768l-55 -55zM713 -512l55 55l55 -55l-55 -55zM713 768l55 55l1335 -1335l-55 -55zM713 1536l55 55l512 -512l512 512l55 -55l-567 -567zM969 1536l55 55l256 -256l256 256l55 -55l-311 -311zM1225 1536 l55 55l55 -55l-55 -55zM1481 768l567 567l55 -55l-512 -512l512 -512l-55 -55zM1737 768l311 311l55 -55l-256 -256l256 -256l-55 -55zM1993 768l55 55l55 -55l-55 -55z" />
<glyph unicode="&#x2000;" horiz-adv-x="1024" />
<glyph unicode="&#x2001;" />
<glyph unicode="&#x2002;" horiz-adv-x="1024" />
<glyph unicode="&#x2003;" />
<glyph unicode="&#x2013;" horiz-adv-x="512" d="M-55 0l184 184l182 -184l-311 -311l-55 55l256 256l-72 72l-129 -127zM-55 256l567 567l55 -55l-567 -567zM-55 512l256 256l-256 256l567 567l55 -55l-512 -512l256 -256l-311 -311zM-55 -512l512 512l-256 256l311 311l55 -55l-256 -256l256 -256l-567 -567zM-55 768 l55 55l55 -55l-55 -55zM-55 1280l311 311l55 -55l-311 -311zM-55 1536l55 55l55 -55l-55 -55zM201 -512l311 311l55 -55l-311 -311zM201 1024l311 311l55 -55l-256 -256l74 -72l127 127l55 -55l-182 -184zM457 256l55 55l55 -55l-55 -55zM457 -512l55 55l55 -55l-55 -55z " />
<glyph unicode="&#x2014;" horiz-adv-x="512" d="M-55 0l256 256l-256 256l55 55l311 -311l-256 -256l512 -512l-55 -55zM-55 256l55 55l55 -55l-55 -55zM-55 -256l55 55l311 -311l-55 -55zM-55 -512l55 55l55 -55l-55 -55zM-55 768l55 55l567 -567l-55 -55zM-55 1024l55 55l129 -127l72 72l-256 256l55 55l311 -311 l-182 -184zM-55 1536l55 55l567 -567l-256 -256l256 -256l-55 -55l-311 311l256 256zM201 0l184 184l182 -184l-55 -55l-127 127l-74 -72l256 -256l-55 -55zM201 1536l55 55l311 -311l-55 -55zM457 768l55 55l55 -55l-55 -55zM457 1536l55 55l55 -55l-55 -55z" />
<glyph unicode="&#x2018;" d="M-55 0l127 129l-127 127l55 55l184 -182l-184 -184zM-55 -256l311 311l55 -55l-311 -311zM-55 -512l512 512l-512 512l55 55l512 -512l512 512l1079 -1079l-55 -55l-1024 1024l-457 -457l512 -512l-55 -55l-512 512l-512 -512zM-55 768l55 55l512 -512l457 457l-768 768 l55 55l823 -823l-567 -567zM-55 1024l55 55l567 -567l-55 -55zM-55 1280l55 55l696 -694l-55 -57zM-55 1536l55 55l823 -823l-55 -55zM201 -512l311 311l311 -311l-55 -55l-256 256l-256 -256zM457 -512l55 55l55 -55l-55 -55zM457 1536l55 55l768 -768l457 457l-256 256 l55 55l256 -256l256 256l55 -55l-256 -256l256 -256l-55 -55l-256 256l-457 -457l768 -768l-55 -55zM713 0l311 311l823 -823l-55 -55l-768 768l-201 -201l512 -512l-55 -55zM713 1536l55 55l512 -512l201 201l-256 256l55 55l311 -311l-311 -311zM969 0l55 55l567 -567 l-55 -55zM969 1536l55 55l311 -311l-55 -55zM1096 641l57 55l950 -952l-55 -55zM1481 768l311 311l311 -311l-55 -55l-256 256l-201 -201l512 -512l-55 -55zM1737 768l55 55l311 -311l-55 -55zM1737 1536l55 55l55 -55l-55 -55zM1993 1280l55 55l55 -55l-55 -55z" />
<glyph unicode="&#x2019;" d="M-55 0l768 768l-768 768l55 55l768 -768l768 768l55 -55l-1591 -1591zM-55 -256l1847 1847l55 -55l-1847 -1847zM-55 256l512 512l-512 512l55 55l567 -567l-567 -567zM-55 -512l1079 1079l1079 -1079l-55 -55l-1024 1024l-1024 -1024zM-55 512l256 256l-256 256l55 55 l311 -311l-311 -311zM-55 768l55 55l55 -55l-55 -55zM201 -512l823 823l823 -823l-55 -55l-768 768l-768 -768zM201 1536l55 55l440 -438l-55 -57zM457 -512l567 567l567 -567l-55 -55l-512 512l-512 -512zM457 1536l55 55l256 -256l256 256l55 -55l-311 -311zM713 -512 l311 311l55 -55l-311 -311zM713 1024l567 567l55 -55l-567 -567zM713 1536l55 55l55 -55l-55 -55zM969 -512l184 184l182 -184l-55 -55l-127 127l-129 -127zM1096 641l57 55l950 -952l-55 -55zM1225 768l823 823l55 -55l-823 -823zM1352 641l696 694l55 -55l-694 -696z M1481 512l567 567l55 -55l-512 -512l512 -512l-55 -55zM1737 512l311 311l55 -55l-311 -311zM1864 385l184 182l55 -55l-127 -127l127 -129l-55 -55z" />
<glyph unicode="&#x201a;" horiz-adv-x="1024" d="M-55 0l256 256l-256 256l55 55l311 -311l-311 -311zM-55 256l55 55l55 -55l-55 -55zM-55 -256l440 440l55 -55l-440 -440zM-55 -512l567 567l311 -311l-311 -311l-55 55l256 256l-201 201l-512 -512zM-55 768l55 55l1079 -1079l-311 -311l-55 55l256 256zM-55 1024l55 55 l1079 -1079l-55 -55zM-55 1280l311 311l55 -55l-256 -256l1024 -1024l-55 -55zM-55 1536l55 55l55 -55l-55 -55zM201 -512l311 311l55 -55l-311 -311zM201 1280l311 311l55 -55l-256 -256l201 -201l512 512l55 -55l-567 -567zM457 1280l311 311l55 -55l-311 -311zM584 897 l440 438l55 -55l-438 -440zM713 768l311 311l55 -55l-256 -256l256 -256l-55 -55zM969 -512l55 55l55 -55l-55 -55zM969 768l55 55l55 -55l-55 -55z" />
<glyph unicode="&#x201c;" d="M-55 0l567 567l55 -55l-256 -256l201 -201l457 457l-768 768l55 55l1847 -1847l-55 -55l-1024 1024l-457 -457l201 -201l256 256l55 -55l-567 -567l-55 55l256 256l-201 201l-512 -512l-55 55l512 512l-201 201l-256 -256zM-55 256l512 512l-512 512l55 55l823 -823 l-311 -311l-55 55l256 256l-201 201l-512 -512zM-55 -256l311 311l55 -55l-311 -311zM-55 512l127 129l-127 127l55 55l184 -182l-184 -184zM-55 1024l55 55l311 -311l-55 -55zM-55 1536l55 55l55 -55l-55 -55zM72 1409l184 182l512 -512l512 512l55 -55l-512 -512l201 -201 l256 256l55 -55l-256 -256l201 -201l256 256l55 -55l-256 -256l201 -201l512 512l55 -55l-256 -256l256 -256l-55 -55l-256 256l-201 -201l512 -512l-55 -55l-1792 1792l-127 -129zM201 -512l311 311l55 -55l-311 -311zM457 1536l55 55l311 -311l-55 -55zM713 0l311 311 l311 -311l-256 -256l256 -256l-55 -55l-256 256l-256 -256l-55 55l512 512l-201 201l-256 -256zM713 1536l55 55l129 -127l127 127l55 -55l-182 -184zM969 -512l55 55l55 -55l-55 -55zM969 1024l567 567l55 -55l-256 -256l201 -201l512 512l55 -55l-512 -512l201 -201 l256 256l55 -55l-567 -567l-55 55l256 256l-201 201l-256 -256l-55 55l256 256l-201 201l-256 -256zM1225 -256l55 55l311 -311l-55 -55zM1352 -127l57 55l438 -440l-55 -55zM1481 1280l311 311l55 -55l-311 -311zM1737 256l55 55l311 -311l-55 -55zM1737 1024l311 311 l55 -55l-311 -311zM1993 512l55 55l55 -55l-55 -55z" />
<glyph unicode="&#x201d;" d="M-55 0l512 512l-201 201l-256 -256l-55 55l567 567l256 -256l256 256l55 -55l-311 -311l-256 256l-201 -201l256 -256l-567 -567zM-55 256l311 311l55 -55l-311 -311zM-55 -256l55 55l311 -311l-55 -55zM-55 -512l55 55l55 -55l-55 -55zM-55 768l567 567l256 -256 l201 201l-256 256l55 55l567 -567l-256 -256l457 -457l256 256l311 -311l-55 -55l-256 256l-256 -256l-512 512l-383 -385l-57 57l129 127l-256 256l55 55l256 -256l457 457l-201 201l-256 -256l-256 256l-512 -512zM-55 1024l567 567l311 -311l-55 -55l-256 256l-512 -512z M-55 1280l127 129l-127 127l55 55l184 -182l-184 -184zM72 -129l440 440l256 -256l256 256l567 -567l-311 -311l-55 55l256 256l-457 457l-256 -256l-256 256l-383 -385zM201 -256l311 311l256 -256l256 256l311 -311l-311 -311l-55 55l256 256l-201 201l-256 -256l-256 256 l-201 -201l256 -256l-55 -55zM201 1536l55 55l55 -55l-55 -55zM457 -256l55 55l256 -256l256 256l55 -55l-311 -311zM713 256l311 311l512 -512l256 256l311 -311l-55 -55l-256 256l-201 -201l512 -512l-55 -55l-1024 1024l-256 -256zM969 1536l55 55l256 -256l256 256 l256 -256l256 256l55 -55l-311 -311l-256 256l-201 -201l256 -256l-256 -256l201 -201l256 256l311 -311l-55 -55l-256 256l-256 -256l-311 311l256 256zM1225 1536l55 55l55 -55l-55 -55zM1481 -512l184 184l182 -184l-55 -55l-127 127l-129 -127zM1481 768l256 256 l-256 256l55 55l567 -567l-55 -55l-256 256l-256 -256zM1737 0l55 55l311 -311l-55 -55zM1737 1536l55 55l55 -55l-55 -55zM1864 1153l184 182l55 -55l-127 -127l127 -129l-55 -55z" />
<glyph unicode="&#x201e;" d="M-55 0l55 55l512 -512l256 256l311 -311l-55 -55l-256 256l-256 -256zM-55 256l55 55l512 -512l256 256l512 -512l768 768l55 -55l-823 -823l-512 512l-256 -256zM-55 -256l55 55l311 -311l-55 -55zM-55 512l55 55l512 -512l201 201l-768 768l55 55l1280 -1280l256 256 l55 -55l-311 -311l-512 512l-256 -256zM-55 -512l55 55l55 -55l-55 -55zM-55 768l55 55l567 -567l-55 -55zM-55 1280l55 55l512 -512l256 256l512 -512l457 457l-201 201l-256 -256l-512 512l-256 -256l-311 311l55 55l256 -256l256 256l512 -512l256 256l256 -256l256 256 l55 -55l-512 -512l201 -201l256 256l55 -55l-311 -311l-256 256l-256 -256l-512 512l-201 -201l713 -713l256 256l184 -184l-55 -55l-129 129l-256 -256zM-55 1536l55 55l512 -512l256 256l512 -512l256 256l55 -55l-311 -311l-512 512l-256 -256zM457 1536l55 55l55 -55 l-55 -55zM713 -512l55 55l55 -55l-55 -55zM713 768l55 55l512 -512l256 256l256 -256l256 256l55 -55l-311 -311l-256 256l-256 -256zM969 1536l55 55l256 -256l256 256l256 -256l256 256l55 -55l-311 -311l-256 256l-256 -256zM1225 1536l55 55l55 -55l-55 -55zM1481 -512 l55 55l55 -55l-55 -55zM1608 -385l57 57l127 -129l256 256l55 -55l-311 -311zM1737 -256l311 311l55 -55l-311 -311zM1737 768l311 311l55 -55l-311 -311zM1737 1536l55 55l55 -55l-55 -55zM1993 -512l55 55l55 -55l-55 -55z" />
<glyph unicode="&#x2020;" horiz-adv-x="1024" d="M-55 0l823 823l55 -55l-768 -768l512 -512l-55 -55zM-55 256l440 440l55 -55l-440 -440zM-55 -256l55 55l311 -311l-55 -55zM-55 512l256 256l-256 256l55 55l311 -311l-311 -311zM-55 -512l55 55l55 -55l-55 -55zM-55 768l55 55l55 -55l-55 -55zM-55 1280l55 55 l512 -512l256 256l311 -311l-768 -768l512 -512l-55 -55l-567 567l768 768l-201 201l-256 -256zM-55 1536l55 55l567 -567l-55 -55zM201 1536l55 55l440 -438l-55 -57zM457 0l567 567l55 -55l-512 -512l512 -512l-55 -55zM457 1536l55 55l567 -567l-55 -55zM713 0l311 311 l55 -55l-256 -256l256 -256l-55 -55zM713 1536l55 55l311 -311l-55 -55zM969 0l55 55l55 -55l-55 -55zM969 1536l55 55l55 -55l-55 -55z" />
<glyph unicode="&#x2021;" d="M-55 0l311 311l55 -55l-311 -311zM-55 -256l512 512l-201 201l-256 -256l-55 55l311 311l311 -311l-512 -512l256 -256l-55 -55zM-55 512l256 256l-256 256l55 55l768 -768l256 256l55 -55l-256 -256l201 -201l768 768l55 -55l-768 -768l256 -256l-55 -55l-256 256 l-256 -256l-55 55l256 256l-201 201l-256 -256l-55 55l256 256l-457 457l-256 -256zM-55 -512l55 55l55 -55l-55 -55zM-55 768l55 55l55 -55l-55 -55zM-55 1280l311 311l311 -311l-55 -55l-256 256l-201 -201l713 -713l201 201l-256 256l55 55l512 -512l201 201l-256 256 l55 55l256 -256l201 201l-256 256l55 55l567 -567l-768 -768l256 -256l-311 -311l-256 256l-256 -256l-440 438l57 57l127 -129l256 256l55 -55l-256 -256l201 -201l256 256l256 -256l201 201l-256 256l768 768l-201 201l-768 -768l-55 55l256 256l-201 201l-256 -256z M-55 1536l55 55l55 -55l-55 -55zM201 -256l55 55l311 -311l-55 -55zM201 1280l55 55l256 -256l201 201l-256 256l55 55l256 -256l256 256l55 -55l-256 -256l201 -201l512 512l567 -567l-55 -55l-512 512l-201 -201l256 -256l-55 -55l-256 256l-201 -201l256 -256l-55 -55 l-512 512l-201 -201l256 -256l-55 -55zM713 1536l55 55l55 -55l-55 -55zM969 -512l55 55l55 -55l-55 -55zM969 1280l311 311l55 -55l-311 -311zM1481 0l55 55l256 -256l256 256l55 -55l-256 -256l256 -256l-55 -55l-256 256l-256 -256l-55 55l256 256zM1608 129l57 55 l127 -129l256 256l55 -55l-311 -311zM1737 256l311 311l55 -55l-311 -311zM1737 -512l55 55l55 -55l-55 -55zM1737 1536l55 55l311 -311l-55 -55zM1993 -256l55 55l55 -55l-55 -55zM1993 1536l55 55l55 -55l-55 -55z" />
<glyph unicode="&#x2022;" horiz-adv-x="1024" d="M-55 0l311 311l256 -256l512 512l55 -55l-567 -567l-256 256l-256 -256zM-55 256l567 567l184 -182l-57 -57l-127 129l-512 -512zM-55 -256l311 311l184 -184l-57 -55l-127 129l-256 -256zM-55 512l567 567l256 -256l256 256l55 -55l-311 -311l-256 256l-512 -512z M-55 -512l311 311l55 -55l-311 -311zM-55 768l823 823l55 -55l-823 -823zM-55 1024l567 567l55 -55l-567 -567zM-55 1280l311 311l55 -55l-311 -311zM-55 1536l55 55l55 -55l-55 -55zM201 -512l823 823l55 -55l-823 -823zM328 385l55 55l129 -129l512 512l55 -55l-567 -567z M457 512l55 55l55 -55l-55 -55zM457 -512l567 567l55 -55l-567 -567zM584 1153l55 55l129 -129l256 256l55 -55l-311 -311zM713 -512l311 311l55 -55l-311 -311zM713 1280l311 311l55 -55l-311 -311zM969 -512l55 55l55 -55l-55 -55z" />
<glyph unicode="&#x2026;" horiz-adv-x="1024" d="M-55 0l1024 1024l-457 457l-512 -512l-55 55l567 567l567 -567l-1079 -1079zM-55 256l696 696l55 -55l-696 -696zM-55 -256l1079 1079l55 -55l-1079 -1079zM-55 512l567 567l55 -55l-567 -567zM-55 -512l1079 1079l55 -55l-512 -512l512 -512l-55 -55l-512 512l-512 -512 zM-55 768l567 567l311 -311l-55 -55l-256 256l-512 -512zM-55 1280l311 311l55 -55l-311 -311zM-55 1536l55 55l55 -55l-55 -55zM201 -512l311 311l311 -311l-55 -55l-256 256l-256 -256zM457 -512l55 55l55 -55l-55 -55zM713 0l311 311l55 -55l-256 -256l256 -256l-55 -55z M713 1536l55 55l311 -311l-55 -55zM969 0l55 55l55 -55l-55 -55zM969 1536l55 55l55 -55l-55 -55z" />
<glyph unicode="&#x2030;" horiz-adv-x="1024" d="M-55 0l768 768l-457 457l-256 -256l-55 55l311 311l256 -256l201 201l-256 256l55 55l567 -567l-55 -55l-256 256l-201 -201l256 -256l-823 -823zM-55 256l512 512l-201 201l-256 -256l-55 55l311 311l311 -311l-567 -567zM-55 -256l1024 1024l-256 256l55 55l311 -311 l-512 -512l512 -512l-55 -55l-512 512l-201 -201l512 -512l-55 -55l-512 512l-256 -256zM-55 512l311 311l55 -55l-311 -311zM-55 -512l311 311l311 -311l-55 -55l-256 256l-256 -256zM-55 1280l311 311l311 -311l-55 -55l-256 256l-256 -256zM-55 1536l55 55l55 -55 l-55 -55zM201 -512l55 55l55 -55l-55 -55zM457 0l55 55l567 -567l-55 -55zM713 256l311 311l55 -55l-256 -256l256 -256l-55 -55zM713 1536l55 55l311 -311l-55 -55zM969 256l55 55l55 -55l-55 -55zM969 1536l55 55l55 -55l-55 -55z" />
<glyph unicode="&#x2039;" d="M-55 0l55 55l311 -311l-311 -311l-55 55l256 256zM-55 256l55 55l567 -567l-55 -55zM-55 -256l55 55l55 -55l-55 -55zM-55 512l55 55l1024 -1024l768 768l311 -311l-55 -55l-256 256l-768 -768zM-55 768l55 55l1024 -1024l256 256l55 -55l-311 -311zM-55 1024l256 256 l-256 256l55 55l311 -311l-256 -256l256 -256l-55 -55zM-55 1280l55 55l55 -55l-55 -55zM201 -512l184 184l182 -184l-55 -55l-127 127l-129 -127zM201 1024l256 256l-256 256l55 55l311 -311l-256 -256l256 -256l-182 -184l-57 57l129 127zM457 512l256 256l-256 256 l256 256l-256 256l55 55l311 -311l-256 -256l256 -256l-256 -256l457 -457l713 713l-256 256l256 256l-256 256l55 55l311 -311l-256 -256l512 -512l-55 -55l-256 256l-768 -768zM584 -383l57 55l182 -184l-55 -55zM713 512l256 256l-256 256l256 256l-256 256l55 55 l311 -311l-256 -256l256 -256l-256 -256l256 -256l-55 -55zM969 512l256 256l-256 256l256 256l-256 256l55 55l311 -311l-256 -256l256 -256l-311 -311zM1096 385l385 383l-256 256l256 256l-256 256l55 55l311 -311l-256 -256l256 -256l-438 -440zM1225 -512l311 311 l55 -55l-311 -311zM1352 129l440 438l311 -311l-55 -55l-256 256l-383 -385zM1481 -512l311 311l55 -55l-311 -311zM1608 -127l184 182l311 -311l-311 -311l-55 55l256 256l-201 201l-127 -129zM1737 1024l311 311l55 -55l-256 -256l256 -256l-55 -55zM1737 1536l55 55 l184 -182l-55 -57zM1993 -512l55 55l55 -55l-55 -55zM1993 1024l55 55l55 -55l-55 -55zM1993 1536l55 55l55 -55l-55 -55z" />
<glyph unicode="&#x203a;" d="M-55 0l311 311l256 -256l256 256l256 -256l457 457l-713 713l-256 -256l-256 256l-256 -256l-55 55l311 311l256 -256l512 512l55 -55l-256 -256l768 -768l-567 -567l-256 256l-256 -256l-256 256l-256 -256zM-55 256l311 311l256 -256l256 256l256 -256l129 129l55 -55 l-184 -184l-256 256l-256 -256l-256 256l-256 -256zM-55 -256l311 311l256 -256l256 256l184 -182l-55 -57l-129 129l-256 -256l-256 256l-256 -256zM-55 512l311 311l256 -256l256 256l311 -311l-55 -55l-256 256l-256 -256l-256 256l-256 -256zM-55 -512l311 311l256 -256 l256 256l55 -55l-311 -311l-256 256l-256 -256zM-55 768l311 311l256 -256l256 256l567 -567l-55 -55l-512 512l-256 -256l-256 256l-256 -256zM-55 1280l311 311l55 -55l-311 -311zM-55 1536l55 55l55 -55l-55 -55zM201 -512l55 55l55 -55l-55 -55zM328 1409l184 182 l55 -55l-127 -127l72 -74l256 256l55 -55l-311 -311zM713 -512l1024 1024l-768 768l311 311l55 -55l-256 -256l768 -768l-1079 -1079zM969 -512l1024 1024l-768 768l311 311l55 -55l-256 -256l768 -768l-1079 -1079zM1225 -512l567 567l311 -311l-55 -55l-256 256l-512 -512 zM1481 -512l311 311l311 -311l-55 -55l-256 256l-256 -256zM1481 1280l311 311l311 -311l-55 -55l-256 256l-201 -201l512 -512l-55 -55zM1737 -512l55 55l55 -55l-55 -55zM1737 1280l55 55l311 -311l-55 -55zM1864 129l184 182l55 -55l-127 -127l127 -129l-55 -55z M1993 1536l55 55l55 -55l-55 -55z" />
<glyph unicode="&#x2044;" horiz-adv-x="512" d="M-55 0l311 311l311 -311l-55 -55l-256 256l-256 -256zM-55 256l567 567l55 -55l-567 -567zM-55 -256l184 184l55 -57l-184 -182zM-55 512l55 55l55 -55l-55 -55zM-55 -512l311 311l311 -311l-55 -55l-256 256l-256 -256zM-55 768l55 55l184 -182l-55 -57zM-55 1024l55 55 l256 -256l256 256l55 -55l-311 -311zM-55 1280l55 55l311 -311l-55 -55zM-55 1536l55 55l256 -256l256 256l55 -55l-311 -311zM201 0l55 55l311 -311l-55 -55zM201 -512l55 55l55 -55l-55 -55zM201 1536l55 55l55 -55l-55 -55zM328 385l57 55l182 -184l-55 -55zM328 1153 l184 182l55 -55l-182 -184zM457 512l55 55l55 -55l-55 -55z" />
<glyph unicode="&#x20ac;" d="M-55 0l512 512l-512 512l55 55l512 -512l256 256l256 -256l768 768l311 -311l-55 -55l-256 256l-768 -768l-256 256l-768 -768zM-55 -256l823 823l256 -256l768 768l184 -182l-57 -57l-127 129l-768 -768l-256 256l-768 -768zM-55 256l55 55l55 -55l-55 -55zM-55 -512 l823 823l256 -256l768 768l55 -55l-823 -823l-256 256l-768 -768zM-55 512l55 55l127 -127l74 72l-256 256l55 55l311 -311l-184 -184zM-55 1280l311 311l55 -55l-256 -256l457 -457l256 256l256 -256l768 768l311 -311l-55 -55l-256 256l-768 -768l-256 256l-256 -256z M-55 1536l55 55l55 -55l-55 -55zM201 -512l567 567l256 -256l1024 1024l55 -55l-1079 -1079l-256 256l-512 -512zM201 1280l311 311l55 -55l-256 -256l201 -201l256 256l256 -256l512 512l55 -55l-567 -567l-256 256l-256 -256zM457 -512l311 311l256 -256l1024 1024l55 -55 l-1079 -1079l-256 256l-256 -256zM457 1280l311 311l256 -256l256 256l55 -55l-311 -311l-256 256l-256 -256zM713 -512l55 55l55 -55l-55 -55zM969 1536l55 55l55 -55l-55 -55zM1225 -512l823 823l55 -55l-823 -823zM1481 -512l567 567l55 -55l-567 -567zM1737 -512 l311 311l55 -55l-311 -311zM1993 -512l55 55l55 -55l-55 -55zM1993 1536l55 55l55 -55l-55 -55z" />
<glyph unicode="&#x2122;" d="M-55 0l55 55l55 -55l-55 -55zM-55 -256l256 256l-256 256l55 55l311 -311l-311 -311zM-55 -512l512 512l-512 512l55 55l567 -567l-567 -567zM-55 768l55 55l512 -512l639 641l57 -55l-641 -641l129 -127l-57 -57zM-55 1024l55 55l512 -512l512 512l55 -55l-567 -567z M-55 1280l311 311l55 -55l-256 -256l457 -457l512 512l567 -567l-512 -512l201 -201l512 512l184 -182l-57 -57l-127 129l-512 -512l-311 311l512 512l-457 457l-512 -512zM-55 1536l55 55l55 -55l-55 -55zM201 -512l567 567l567 -567l-55 -55l-512 512l-512 -512zM201 1280 l311 311l55 -55l-311 -311zM328 1153l440 438l55 -55l-440 -440zM457 -512l311 311l311 -311l-55 -55l-256 256l-256 -256zM457 1024l567 567l1079 -1079l-55 -55l-256 256l-512 -512l-55 55l512 512l-713 713l-512 -512zM713 256l567 567l55 -55l-512 -512l457 -457 l512 512l55 -55l-512 -512l201 -201l512 512l55 -55l-567 -567zM713 -512l55 55l55 -55l-55 -55zM1225 1536l55 55l823 -823l-55 -55zM1481 -256l567 567l55 -55l-567 -567zM1481 1536l55 55l567 -567l-55 -55zM1737 -512l311 311l55 -55l-311 -311zM1737 1536l55 55 l311 -311l-55 -55zM1993 -512l55 55l55 -55l-55 -55zM1993 1536l55 55l55 -55l-55 -55z" />
<glyph unicode="&#x2202;" d="M-55 0l512 512l-512 512l55 55l512 -512l512 512l823 -823l-823 -823l-55 55l768 768l-713 713l-1024 -1024zM-55 -256l1079 1079l567 -567l-823 -823l-55 55l768 768l-457 457l-1024 -1024zM-55 256l256 256l-256 256l55 55l311 -311l-311 -311zM-55 -512l1079 1079 l311 -311l-823 -823l-55 55l768 768l-201 201l-1024 -1024zM-55 512l55 55l55 -55l-55 -55zM-55 1280l55 55l512 -512l768 768l55 -55l-823 -823zM-55 1536l55 55l512 -512l512 512l55 -55l-567 -567zM201 -512l823 823l55 -55l-823 -823zM201 1536l55 55l256 -256l256 256 l55 -55l-311 -311zM457 1536l55 55l55 -55l-55 -55zM1096 1153l57 55l950 -952l-823 -823l-55 55l768 768zM1225 1280l311 311l567 -567l-55 -55l-512 512l-201 -201l768 -768l-55 -55zM1481 -512l567 567l55 -55l-567 -567zM1481 1280l55 55l567 -567l-55 -55zM1737 -512 l311 311l55 -55l-311 -311zM1737 1536l55 55l311 -311l-55 -55zM1993 -512l55 55l55 -55l-55 -55zM1993 1536l55 55l55 -55l-55 -55z" />
<glyph unicode="&#x2206;" d="M-55 0l55 55l256 -256l1792 1792l55 -55l-1792 -1792l256 -256l-55 -55zM-55 256l55 55l256 -256l129 129l55 -55l-184 -184zM-55 -256l55 55l311 -311l-55 -55zM-55 512l55 55l311 -311l-55 -55zM-55 -512l55 55l55 -55l-55 -55zM-55 768l55 55l512 -512l713 713 l-512 512l55 55l512 -512l512 512l55 -55l-1335 -1335zM-55 1024l55 55l512 -512l457 457l-512 512l55 55l567 -567l-567 -567zM-55 1280l55 55l512 -512l201 201l-512 512l55 55l567 -567l-311 -311zM-55 1536l55 55l567 -567l-55 -55zM457 -256l1079 1079l567 -567 l-55 -55l-512 512l-713 -713l512 -512l-55 -55l-512 512l-201 -201l256 -256l-55 -55zM713 -256l55 55l311 -311l-55 -55zM969 0l567 567l567 -567l-55 -55l-512 512l-457 -457l512 -512l-55 -55zM969 1536l55 55l256 -256l256 256l55 -55l-311 -311zM1225 0l311 311 l567 -567l-55 -55l-512 512l-201 -201l512 -512l-55 -55zM1225 1536l55 55l55 -55l-55 -55zM1481 0l55 55l567 -567l-55 -55zM1608 897l440 438l55 -55l-438 -440zM1737 768l311 311l55 -55l-256 -256l256 -256l-55 -55zM1993 768l55 55l55 -55l-55 -55z" />
<glyph unicode="&#x220f;" d="M-55 0l768 768l-768 768l55 55l823 -823l-823 -823zM-55 -256l1024 1024l-768 768l55 55l768 -768l129 129l55 -55l-1208 -1208zM-55 256l512 512l-512 512l55 55l567 -567l-567 -567zM-55 512l256 256l-256 256l55 55l311 -311l-311 -311zM-55 -512l1335 1335l55 -55 l-1335 -1335zM-55 768l55 55l55 -55l-55 -55zM201 -512l1280 1280l-256 256l567 567l55 -55l-512 -512l256 -256l-1335 -1335zM457 -512l1591 1591l55 -55l-768 -768l768 -768l-55 -55l-768 768l-768 -768zM457 1536l55 55l512 -512l512 512l55 -55l-567 -567zM713 -512 l567 567l567 -567l-55 -55l-512 512l-512 -512zM713 1536l55 55l256 -256l256 256l55 -55l-311 -311zM969 -512l311 311l311 -311l-55 -55l-256 256l-256 -256zM969 1536l55 55l55 -55l-55 -55zM1225 -512l55 55l55 -55l-55 -55zM1481 256l567 567l55 -55l-512 -512 l512 -512l-55 -55zM1481 1024l567 567l55 -55l-567 -567zM1608 897l440 438l55 -55l-438 -440zM1737 256l311 311l55 -55l-256 -256l256 -256l-55 -55zM1993 256l55 55l55 -55l-55 -55z" />
<glyph unicode="&#x2211;" d="M-55 0l55 55l55 -55l-55 -55zM-55 256l512 512l-256 256l567 567l55 -55l-512 -512l256 -256l-512 -512l768 -768l-55 -55zM-55 -256l184 184l55 -57l-129 -127l256 -256l-55 -55zM-55 512l256 256l-256 256l567 567l55 -55l-512 -512l256 -256l-311 -311zM-55 -512 l55 55l55 -55l-55 -55zM-55 768l55 55l55 -55l-55 -55zM-55 1280l311 311l55 -55l-311 -311zM-55 1536l55 55l55 -55l-55 -55zM201 256l512 512l-256 256l567 567l55 -55l-512 -512l201 -201l768 768l55 -55l-1280 -1280l256 -256l-55 -55zM201 -256l55 55l311 -311l-55 -55 zM457 256l1335 1335l55 -55l-512 -512l256 -256l-512 -512l457 -457l201 201l-256 256l512 512l-256 256l311 311l55 -55l-256 -256l256 -256l-512 -512l256 -256l-256 -256l256 -256l-55 -55l-512 512l-201 -201l256 -256l-55 -55l-311 311l256 256l-256 256l512 512 l-201 201l-713 -713l256 -256l-182 -184l-57 55l129 129zM713 -256l256 256l-256 256l567 567l55 -55l-512 -512l256 -256l-256 -256l256 -256l-55 -55zM713 1024l567 567l55 -55l-567 -567zM1225 256l512 512l-256 256l567 567l55 -55l-512 -512l256 -256l-512 -512 l256 -256l-55 -55zM1225 -256l55 55l311 -311l-55 -55zM1737 -256l256 256l-256 256l311 311l55 -55l-256 -256l256 -256l-256 -256l256 -256l-55 -55zM1993 256l55 55l55 -55l-55 -55zM1993 -256l55 55l55 -55l-55 -55zM1993 1024l55 55l55 -55l-55 -55z" />
<glyph unicode="&#x221a;" d="M-55 0l55 55l512 -512l1024 1024l55 -55l-512 -512l201 -201l256 256l567 -567l-55 -55l-512 512l-512 -512l-55 55l256 256l-201 201l-512 -512zM-55 256l55 55l256 -256l768 768l55 -55l-768 -768l201 -201l1024 1024l567 -567l-55 -55l-256 256l-201 -201l512 -512 l-55 -55l-512 512l-256 -256l-55 55l512 512l-201 201l-1024 -1024zM-55 -256l55 55l311 -311l-55 -55zM-55 512l55 55l311 -311l-55 -55zM-55 -512l55 55l55 -55l-55 -55zM-55 768l55 55l440 -440l-55 -55zM-55 1024l55 55l512 -512l1024 1024l311 -311l-55 -55l-256 256 l-457 -457l201 -201l256 256l567 -567l-55 -55l-512 512l-1024 -1024l-55 55l768 768l-201 201l-512 -512zM-55 1280l55 55l512 -512l385 385l55 -57l-440 -438zM-55 1536l55 55l512 -512l256 256l55 -55l-311 -311zM201 1536l55 55l256 -256l256 256l256 -256l256 256 l55 -55l-311 -311l-256 256l-256 -256zM457 1536l55 55l55 -55l-55 -55zM713 -512l311 311l55 -55l-311 -311zM969 1536l55 55l55 -55l-55 -55zM1225 -512l311 311l311 -311l-55 -55l-256 256l-256 -256zM1225 1024l311 311l256 -256l201 201l-256 256l55 55l311 -311 l-256 -256l256 -256l-55 -55l-512 512l-256 -256zM1481 -512l55 55l55 -55l-55 -55zM1737 256l55 55l311 -311l-55 -55zM1993 1024l55 55l55 -55l-55 -55zM1993 1536l55 55l55 -55l-55 -55z" />
<glyph unicode="&#x221e;" d="M-55 0l567 567l55 -55l-567 -567zM-55 -256l768 768l-201 201l-512 -512l-55 55l567 567l311 -311l-823 -823zM-55 -512l1024 1024l-457 457l-512 -512l-55 55l512 512l-256 256l311 311l55 -55l-256 -256l457 -457l768 768l55 -55l-768 -768l457 -457l768 768l55 -55 l-768 -768l457 -457l256 256l55 -55l-311 -311l-256 256l-512 -512l-55 55l512 512l-457 457l-1024 -1024zM-55 768l256 256l-256 256l311 311l55 -55l-256 -256l256 -256l-311 -311zM-55 1536l55 55l55 -55l-55 -55zM-51 1024l51 51l51 -51l-51 -51zM201 -512l823 823 l311 -311l-567 -567l-55 55l512 512l-201 201l-768 -768zM457 -512l567 567l55 -55l-567 -567zM457 1280l311 311l55 -55l-256 -256l201 -201l512 512l55 -55l-567 -567zM713 1280l311 311l55 -55l-311 -311zM969 768l823 823l55 -55l-768 -768l201 -201l768 768l55 -55 l-823 -823zM1225 -512l311 311l311 -311l-55 -55l-256 256l-256 -256zM1225 768l823 823l55 -55l-823 -823zM1481 256l567 567l55 -55l-512 -512l201 -201l256 256l55 -55l-311 -311zM1481 -512l55 55l55 -55l-55 -55zM1737 256l311 311l55 -55l-311 -311zM1864 -385 l184 184l55 -55l-127 -129l127 -127l-55 -55z" />
<glyph unicode="&#x222b;" d="M-55 0l55 55l567 -567l-55 -55zM-55 256l567 567l1335 -1335l-55 -55l-1280 1280l-457 -457l768 -768l-55 -55zM-55 -256l55 55l311 -311l-55 -55zM-55 512l567 567l1591 -1591l-55 -55l-1536 1536l-512 -512zM-55 -512l55 55l55 -55l-55 -55zM-55 768l184 184l55 -55 l-184 -184zM-55 1024l55 55l55 -55l-55 -55zM-55 1280l55 55l256 -256l256 256l1280 -1280l256 256l55 -55l-311 -311l-1280 1280l-256 -256zM-55 1536l55 55l311 -311l-55 -55zM201 256l311 311l1079 -1079l-55 -55l-1024 1024l-201 -201l768 -768l-55 -55zM201 1536l55 55 l184 -182l-55 -57zM457 256l55 55l823 -823l-55 -55zM457 1536l55 55l1280 -1280l256 256l55 -55l-311 -311zM713 1536l55 55l1024 -1024l256 256l55 -55l-311 -311zM969 1536l55 55l768 -768l201 201l-512 512l55 55l567 -567l-311 -311zM1225 1536l55 55l567 -567l-55 -55 zM1737 1536l55 55l311 -311l-55 -55zM1864 -129l57 57l182 -184l-55 -55zM1993 0l55 55l55 -55l-55 -55zM1993 1536l55 55l55 -55l-55 -55z" />
<glyph unicode="&#x2248;" d="M-55 0l55 55l256 -256l201 201l-512 512l55 55l567 -567l-567 -567l-55 55l256 256zM-55 256l55 55l311 -311l-55 -55zM-55 -256l55 55l55 -55l-55 -55zM-55 768l55 55l768 -768l256 256l55 -55l-823 -823l-55 55l512 512zM-55 1024l311 311l897 -895l199 199l-72 74h-2 l-27 28l-794 795l55 55l768 -768l215 201l-526 512l55 55l584 -567l-271 -256l199 -201l256 256l311 -311l-55 -55l-256 256l-201 -201l512 -512l-55 -55l-639 639l-201 -201l895 -895l-55 -55l-768 768l-201 -201l512 -512l-55 -55l-567 567l256 256l-201 201l-256 -256z M-55 1280l311 311l952 -952l-55 -55l-897 897l-256 -256zM-55 1536l55 55l55 -55l-55 -55zM55 1024l713 -713l201 201l-713 713zM201 1024l55 55l567 -567l-55 -55zM457 -512l311 311l311 -311l-55 -55l-256 256l-256 -256zM713 -512l55 55l55 -55l-55 -55zM713 1536l55 55 l567 -567l-55 -55zM840 -129l57 57l438 -440l-55 -55zM1225 0l55 55l567 -567l-55 -55zM1225 1536l55 55l512 -512l256 256l55 -55l-256 -256l256 -256l-55 -55l-256 256l-256 -256l-55 55l256 256zM1352 383l57 57l694 -696l-55 -55zM1481 1536l55 55l256 -256l256 256 l55 -55l-311 -311zM1737 512l55 55l311 -311l-55 -55zM1737 1536l55 55l55 -55l-55 -55zM1993 1024l55 55l55 -55l-55 -55z" />
<glyph unicode="&#x2260;" horiz-adv-x="512" d="M-55 0l256 256l-256 256l55 55l567 -567l-55 -55l-256 256l-256 -256zM-55 256l55 55l55 -55l-55 -55zM-55 -256l311 311l311 -311l-55 -55l-256 256l-256 -256zM-55 -512l311 311l311 -311l-55 -55l-256 256l-256 -256zM-55 768l55 55l567 -567l-55 -55zM-55 1024l55 55 l256 -256l256 256l55 -55l-256 -256l256 -256l-55 -55zM-55 1280l55 55l256 -256l256 256l55 -55l-311 -311zM-55 1536l55 55l256 -256l256 256l55 -55l-311 -311zM201 -512l55 55l55 -55l-55 -55zM201 1536l55 55l55 -55l-55 -55zM457 768l55 55l55 -55l-55 -55z" />
<glyph unicode="&#x2264;" horiz-adv-x="512" d="M-55 0l55 55l55 -55l-55 -55zM-55 256l55 55l256 -256l256 256l55 -55l-311 -311zM-55 -256l184 184l55 -57l-129 -127l256 -256l-55 -55zM-55 512l512 512l-256 256l311 311l55 -55l-256 -256l256 -256l-512 -512l256 -256l-55 -55zM-55 -512l55 55l55 -55l-55 -55z M-55 768l256 256l-256 256l311 311l55 -55l-256 -256l256 -256l-311 -311zM-55 1024l55 55l55 -55l-55 -55zM-55 1536l55 55l55 -55l-55 -55zM201 -256l311 311l55 -55l-256 -256l256 -256l-55 -55zM201 512l311 311l55 -55l-256 -256l129 -127l-55 -57zM457 -256l55 55 l55 -55l-55 -55zM457 512l55 55l55 -55l-55 -55zM457 1280l55 55l55 -55l-55 -55z" />
<glyph unicode="&#x2265;" horiz-adv-x="512" d="M-55 0l512 512l-256 256l55 55l311 -311l-512 -512l256 -256l-311 -311l-55 55l256 256zM-55 256l256 256l-256 256l567 567l55 -55l-512 -512l256 -256l-311 -311zM-55 -256l55 55l55 -55l-55 -55zM-55 512l55 55l55 -55l-55 -55zM-55 1024l256 256l-256 256l55 55 l311 -311l-311 -311zM-55 1280l55 55l55 -55l-55 -55zM201 0l311 311l55 -55l-256 -256l256 -256l-55 -55zM201 -512l184 184l182 -184l-55 -55l-127 127l-129 -127zM201 1536l55 55l129 -127l127 127l55 -55l-182 -184zM328 897l184 182l55 -55l-127 -127l127 -129l-55 -55 zM457 0l55 55l55 -55l-55 -55z" />
<glyph unicode="&#x25ca;" d="M-55 0l55 55l55 -55l-55 -55zM-55 -256l256 256l-256 256l256 256l-256 256l55 55l311 -311l-256 -256l256 -256l-311 -311zM-55 512l55 55l55 -55l-55 -55zM-55 -512l512 512l-256 256l55 55l311 -311l-567 -567zM-55 1024l311 311l55 -55l-256 -256l457 -457l201 201 l-256 256l567 567l55 -55l-512 -512l1024 -1024l-55 -55l-768 768l-201 -201l512 -512l-567 -567l-55 55l512 512zM-55 1280l311 311l256 -256l256 256l55 -55l-512 -512l256 -256l-55 -55l-311 311l256 256l-201 201l-256 -256zM-55 1536l55 55l55 -55l-55 -55zM201 -512 l512 512l-385 383l57 57l438 -440l-567 -567zM457 1536l55 55l55 -55l-55 -55zM713 512l55 55l768 -768l201 201l-1024 1024l567 567l55 -55l-256 -256l201 -201l512 512l55 -55l-512 -512l256 -256l-55 -55l-512 512l-201 -201l1024 -1024l-567 -567l-55 55l256 256z M713 -512l440 440l55 -57l-440 -438zM969 -512l311 311l55 -55l-311 -311zM969 1024l55 55l512 -512l201 201l-256 256l567 567l55 -55l-512 -512l512 -512l-55 -55l-256 256l-201 -201l512 -512l-567 -567l-55 55l512 512zM1225 1280l311 311l55 -55l-311 -311zM1737 512 l55 55l311 -311l-55 -55zM1737 -512l311 311l55 -55l-311 -311zM1737 1024l311 311l55 -55l-256 -256l256 -256l-55 -55zM1993 -512l55 55l55 -55l-55 -55zM1993 1024l55 55l55 -55l-55 -55z" />
<glyph unicode="&#x25fc;" horiz-adv-x="1587" d="M0 0v1587h1587v-1587h-1587z" />
<glyph unicode="&#xf8ff;" d="M-55 0l55 55l567 -567l-55 -55zM-55 256l55 55l256 -256l256 256l823 -823l-55 -55l-768 768l-201 -201l512 -512l-55 -55zM-55 -256l55 55l311 -311l-55 -55zM-55 512l55 55l311 -311l-55 -55zM-55 -512l55 55l55 -55l-55 -55zM-55 768l55 55l440 -440l-55 -55z M-55 1024l55 55l256 -256l768 768l55 -55l-768 -768l1280 -1280l-55 -55zM-55 1280l55 55l256 -256l512 512l55 -55l-567 -567zM-55 1536l55 55l256 -256l256 256l55 -55l-311 -311zM201 1536l55 55l55 -55l-55 -55zM457 0l55 55l567 -567l-55 -55zM457 768l823 823l55 -55 l-768 -768l713 -713l201 201l-512 512l55 55l1079 -1079l-55 -55l-512 512l-256 -256zM713 768l823 823l55 -55l-512 -512l1024 -1024l-55 -55l-1024 1024l-201 -201l512 -512l-55 -55zM1225 1024l567 567l55 -55l-512 -512l768 -768l-55 -55zM1352 -129l57 57l438 -440 l-55 -55zM1481 0l55 55l567 -567l-55 -55zM1481 1024l567 567l55 -55l-512 -512l512 -512l-55 -55zM1737 1024l311 311l55 -55l-256 -256l256 -256l-55 -55zM1993 1024l55 55l55 -55l-55 -55z" />
<glyph unicode="&#xfb01;" d="M-55 0l55 55l567 -567l-55 -55zM-55 256l55 55l823 -823l-55 -55zM-55 -256l55 55l311 -311l-55 -55zM-55 512l55 55l512 -512l1536 1536l55 -55l-256 -256l256 -256l-55 -55l-256 256l-1225 -1225l512 -512l-55 -55zM-55 -512l55 55l55 -55l-55 -55zM-55 768l55 55 l512 -512l969 969l-256 256l55 55l311 -311l-1079 -1079zM-55 1024l55 55l512 -512l713 713l-256 256l55 55l311 -311l-823 -823zM-55 1280l55 55l512 -512l457 457l-256 256l55 55l311 -311l-567 -567zM-55 1536l55 55l512 -512l201 201l-256 256l55 55l311 -311l-311 -311 zM201 1536l55 55l311 -311l-55 -55zM713 0l1079 1079l311 -311l-55 -55l-256 256l-969 -969l512 -512l-55 -55zM969 0l823 823l311 -311l-55 -55l-256 256l-713 -713l512 -512l-55 -55zM1225 0l567 567l311 -311l-55 -55l-256 256l-457 -457l512 -512l-55 -55zM1481 0 l311 311l311 -311l-55 -55l-256 256l-201 -201l512 -512l-55 -55zM1481 1536l55 55l127 -127l129 127l55 -55l-184 -184zM1737 0l55 55l311 -311l-55 -55zM1993 1280l55 55l55 -55l-55 -55z" />
<glyph unicode="&#xfb02;" d="M-55 0l1591 1591l55 -55l-768 -768l201 -201l1024 1024l55 -55l-1024 -1024l457 -457l512 512l55 -55l-512 -512l256 -256l-311 -311l-55 55l256 256l-457 457l-768 -768l-55 55l768 768l-457 457l-768 -768zM-55 256l1335 1335l55 -55l-1335 -1335zM-55 -256l823 823 l311 -311l-823 -823l-55 55l768 768l-201 201l-768 -768zM-55 512l512 512l-201 201l-256 -256l-55 55l311 311l256 -256l512 512l55 -55l-1079 -1079zM-55 -512l823 823l55 -55l-823 -823zM-55 768l311 311l55 -55l-311 -311zM-55 1280l311 311l55 -55l-311 -311zM-55 1536 l55 55l55 -55l-55 -55zM328 1409l184 182l55 -55l-127 -127l72 -74l256 256l55 -55l-311 -311zM713 -512l567 567l311 -311l-311 -311l-55 55l256 256l-201 201l-512 -512zM969 -512l311 311l55 -55l-311 -311zM969 768l823 823l55 -55l-823 -823zM1225 512l823 823l55 -55 l-768 -768l201 -201l512 512l55 -55l-567 -567zM1481 512l567 567l55 -55l-567 -567zM1737 0l311 311l55 -55l-256 -256l74 -72l127 127l55 -55l-182 -184zM1737 -512l311 311l55 -55l-311 -311zM1993 -512l55 55l55 -55l-55 -55z" />
<glyph />
<glyph />
<glyph />
<glyph />
<glyph />
<glyph />
<glyph />
<glyph />
<glyph />
<glyph />
<glyph />
<glyph />
<glyph />
<glyph />
<glyph />
<glyph />
<glyph />
<glyph />
<glyph />
<glyph />
<glyph />
<glyph />
<glyph />
<glyph />
<glyph />
<glyph />
<glyph />
<glyph />
<glyph />
<glyph />
<glyph />
<glyph />
<glyph />
<glyph />
<glyph />
<glyph />
<glyph />
<glyph />
<glyph />
<glyph />
<glyph />
<glyph />
<glyph horiz-adv-x="1024" />
<glyph />
<glyph />
</font>
</defs>
</svg>
