<?xml version="1.0" standalone="no"?>
<!DOCTYPE svg PUBLIC "-//W3C//DTD SVG 1.1//EN" "http://www.w3.org/Graphics/SVG/1.1/DTD/svg11.dtd" >
<svg xmlns="http://www.w3.org/2000/svg" xmlns:xlink="http://www.w3.org/1999/xlink" version="1.1">
<metadata></metadata>
<defs>
<font id="mazeletterutopia" horiz-adv-x="2048" >
<font-face units-per-em="2048" ascent="1536" descent="-512" />
<missing-glyph horiz-adv-x="512" />
<glyph horiz-adv-x="0" />
<glyph horiz-adv-x="0" />
<glyph unicode=" "  horiz-adv-x="512" />
<glyph unicode="&#x09;" horiz-adv-x="512" />
<glyph unicode="&#xa0;" horiz-adv-x="512" />
<glyph unicode="!" horiz-adv-x="1024" d="M-52 509.5q-3 20.5 15 39.5l477 475l-477 475q-18 18 -15 39t16 34t33.5 16t39.5 -15l512 -512q14 -16 14 -37t-14 -37l-512 -512q-18 -18 -39 -15t-34 16t-16 33.5zM-52 -514.5q-3 20.5 15 39.5l498 495v369l-424 -426q-18 -14 -37 -14q-35 0 -47 31.5t10 56.5l989 987 l-477 475q-18 18 -15 39t16 34t33.5 16t39.5 -15l512 -512q14 -16 14 -36.5t-14 -37.5l-477 -475l184 -184l219 221q18 18 39 15t34 -16t16 -33.5t-15 -39.5l-242 -239v-369l168 170q18 18 39 15t34 -16t16 -34t-15 -39l-512 -512q-18 -18 -39 -15t-34 16t-16 33.5t15 39.5 l221 219l-184 184l-475 -477q-18 -18 -39 -15t-34 16t-16 33.5z" />
<glyph unicode="&#x22;" d="M-52 -2.5q-3 20.5 15 39.5l477 475l-477 475q-18 18 -15 39t16 34t33.5 16t39.5 -15l512 -512q14 -16 14 -37t-14 -37l-512 -512q-18 -18 -39 -15t-34 16t-16 33.5zM-52 1538q3 21 16 34t33.5 16t39.5 -15l1024 -1024q4 -6 9 -17.5t5 -19.5v-389l424 426q16 14 36.5 14 t37.5 -14l256 -256q4 -6 9 -17.5t5 -19.5v-389l168 170q18 18 39 15t34 -16t16 -33.5t-15 -39.5l-221 -219l221 -219q18 -18 15 -39t-16 -34t-33.5 -16t-39.5 15l-475 477l-475 -477q-18 -18 -39 -15t-34 16t-16 33.5t15 39.5l733 731l-184 184l-475 -477l-256 -256 q-25 -23 -56.5 -10.5t-31.5 47.5v389l-389 -389l221 -219q18 -18 15 -39t-16 -34t-33.5 -16t-39.5 15l-256 256q-14 16 -14 36.5t14 37.5l512 512l221 219l-989 987q-18 18 -15 39zM460 1538q3 21 16 34t33.5 16t39.5 -15l731 -733l184 184l-477 475q-18 18 -15 39t16 34 t33.5 16t39.5 -15l1024 -1024q18 -18 15 -39t-16 -34t-33.5 -16t-39.5 15l-475 477l-219 -221q-16 -14 -36.5 -14t-37.5 14l-768 768q-18 18 -15 39zM1485 1535.5q0 20.5 14 37.5q16 14 36.5 14t37.5 -14l512 -512q14 -16 14 -37t-14 -37q-16 -14 -36.5 -14t-37.5 14 l-512 512q-14 16 -14 36.5z" />
<glyph unicode="#" d="M-52 -2.5q-3 20.5 15 39.5l221 219l-221 219q-18 18 -15 39t16 34t33.5 16t39.5 -15l256 -256q14 -16 14 -37t-14 -37l-256 -256q-18 -18 -39 -15t-34 16t-16 33.5zM-52 -514.5q-3 20.5 15 39.5l733 731l-733 731q-18 18 -15 39t16 34t33.5 16t39.5 -15l731 -733l184 184 l-989 987q-18 18 -15 39t16 34t33.5 16t39.5 -15l936 -938v369l-498 495q-18 18 -15 39t16 34t33.5 16t39.5 -15l475 -477l184 184l-221 219q-18 18 -15 39t16 34t33.5 16t39.5 -15l219 -221l219 221q18 18 39 15t34 -16t16 -33.5t-15 -39.5l-477 -475l184 -184l731 733 q18 18 39 15t34 -16t16 -33.5t-15 -39.5l-477 -475l184 -184l219 221q18 18 39 15t34 -16t16 -33.5t-15 -39.5l-256 -256q-16 -14 -36.5 -14t-37.5 14l-219 221l-184 -184l440 -440l219 221q18 18 39 15t34 -16t16 -33.5t-15 -39.5l-221 -219l221 -219q18 -18 15 -39 t-16 -34t-33.5 -16t-39.5 15l-680 682v-369l754 -751q18 -18 15 -39t-16 -34t-33.5 -16t-39.5 15l-731 733l-731 -733q-18 -18 -39 -15t-34 16t-16 33.5t15 39.5l733 731l-184 184l-987 -989q-18 -18 -39 -15t-34 16t-16 33.5zM972 -514.5q-3 20.5 15 39.5l256 256 q16 14 36.5 14t37.5 -14l256 -256q18 -18 15 -39t-16 -34t-33.5 -16t-39.5 15l-219 221l-219 -221q-18 -18 -39 -15t-34 16t-16 33.5z" />
<glyph unicode="$" d="M-52 514q3 21 16 34t33.5 16t39.5 -15l219 -221l184 184l-477 475q-14 16 -14 36.5t14 37.5l512 512q16 14 36.5 14t37.5 -14l219 -221l219 221q18 18 39 15t34 -16t16 -34t-15 -39l-256 -256q-16 -14 -36.5 -14t-37.5 14l-219 221l-440 -440l477 -475q14 -16 14 -36.5 t-14 -37.5l-221 -219l477 -475q18 -18 15 -39t-16 -34t-33.5 -16t-39.5 15l-219 221l-475 -477q-18 -18 -39 -15t-34 16t-16 33.5t15 39.5l477 475l-477 475q-18 18 -15 39zM460 1026q3 21 16 34t33.5 16t39.5 -15l219 -221l475 477q16 14 36.5 14t37.5 -14l219 -221 l475 477q18 18 39 15t34 -16t16 -33.5t-15 -39.5l-477 -475l221 -219q14 -16 14 -36.5t-14 -37.5l-221 -219l221 -219q18 -18 15 -39t-16 -34t-33.5 -16t-39.5 15l-256 256q-14 16 -14 36.5t14 37.5l221 219l-389 389v-389q0 -35 -31.5 -47t-56.5 10l-219 221l-184 -184 l952 -952l219 221q18 18 39 15t34 -16t16 -34t-15 -39l-512 -512q-16 -14 -36.5 -14t-37.5 14l-219 221l-219 -221q-18 -18 -39 -15t-34 16t-16 33.5t15 39.5l221 219l-477 475q-18 18 -15 39t16 34t33.5 16t39.5 -15l168 -170v369l-498 495q-18 18 -15 39zM1331 133v-369 l205 -204l184 184z" />
<glyph unicode="%" d="M-52 -2.5q-3 20.5 15 39.5l221 219l-221 219q-18 18 -15 39t16 34t33.5 16t39.5 -15l256 -256q14 -16 14 -37t-14 -37l-256 -256q-18 -18 -39 -15t-34 16t-16 33.5zM-52 -514.5q-3 20.5 15 39.5l512 512q16 14 36.5 14t37.5 -14l475 -477l205 204v492q0 8 5 19.5t9 17.5 l256 256q16 14 36.5 14t37.5 -14l256 -256q14 -18 14 -37v-389l168 170q18 18 39 15t34 -16t16 -34t-15 -39l-256 -256l-256 -256q-16 -14 -36.5 -14t-37.5 14l-219 221l-219 -221q-16 -14 -36.5 -14t-37.5 14l-475 477l-475 -477q-18 -18 -39 -15t-34 16t-16 33.5z M-52 1026q3 21 16 34t33.5 16t39.5 -15l475 -477l219 221q16 14 36.5 14t37.5 -14l168 -170v389q0 8 4 19.5t10 17.5l221 219l-221 219q-18 18 -15 39t16 34t33.5 16t39.5 -15l256 -256q14 -16 14 -36.5t-14 -37.5l-221 -219l182 -182l221 233q14 16 35.5 16.5t38.5 -16.5 l512 -528q18 -18 15 -38t-17.5 -33t-33.5 -15t-38 16l-475 490l-219 -234q-61 -66 -127 -129t-129 -129l-221 -219l221 -219q18 -18 15 -39t-16 -34t-33.5 -16t-39.5 15l-256 256q-14 16 -14 36.5t14 37.5l221 219l-184 184l-219 -221q-16 -14 -36.5 -14t-37.5 14l-512 512 q-18 18 -15 39zM205 1279.5q0 20.5 14 37.5l256 256q16 14 36.5 14t37.5 -14l256 -256q14 -16 14 -37t-14 -37l-256 -256q-18 -14 -37 -14q-18 0 -37 14l-256 256q-14 16 -14 36.5zM328 1280l184 -184l184 184l-184 184zM1352 256l184 -184l184 184l-184 184zM1587 -20v-369 l154 153v369zM1741 1279.5q0 20.5 14 37.5l256 256q18 18 39 15t34 -16t16 -33.5t-15 -39.5l-221 -219l221 -219q18 -18 15 -39t-16 -34t-33.5 -16t-39.5 15l-256 256q-14 16 -14 36.5z" />
<glyph unicode="&#x26;" d="M-52 2q3 21 16 34t33.5 16t39.5 -15l475 -477l184 184l-477 475l-256 256q-14 16 -14 36.5t14 37.5l256 256q16 14 36.5 14t37.5 -14l1192 -1194v369l-1522 1519q-18 18 -15 39t16 34t33.5 16t39.5 -15l680 -682v389q0 18 14 37l256 256q16 14 36.5 14t37.5 -14l731 -733 l184 184l-477 475q-18 18 -15 39t16 34t33.5 16t39.5 -15l512 -512q14 -16 14 -36.5t-14 -37.5l-256 -256q-16 -14 -36.5 -14t-37.5 14l-680 682v-369l754 -751q4 -6 9 -17.5t5 -19.5v-389l168 170q18 18 39 15t34 -16t16 -34t-15 -39l-256 -256l-256 -256q-18 -14 -37 -14 q-18 0 -37 14l-1192 1194v-369l498 -495q14 -16 14 -36.5t-14 -37.5l-256 -256q-16 -14 -36.5 -14t-37.5 14l-512 512q-18 18 -15 39zM1075 532l461 -460l184 184l-645 645v-369z" />
<glyph unicode="'" d="M-52 -2.5q-3 20.5 15 39.5l477 475l-477 475q-18 18 -15 39t16 34t33.5 16t39.5 -15l512 -512q14 -16 14 -37t-14 -37l-512 -512q-18 -18 -39 -15t-34 16t-16 33.5zM-52 -514.5q-3 20.5 15 39.5l989 987l-733 731q-14 16 -14 36.5t14 37.5l256 256q18 18 39 15t34 -16 t16 -33.5t-15 -39.5l-221 -219l733 -731q4 -6 9 -17.5t5 -19.5v-389l168 170q16 14 36.5 14t37.5 -14l219 -221l475 477q18 18 39 15t34 -16t16 -33.5t-15 -39.5l-498 -495v-369l424 426q18 18 39 15t34 -16t16 -34t-15 -39l-512 -512q-4 -4 -8 -5t-9 -5q-33 -14 -57 10 l-219 221l-219 -221q-18 -18 -39 -15t-34 16t-16 33.5t15 39.5l477 475l-184 184l-731 -733q-18 -18 -39 -15t-34 16t-16 33.5t15 39.5l477 475l-184 184l-731 -733q-18 -18 -39 -15t-34 16t-16 33.5zM716 1282q3 21 16 34t33.5 16t39.5 -15l731 -733l184 184l-733 731 q-18 18 -15 39t16 34t33.5 16t39.5 -15l768 -768q14 -16 14 -37t-14 -37l-256 -256q-16 -14 -36.5 -14t-37.5 14l-768 768q-18 18 -15 39zM1741 1279.5q0 20.5 14 37.5l256 256q18 18 39 15t34 -16t16 -33.5t-15 -39.5l-221 -219l221 -219q18 -18 15 -39t-16 -34t-33.5 -16 t-39.5 15l-256 256q-14 16 -14 36.5z" />
<glyph unicode="(" horiz-adv-x="512" d="M-52 2q3 21 16 34t33.5 16t39.5 -15l256 -256q14 -16 14 -37t-14 -37l-256 -256q-18 -18 -39 -15t-34 16t-16 33.5t15 39.5l221 219l-221 219q-18 18 -15 39zM-52 509.5q-3 20.5 15 39.5l512 512q18 18 39 15t34 -16t16 -33.5t-15 -39.5l-221 -219l221 -219 q14 -18 14 -37v-512q0 -35 -31.5 -47t-56.5 10l-256 256q-14 18 -14 37v389l-168 -170q-18 -18 -39 -15t-34 16t-16 33.5zM-52 1021.5q-3 20.5 15 39.5l221 219l-221 219q-18 18 -15 39t16 34t33.5 16t39.5 -15l256 -256q14 -16 14 -37t-14 -37l-256 -256q-18 -18 -39 -15 t-34 16t-16 33.5z" />
<glyph unicode=")" horiz-adv-x="512" d="M-52 -2.5q-3 20.5 15 39.5l221 219l-221 219q-18 18 -15 39t16 34t33.5 16t39.5 -15l168 -170v369l-242 239q-18 18 -15 39t16 34t33.5 16t39.5 -15l168 -170v389q0 16 8 25l6 12l256 256q18 18 39 15t34 -16t16 -33.5t-15 -39.5l-221 -219l221 -219q14 -18 14 -37v-512 q0 -18 -14 -37l-512 -512q-18 -18 -39 -15t-34 16t-16 33.5zM205 -256.5q0 20.5 14 37.5l256 256q18 18 39 15t34 -16t16 -33.5t-15 -39.5l-221 -219l221 -219q18 -18 15 -39t-16 -34t-33.5 -16t-39.5 15l-256 256q-14 16 -14 36.5z" />
<glyph unicode="*" d="M-52 -2.5q-3 20.5 15 39.5l221 219l-221 219q-18 18 -15 39t16 34t33.5 16t39.5 -15l256 -256q14 -16 14 -37t-14 -37l-256 -256q-18 -18 -39 -15t-34 16t-16 33.5zM-52 1021.5q-3 20.5 15 39.5l256 256q18 18 39 15t34 -16t16 -34t-15 -39l-256 -256q-18 -18 -39 -15 t-34 16t-16 33.5zM-51 -512.5q0 20.5 14 37.5l1280 1280q18 18 39 15t34 -16t16 -34t-15 -39l-1280 -1280q-16 -14 -36.5 -14t-37.5 14q-14 16 -14 36.5zM205 767.5q0 20.5 14 37.5l256 256q8 8 25 12q27 6 49 -12l256 -256q18 -18 15 -39t-16 -34t-33.5 -16t-39.5 15 l-168 170v-389q0 -20 -15.5 -35.5t-35.5 -15.5q-18 0 -37 14l-256 256q-14 16 -14 36.5zM461 1535.5q0 20.5 14 37.5q16 14 36.5 14t37.5 -14l256 -256q14 -16 14 -37t-14 -37q-16 -14 -36.5 -14t-37.5 14l-256 256q-14 16 -14 36.5zM717 -256.5q0 20.5 14 37.5l256 256 q25 23 56.5 10.5t31.5 -47.5v-512q0 -35 -31.5 -47t-56.5 10l-256 256q-14 16 -14 36.5zM972 1021.5q-3 20.5 15 39.5l256 256q18 18 39 15t34 -16t16 -34t-15 -39l-256 -256q-18 -18 -39 -15t-34 16t-16 33.5zM1229 255.5q0 20.5 14 37.5q16 14 36.5 14t37.5 -14l768 -768 q14 -16 14 -37t-14 -37q-16 -14 -36.5 -14t-37.5 14l-768 768q-14 16 -14 36.5zM1229 -256.5q0 20.5 14 37.5q16 14 36.5 14t37.5 -14l256 -256q14 -16 14 -37t-14 -37q-16 -14 -36.5 -14t-37.5 14l-256 256q-14 16 -14 36.5zM1484 1026q3 21 16 34t33.5 16t39.5 -15 l256 -256l6 -12q8 -8 8 -25v-512q0 -18 -14 -37q-12 -16 -36 -14t-38 14l-256 256q-14 16 -14 36.5t14 37.5l221 219l-221 219q-18 18 -15 39zM1485 1535.5q0 20.5 14 37.5q16 14 36.5 14t37.5 -14l256 -256q14 -16 14 -37t-14 -37q-16 -14 -36.5 -14t-37.5 14l-256 256 q-14 16 -14 36.5z" />
<glyph unicode="+" horiz-adv-x="512" d="M-52 514q3 21 16 34t33.5 16t39.5 -15l256 -256l6 -12q8 -12 8 -25v-389l168 170q18 18 39 15t34 -16t16 -33.5t-15 -39.5l-221 -219l221 -219q18 -18 15 -39t-16 -34t-33.5 -16t-39.5 15l-256 256l-256 256q-14 16 -14 36.5t14 37.5l221 219l-221 219q-18 18 -15 39z M-52 1021.5q-3 20.5 15 39.5l221 219l-221 219q-18 18 -15 39t16 34t33.5 16t39.5 -15l256 -256l256 -256q14 -16 14 -36.5t-14 -37.5l-221 -219l221 -219q18 -18 15 -39t-16 -34t-33.5 -16t-39.5 15l-256 256l-6 12q-8 8 -8 25v389l-168 -170q-18 -18 -39 -15t-34 16 t-16 33.5z" />
<glyph unicode="," horiz-adv-x="512" d="M-52 514q3 21 16 34t33.5 16t39.5 -15l256 -256l6 -12q8 -8 8 -25v-389l168 170q18 18 39 15t34 -16t16 -34t-15 -39q-14 -14 -58.5 -58t-100.5 -100.5t-119.5 -120t-117 -116.5t-91 -89t-44.5 -38q-25 -10 -47 4t-22 43v512q0 18 14 37l221 219l-221 219q-18 18 -15 39z M-51 1023.5q0 20.5 14 37.5q16 14 36.5 14t37.5 -14l512 -512q14 -16 14 -37t-14 -37q-16 -14 -36.5 -14t-37.5 14l-512 512q-14 16 -14 36.5zM205 1279.5q0 20.5 14 37.5l256 256q18 18 39 15t34 -16t16 -33.5t-15 -39.5l-221 -219l221 -219q18 -18 15 -39t-16 -34 t-33.5 -16t-39.5 15l-256 256q-14 16 -14 36.5z" />
<glyph unicode="-" horiz-adv-x="512" d="M-52 -2.5q-3 20.5 15 39.5l242 239v369l-168 -170q-18 -18 -39 -15t-34 16t-16 33.5t15 39.5l512 512q25 23 56.5 10.5t31.5 -47.5v-1024q0 -8 -5 -19.5t-9 -17.5l-221 -219l221 -219q18 -18 15 -39t-16 -34t-33.5 -16t-39.5 15l-256 256q-14 16 -14 36.5t14 37.5 l221 219l-184 184l-219 -221q-18 -18 -39 -15t-34 16t-16 33.5zM-52 1021.5q-3 20.5 15 39.5l221 219l-221 219q-18 18 -15 39t16 34t33.5 16t39.5 -15l256 -256q14 -16 14 -37t-14 -37l-256 -256q-18 -18 -39 -15t-34 16t-16 33.5z" />
<glyph unicode="." horiz-adv-x="512" d="M-52 -514.5q-3 20.5 15 39.5l477 475l-477 475q-14 16 -14 36.5t14 37.5l477 475l-477 475q-18 18 -15 39t16 34t33.5 16t39.5 -15l512 -512q14 -16 14 -36.5t-14 -37.5l-477 -475l477 -475q14 -16 14 -37t-14 -37l-512 -512q-18 -18 -39 -15t-34 16t-16 33.5z" />
<glyph unicode="/" horiz-adv-x="1024" d="M-52 509.5q-3 20.5 15 39.5l221 219l-221 219q-18 18 -15 39t16 34t33.5 16t39.5 -15l256 -256q14 -16 14 -37t-14 -37l-256 -256q-18 -18 -39 -15t-34 16t-16 33.5zM-52 1538q3 21 16 34t33.5 16t39.5 -15l768 -768q4 -6 9 -17.5t5 -19.5v-389l168 170q18 18 39 15 t34 -16t16 -33.5t-15 -39.5l-221 -219l221 -219q18 -18 15 -39t-16 -34t-33.5 -16t-39.5 15l-475 477l-184 -184l733 -731q18 -18 15 -39t-16 -34t-33.5 -16t-39.5 15l-768 768q-14 16 -14 36.5t14 37.5l256 256l221 219l-733 731q-18 18 -15 39zM-51 -0.5q0 20.5 14 37.5 q16 14 36.5 14t37.5 -14l512 -512q14 -16 14 -37t-14 -37q-16 -14 -36.5 -14t-37.5 14l-512 512q-14 16 -14 36.5zM461 1535.5q0 20.5 14 37.5q16 14 36.5 14t37.5 -14l512 -512q14 -16 14 -37t-14 -37q-16 -14 -36.5 -14t-37.5 14l-512 512q-14 16 -14 36.5z" />
<glyph unicode="0" d="M-52 -2.5q-3 20.5 15 39.5l256 256q16 14 36.5 14t37.5 -14l219 -221l184 184l-221 219q-14 16 -14 36.5t14 37.5l768 768q23 18 43 12q18 0 31 -12l768 -768q14 -16 14 -37t-14 -37l-768 -768q-16 -14 -36.5 -14t-37.5 14l-219 221l-184 -184l221 -219q18 -18 15 -39 t-16 -34t-33.5 -16t-39.5 15l-219 221l-219 -221q-18 -18 -39 -15t-34 16t-16 33.5t15 39.5l989 987l-184 184l-1243 -1245q-18 -18 -39 -15t-34 16t-16 33.5t15 39.5l477 475l-184 184l-219 -221q-18 -18 -39 -15t-34 16t-16 33.5zM-52 1026q3 21 16 34t33.5 16t39.5 -15 l219 -221l731 733q18 18 39 15t34 -16t16 -34t-15 -39l-768 -768q-18 -14 -37 -14q-18 0 -37 14l-256 256q-18 18 -15 39zM-52 1538q3 21 16 34t33.5 16t39.5 -15l219 -221l219 221q18 18 39 15t34 -16t16 -34t-15 -39l-256 -256q-18 -14 -37 -14q-18 0 -37 14l-256 256 q-18 18 -15 39zM584 512l184 -184l461 460v369zM1096 0l184 -184l696 696l-389 389v-389q0 -8 -5 -19.5t-9 -17.5zM1484 -514.5q-3 20.5 15 39.5l512 512q18 18 39 15t34 -16t16 -34t-15 -39l-512 -512q-18 -18 -39 -15t-34 16t-16 33.5zM1485 1535.5q0 20.5 14 37.5 q16 14 36.5 14t37.5 -14l512 -512q14 -16 14 -37t-14 -37q-16 -14 -36.5 -14t-37.5 14l-512 512q-14 16 -14 36.5z" />
<glyph unicode="1" d="M-52 -2.5q-3 20.5 15 39.5l498 495v492q0 8 5 19.5t9 17.5l512 512q18 18 39 15t34 -16t16 -33.5t-15 -39.5l-477 -475l184 -184l731 733q18 18 39 15t34 -16t16 -34t-15 -39l-768 -768l-768 -768q-18 -18 -39 -15t-34 16t-16 33.5zM-52 509.5q-3 20.5 15 39.5l256 256 q18 18 39 15t34 -16t16 -34t-15 -39l-256 -256q-18 -18 -39 -15t-34 16t-16 33.5zM-52 -514.5q-3 20.5 15 39.5l512 512l1024 1024q18 18 39 15t34 -16t16 -34t-15 -39l-754 -751v-492q0 -16 -8 -25l-6 -12l-256 -256q-18 -18 -39 -15t-34 16t-16 33.5t15 39.5l221 219 l-184 184l-475 -477q-18 -18 -39 -15t-34 16t-16 33.5zM-52 1021.5q-3 20.5 15 39.5l512 512q18 18 39 15t34 -16t16 -34t-15 -39l-512 -512q-18 -18 -39 -15t-34 16t-16 33.5zM973 -0.5q0 20.5 14 37.5l1024 1024q18 18 39 15t34 -16t16 -34t-15 -39l-1024 -1024 q-16 -14 -36.5 -14t-37.5 14q-14 16 -14 36.5zM973 -512.5q0 20.5 14 37.5l1024 1024q18 18 39 15t34 -16t16 -34t-15 -39l-1024 -1024q-16 -14 -36.5 -14t-37.5 14q-14 16 -14 36.5zM1484 -514.5q-3 20.5 15 39.5l512 512q18 18 39 15t34 -16t16 -34t-15 -39l-512 -512 q-18 -18 -39 -15t-34 16t-16 33.5zM1740 1277.5q-3 20.5 15 39.5l256 256q18 18 39 15t34 -16t16 -34t-15 -39l-256 -256q-18 -18 -39 -15t-34 16t-16 33.5z" />
<glyph unicode="2" d="M-52 1021.5q-3 20.5 15 39.5l221 219l-221 219q-18 18 -15 39t16 34t33.5 16t39.5 -15l219 -221l219 221q18 18 39 15t34 -16t16 -33.5t-15 -39.5l-221 -219l221 -219q4 -6 9 -17.5t5 -19.5v-389l154 153v492q0 18 14 37q12 16 36 14t38 -14l219 -221l475 477 q16 14 36.5 14t37.5 -14l256 -256q18 -18 15 -39t-16 -34t-33.5 -16t-39.5 15l-219 221l-440 -440l221 -219q18 -18 15 -39t-16 -34t-33.5 -16t-39.5 15l-219 221l-440 -440l221 -219q4 -6 9 -17.5t5 -19.5v-389l154 153v492q0 18 14 37q12 16 36 14t38 -14l219 -221 l440 440l-221 219q-18 18 -15 39t16 34t33.5 16t39.5 -15l219 -221l219 221q18 18 39 15t34 -16t16 -33.5t-15 -39.5l-221 -219l221 -219q18 -18 15 -39t-16 -34t-33.5 -16t-39.5 15l-219 221l-440 -440l221 -219q18 -18 15 -39t-16 -34t-33.5 -16t-39.5 15l-219 221 l-440 -440l221 -219q18 -18 15 -39t-16 -34t-33.5 -16t-39.5 15l-219 221l-219 -221q-18 -18 -39 -15t-34 16t-16 33.5t15 39.5l221 219l-221 219q-14 16 -14 36.5t14 37.5l221 219l-184 184l-440 -440l221 -219q18 -18 15 -39t-16 -34t-33.5 -16t-39.5 15l-256 256 q-14 16 -14 36.5t14 37.5l477 475l-221 219q-14 16 -14 36.5t14 37.5l221 219l-184 184l-219 -221q-18 -18 -39 -15t-34 16t-16 33.5zM1228 -254q3 21 16 34t33.5 16t39.5 -15l219 -221l440 440l-221 219q-18 18 -15 39t16 34t33.5 16t39.5 -15l256 -256q14 -16 14 -37 t-14 -37l-512 -512q-18 -14 -37 -14q-18 0 -37 14l-256 256q-18 18 -15 39z" />
<glyph unicode="3" d="M-52 2q3 21 16 34t33.5 16t39.5 -15l219 -221l184 184l-477 475q-18 18 -15 39t16 34t33.5 16t39.5 -15l219 -221l184 184l-477 475q-14 16 -14 36.5t14 37.5q16 14 36.5 14t37.5 -14l512 -512q6 -6 10 -17.5t4 -19.5v-512q0 -10 -4 -18q0 -2 -5 -9.5t-5 -9.5l-512 -512 q-18 -18 -39 -15t-34 16t-16 33.5t15 39.5l221 219l-221 219q-18 18 -15 39zM-52 1538q3 21 16 34t33.5 16t39.5 -15l731 -733l184 184l-477 475q-18 18 -15 39t16 34t33.5 16t39.5 -15l512 -512l6 -12q8 -12 8 -25v-901l154 153v492q0 8 5 19.5t9 17.5l221 219l-477 475 q-18 18 -15 39t16 34t33.5 16t39.5 -15l475 -477l184 184l-221 219q-18 18 -15 39t16 34t33.5 16t39.5 -15l219 -221l219 221q18 18 39 15t34 -16t16 -33.5t-15 -39.5l-733 -731l184 -184l475 477q18 18 39 15t34 -16t16 -34t-15 -39l-1280 -1280l-256 -256q-18 -18 -39 -15 t-34 16t-16 33.5t15 39.5l242 239v984l-754 751q-18 18 -15 39zM973 -512.5q0 20.5 14 37.5l1024 1024q18 18 39 15t34 -16t16 -34t-15 -39l-1024 -1024q-16 -14 -36.5 -14t-37.5 14q-14 16 -14 36.5zM1484 -514.5q-3 20.5 15 39.5l512 512q18 18 39 15t34 -16t16 -34 t-15 -39l-512 -512q-18 -18 -39 -15t-34 16t-16 33.5z" />
<glyph unicode="4" d="M-52 509.5q-3 20.5 15 39.5l1024 1024q16 14 36.5 14t37.5 -14l219 -221l219 221q16 14 36.5 14t37.5 -14l512 -512q14 -16 14 -36.5t-14 -37.5l-498 -495v-369l424 426q18 18 39 15t34 -16t16 -33.5t-15 -39.5l-477 -475l477 -475q18 -18 15 -39t-16 -34t-33.5 -16 t-39.5 15l-475 477l-219 -221q-18 -18 -39 -15t-34 16t-16 33.5t15 39.5l221 219l-952 952l-475 -477q-18 -18 -39 -15t-34 16t-16 33.5zM-51 -0.5q0 20.5 14 37.5l512 512q16 14 36.5 14t37.5 -14l512 -512l6 -12q8 -8 8 -25v-512q0 -33 -31 -47q-33 -14 -57 10l-219 221 l-219 -221q-16 -14 -36.5 -14t-37.5 14l-512 512q-14 16 -14 36.5zM-51 1535.5q0 20.5 14 37.5q16 14 36.5 14t37.5 -14l256 -256q14 -16 14 -37t-14 -37q-16 -14 -36.5 -14t-37.5 14l-256 256q-14 16 -14 36.5zM72 0l440 -440l440 440l-440 440zM584 1024l389 -389v389 q0 8 5 19.5t9 17.5l221 219l-184 184zM1096 1024l440 -440l440 440l-440 440z" />
<glyph unicode="5" d="M-52 -2.5q-3 20.5 15 39.5l221 219l-221 219q-18 18 -15 39t16 34t33.5 16t39.5 -15l256 -256l475 -477l475 477q18 18 39 15t34 -16t16 -34t-15 -39l-477 -475l221 -219q18 -18 15 -39t-16 -34t-33.5 -16t-39.5 15l-475 477l-184 -184l221 -219q18 -18 15 -39t-16 -34 t-33.5 -16t-39.5 15l-256 256l-6 12q-8 12 -8 25v389l-168 -170q-18 -18 -39 -15t-34 16t-16 33.5zM-52 1021.5q-3 20.5 15 39.5l512 512q18 18 39 15t34 -16t16 -33.5t-15 -39.5l-221 -219l184 -184l475 477q18 18 39 15t34 -16t16 -33.5t-15 -39.5l-498 -495v-472 l205 -204l475 477q16 14 36.5 14t37.5 -14l168 -170v369l-205 204l-475 -477q-18 -18 -39 -15t-34 16t-16 33.5t15 39.5l768 768q18 18 39 15t34 -16t16 -33.5t-15 -39.5l-221 -219l184 -184l475 477q18 18 39 15t34 -16t16 -33.5t-15 -39.5l-477 -475l184 -184l219 221 q18 18 39 15t34 -16t16 -33.5t-15 -39.5l-221 -219l221 -219q18 -18 15 -39t-16 -34t-33.5 -16t-39.5 15l-168 170v-389q0 -18 -14 -37l-512 -512q-18 -18 -39 -15t-34 16t-16 33.5t15 39.5l242 239v472l-205 204l-475 -477q-16 -14 -36.5 -14t-37.5 14l-256 256l-256 256 q-14 18 -14 37v389l-168 -170q-18 -18 -39 -15t-34 16t-16 33.5zM1484 -514.5q-3 20.5 15 39.5l512 512q18 18 39 15t34 -16t16 -34t-15 -39l-512 -512q-18 -18 -39 -15t-34 16t-16 33.5z" />
<glyph unicode="6" d="M-52 2q3 21 16 34t33.5 16t39.5 -15l256 -256q14 -16 14 -37t-14 -37l-256 -256q-18 -18 -39 -15t-34 16t-16 33.5t15 39.5l221 219l-221 219q-18 18 -15 39zM-52 509.5q-3 20.5 15 39.5l477 475l-184 184l-219 -221q-18 -18 -39 -15t-34 16t-16 33.5t15 39.5l256 256 q16 14 36.5 14t37.5 -14l256 -256q4 -6 9 -17.5t5 -19.5v-389l424 426q16 14 36.5 14t37.5 -14l256 -256q14 -16 14 -37t-14 -37l-768 -768q-16 -14 -36.5 -14t-37.5 14l-256 256q-14 18 -14 37v389l-168 -170q-18 -18 -39 -15t-34 16t-16 33.5zM460 -514.5q-3 20.5 15 39.5 l256 256q16 14 36.5 14t37.5 -14l256 -256q18 -18 15 -39t-16 -34t-33.5 -16t-39.5 15l-219 221l-219 -221q-18 -18 -39 -15t-34 16t-16 33.5zM460 1538q3 21 16 34t33.5 16t39.5 -15l219 -221l219 221q18 18 39 15t34 -16t16 -34t-15 -39l-256 -256q-18 -14 -37 -14 q-18 0 -37 14l-256 256q-18 18 -15 39zM563 123l645 645l-184 184l-461 -460v-369zM973 -0.5q0 20.5 14 37.5l256 256q16 14 36.5 14t37.5 -14l256 -256q14 -16 14 -37t-14 -37l-256 -256q-18 -14 -37 -14q-18 0 -37 14l-256 256q-14 16 -14 36.5zM1096 0l184 -184l184 184 l-184 184zM1229 1279.5q0 20.5 14 37.5l256 256q18 18 39 15t34 -16t16 -33.5t-15 -39.5l-221 -219l184 -184l475 477q16 14 36.5 14t37.5 -14q14 -16 14 -37t-14 -37l-512 -512q-16 -14 -36.5 -14t-37.5 14l-256 256q-14 16 -14 36.5zM1484 -514.5q-3 20.5 15 39.5l512 512 q18 18 39 15t34 -16t16 -34t-15 -39l-512 -512q-18 -18 -39 -15t-34 16t-16 33.5zM1485 511.5q0 20.5 14 37.5l512 512q16 14 36.5 14t37.5 -14q14 -16 14 -36.5t-14 -37.5l-477 -475l184 -184l219 221q18 18 39 15t34 -16t16 -34t-15 -39l-256 -256q-18 -14 -37 -14 q-18 0 -37 14l-256 256q-14 16 -14 36.5z" />
<glyph unicode="7" d="M-52 -2.5q-3 20.5 15 39.5l221 219l-221 219q-18 18 -15 39t16 34t33.5 16t39.5 -15l256 -256q14 -16 14 -37t-14 -37l-256 -256q-18 -18 -39 -15t-34 16t-16 33.5zM-52 -514.5q-3 20.5 15 39.5l733 731l-477 475q-14 16 -14 36.5t14 37.5l768 768q16 14 36.5 14 t37.5 -14l219 -221l219 221q18 18 39 15t34 -16t16 -33.5t-15 -39.5l-256 -256q-16 -14 -36.5 -14t-37.5 14l-219 221l-696 -696l389 -389v389q0 8 5 19.5t9 17.5l256 256q18 18 39 15t34 -16t16 -33.5t-15 -39.5l-221 -219l389 -389v389q0 8 5 19.5t9 17.5l768 768 q18 18 39 15t34 -16t16 -33.5t-15 -39.5l-733 -731l389 -389v389q0 8 5 19.5t9 17.5l256 256q18 18 39 15t34 -16t16 -33.5t-15 -39.5l-221 -219l221 -219q14 -16 14 -37t-14 -37l-256 -256l-512 -512q-18 -18 -39 -15t-34 16t-16 33.5t15 39.5l477 475l-184 184l-987 -989 q-18 -18 -39 -15t-34 16t-16 33.5t15 39.5l733 731l-184 184l-987 -989q-18 -18 -39 -15t-34 16t-16 33.5zM-52 1021.5q-3 20.5 15 39.5l512 512q18 18 39 15t34 -16t16 -34t-15 -39l-512 -512q-18 -18 -39 -15t-34 16t-16 33.5zM1484 -514.5q-3 20.5 15 39.5l512 512 q18 18 39 15t34 -16t16 -34t-15 -39l-512 -512q-18 -18 -39 -15t-34 16t-16 33.5z" />
<glyph unicode="8" d="M-52 509.5q-3 20.5 15 39.5l221 219l-221 219q-18 18 -15 39t16 34t33.5 16t39.5 -15l256 -256q14 -16 14 -37t-14 -37l-256 -256q-18 -18 -39 -15t-34 16t-16 33.5zM-52 1538q3 21 16 34t33.5 16t39.5 -15l475 -477l184 184l-221 219q-18 18 -15 39t16 34t33.5 16 t39.5 -15l256 -256l6 -12q8 -8 8 -25v-389l168 170q16 14 36.5 14t37.5 -14l1024 -1024q18 -18 15 -39t-16 -34t-33.5 -16t-39.5 15l-987 989l-184 -184l733 -731q4 -6 9 -17.5t5 -19.5v-512q0 -35 -31.5 -47t-56.5 10l-256 256q-14 16 -14 36.5t14 37.5l221 219l-989 987 l-512 512q-18 18 -15 39zM-51 -0.5q0 20.5 14 37.5q16 14 36.5 14t37.5 -14l512 -512q14 -16 14 -37t-14 -37q-16 -14 -36.5 -14t-37.5 14l-512 512q-14 16 -14 36.5zM205 255.5q0 20.5 14 37.5l256 256q10 10 26.5 12t30.5 -2q6 -2 44 -38t92.5 -90t118 -117.5t120 -121 t99.5 -100.5l55 -55q18 -18 15 -39t-16 -34t-33.5 -16t-39.5 15l-424 426v-369l498 -495q14 -16 14 -37t-14 -37q-16 -14 -36.5 -14t-37.5 14l-768 768q-14 16 -14 36.5zM973 1535.5q0 20.5 14 37.5q16 14 36.5 14t37.5 -14l1024 -1024q14 -16 14 -37t-14 -37 q-16 -14 -36.5 -14t-37.5 14l-1024 1024q-14 16 -14 36.5zM1485 1535.5q0 20.5 14 37.5q16 14 36.5 14t37.5 -14l512 -512q14 -16 14 -37t-14 -37q-16 -14 -36.5 -14t-37.5 14l-512 512q-14 16 -14 36.5zM1741 -256.5q0 20.5 14 37.5q16 14 36.5 14t37.5 -14l256 -256 q14 -16 14 -37t-14 -37q-16 -14 -36.5 -14t-37.5 14l-256 256q-14 16 -14 36.5z" />
<glyph unicode="9" d="M-52 1021.5q-3 20.5 15 39.5l512 512q18 18 39 15t34 -16t16 -34t-15 -39l-512 -512q-18 -18 -39 -15t-34 16t-16 33.5zM-51 -0.5q0 20.5 14 37.5q16 14 36.5 14t37.5 -14l512 -512q14 -16 14 -37t-14 -37q-16 -14 -36.5 -14t-37.5 14l-512 512q-14 16 -14 36.5z M-51 511.5q0 20.5 14 37.5l1024 1024q18 18 39 15t34 -16t16 -34t-15 -39l-989 -987l733 -731q18 -18 15 -39t-16 -34t-33.5 -16t-39.5 15l-768 768q-14 16 -14 36.5zM461 511.5q0 20.5 14 37.5l256 256q18 18 39 15t34 -16t16 -33.5t-15 -39.5l-221 -219l733 -731 q14 -16 14 -37t-14 -37l-256 -256q-18 -18 -39 -15t-34 16t-16 33.5t15 39.5l221 219l-733 731q-14 16 -14 36.5zM973 512v512q0 6 4 18q2 6 4 10.5t6 8.5l256 256q16 14 36.5 14t37.5 -14l768 -768q18 -18 15 -39t-16 -34t-33.5 -16t-39.5 15l-680 682v-369l754 -751 q18 -18 15 -39t-16 -34t-33.5 -16t-39.5 15l-731 733l-184 -184l989 -987q14 -16 14 -37t-14 -37q-16 -14 -36.5 -14t-37.5 14l-1024 1024q-4 6 -9 17.5t-5 19.5zM1485 1535.5q0 20.5 14 37.5q16 14 36.5 14t37.5 -14l512 -512q14 -16 14 -37t-14 -37q-16 -14 -36.5 -14 t-37.5 14l-512 512q-14 16 -14 36.5z" />
<glyph unicode=":" horiz-adv-x="512" d="M-51 -0.5q0 20.5 14 37.5l477 475l-477 475q-14 16 -14 36.5t14 37.5l512 512q18 18 39 15t34 -16t16 -33.5t-15 -39.5l-477 -475l477 -475q14 -16 14 -36.5t-14 -37.5l-477 -475l477 -475q18 -18 15 -39t-16 -34t-33.5 -16t-39.5 15l-512 512q-14 16 -14 36.5z" />
<glyph unicode=";" horiz-adv-x="512" d="M-52 -2.5q-3 20.5 15 39.5l512 512q18 18 39 15t34 -16t16 -34t-15 -39l-512 -512q-18 -18 -39 -15t-34 16t-16 33.5zM-52 509.5q-3 20.5 15 39.5l221 219l-221 219q-18 18 -15 39t16 34t33.5 16t39.5 -15l168 -170v369l-242 239q-18 18 -15 39t16 34t33.5 16t39.5 -15 l512 -512q14 -16 14 -37t-14 -37l-512 -512q-18 -18 -39 -15t-34 16t-16 33.5zM205 -256.5q0 20.5 14 37.5l256 256q18 18 39 15t34 -16t16 -33.5t-15 -39.5l-221 -219l221 -219q18 -18 15 -39t-16 -34t-33.5 -16t-39.5 15l-256 256q-14 16 -14 36.5z" />
<glyph unicode="&#x3c;" horiz-adv-x="512" d="M-52 -514.5q-3 20.5 15 39.5l242 239v472l-242 239q-14 16 -14 36.5t14 37.5l242 239v472l-242 239q-18 18 -15 39t16 34t33.5 16t39.5 -15l219 -221l219 221q25 25 57 10q31 -14 31 -47v-512q0 -6 -4 -18q-2 -6 -34.5 -41t-82 -85.5t-108 -108.5t-111.5 -110.5 t-95 -93.5t-56 -55q14 -14 56 -55t95 -93.5t111.5 -110.5t108 -108.5t82 -85t34.5 -41.5q4 -12 4 -18v-512q0 -33 -31 -47q-33 -14 -57 10l-219 221l-219 -221q-18 -18 -39 -15t-34 16t-16 33.5z" />
<glyph unicode="=" horiz-adv-x="512" d="M-52 514q3 21 16 34t33.5 16t39.5 -15l219 -221l184 184l-477 475q-18 18 -15 39t16 34t33.5 16t39.5 -15l512 -512l6 -12q8 -8 8 -25v-1024q0 -18 -14 -37q-12 -16 -36 -14t-38 14l-219 221l-219 -221q-18 -18 -39 -15t-34 16t-16 33.5t15 39.5l242 239v472l-242 239 q-18 18 -15 39zM-52 1538q3 21 16 34t33.5 16t39.5 -15l219 -221l219 221q18 18 39 15t34 -16t16 -34t-15 -39l-256 -256q-18 -14 -37 -14q-18 0 -37 14l-256 256q-18 18 -15 39z" />
<glyph unicode="&#x3e;" horiz-adv-x="512" d="M-52 -2.5q-3 20.5 15 39.5l477 475l-477 475q-18 18 -15 39t16 34t33.5 16t39.5 -15l512 -512q4 -6 9 -17.5t5 -19.5v-1024q0 -35 -31.5 -47t-56.5 10l-256 256q-14 18 -14 37v389l-168 -170q-18 -18 -39 -15t-34 16t-16 33.5zM204 1277.5q-3 20.5 15 39.5l256 256 q18 18 39 15t34 -16t16 -34t-15 -39l-256 -256q-18 -18 -39 -15t-34 16t-16 33.5z" />
<glyph unicode="?" horiz-adv-x="1024" d="M-52 -2.5q-3 20.5 15 39.5l498 495v369l-424 -426q-18 -18 -39 -15t-34 16t-16 33.5t15 39.5l477 475l-477 475q-18 18 -15 39t16 34t33.5 16t39.5 -15l731 -733l184 184l-477 475q-18 18 -15 39t16 34t33.5 16t39.5 -15l512 -512q14 -16 14 -36.5t-14 -37.5l-733 -731 l389 -389v389q0 8 4 19.5t10 17.5l256 256q18 18 39 15t34 -16t16 -33.5t-15 -39.5l-221 -219l221 -219q14 -16 14 -37t-14 -37l-256 -256l-256 -256q-18 -18 -39 -15t-34 16t-16 33.5t15 39.5l221 219l-440 440l-219 -221q-18 -18 -39 -15t-34 16t-16 33.5zM-52 -514.5 q-3 20.5 15 39.5l256 256q18 18 39 15t34 -16t16 -34t-15 -39l-256 -256q-18 -18 -39 -15t-34 16t-16 33.5z" />
<glyph unicode="@" d="M-52 514q3 21 16 34t33.5 16t39.5 -15l680 -682v369l-498 495q-14 16 -14 36.5t14 37.5l768 768q16 14 36.5 14t37.5 -14l1024 -1024q14 -16 14 -37t-14 -37l-1024 -1024q-18 -18 -39 -15t-34 16t-16 33.5t15 39.5l477 475l-389 389v-389q0 -18 -14 -37l-256 -256 q-27 -23 -55 -10q-4 2 -38 33.5t-86.5 83t-118 117t-135 134t-137 137t-124 125l-96.5 96.5l-52 52q-18 18 -15 39zM-52 1021.5q-3 20.5 15 39.5l512 512q18 18 39 15t34 -16t16 -34t-15 -39l-512 -512q-18 -18 -39 -15t-34 16t-16 33.5zM-51 -0.5q0 20.5 14 37.5 q16 14 36.5 14t37.5 -14l512 -512q14 -16 14 -37t-14 -37q-16 -14 -36.5 -14t-37.5 14l-512 512q-14 16 -14 36.5zM328 768l389 -389v389q0 8 5 19.5t9 17.5l256 256q16 14 36.5 14t37.5 -14l512 -512q18 -18 15 -39t-16 -34t-33.5 -16t-39.5 15l-475 477l-184 -184 l696 -696l440 440l-952 952zM1484 -514.5q-3 20.5 15 39.5l512 512q18 18 39 15t34 -16t16 -34t-15 -39l-512 -512q-18 -18 -39 -15t-34 16t-16 33.5zM1741 1279.5q0 20.5 14 37.5l256 256q18 18 39 15t34 -16t16 -33.5t-15 -39.5l-221 -219l221 -219q18 -18 15 -39t-16 -34 t-33.5 -16t-39.5 15l-256 256q-14 16 -14 36.5z" />
<glyph unicode="A" horiz-adv-x="512" d="M-52 -2.5q-3 20.5 15 39.5l512 512q18 18 39 15t34 -16t16 -34t-15 -39l-512 -512q-18 -18 -39 -15t-34 16t-16 33.5zM-52 509.5q-3 20.5 15 39.5l512 512q18 18 39 15t34 -16t16 -34t-15 -39l-512 -512q-18 -18 -39 -15t-34 16t-16 33.5zM-52 -514.5q-3 20.5 15 39.5 l512 512q18 18 39 15t34 -16t16 -34t-15 -39l-512 -512q-18 -18 -39 -15t-34 16t-16 33.5zM-52 1021.5q-3 20.5 15 39.5l512 512q18 18 39 15t34 -16t16 -34t-15 -39l-512 -512q-18 -18 -39 -15t-34 16t-16 33.5z" />
<glyph unicode="B" d="M-52 -2.5q-3 20.5 15 39.5l221 219l-221 219q-18 18 -15 39t16 34t33.5 16t39.5 -15l256 -256q14 -16 14 -37t-14 -37l-256 -256q-18 -18 -39 -15t-34 16t-16 33.5zM-52 -514.5q-3 20.5 15 39.5l498 495v472l-498 495q-18 18 -15 39t16 34t33.5 16t39.5 -15l731 -733 l731 733q18 18 39 15t34 -16t16 -33.5t-15 -39.5l-754 -751v-369l1157 1157l-440 440q-12 -12 -49 -50t-91.5 -92t-119 -119.5t-130 -131t-129 -128t-112.5 -112t-81.5 -79t-37.5 -31.5q-29 -12 -55 10l-256 256l-512 512q-18 18 -15 39t16 34t33.5 16t39.5 -15l475 -477 l475 477q18 18 39 15t34 -16t16 -33.5t-15 -39.5l-242 -239v-369l680 682q16 14 36.5 14t37.5 -14l512 -512q14 -16 14 -37t-14 -37l-989 -987l477 -475q18 -18 15 -39t-16 -34t-33.5 -16t-39.5 15l-475 477l-475 -477q-25 -23 -56.5 -10.5t-31.5 47.5v389l-424 -426 q-18 -18 -39 -15t-34 16t-16 33.5zM1485 -0.5q0 20.5 14 37.5l512 512q18 18 39 15t34 -16t16 -33.5t-15 -39.5l-477 -475l477 -475q18 -18 15 -39t-16 -34t-33.5 -16t-39.5 15l-512 512q-14 16 -14 36.5z" />
<glyph unicode="C" d="M-52 514q3 21 16 34t33.5 16t39.5 -15l219 -221l184 184l-221 219q-14 16 -14 36.5t14 37.5l512 512q16 14 36.5 14t37.5 -14l219 -221l184 184l-221 219q-18 18 -15 39t16 34t33.5 16t39.5 -15l256 -256l6 -12q8 -8 8 -25v-389l389 389l-221 219q-18 18 -15 39t16 34 t33.5 16t39.5 -15l512 -512q23 -25 10.5 -56.5t-47.5 -31.5q-18 0 -37 14l-219 221l-696 -696l221 -219q6 -6 10 -17.5t4 -19.5v-389l389 389l-221 219q-14 16 -14 36.5t14 37.5l256 256q16 14 36.5 14t37.5 -14l256 -256q18 -18 15 -39t-16 -34t-33.5 -16t-39.5 15 l-219 221l-184 -184l221 -219q14 -16 14 -36.5t-14 -37.5l-512 -512q-27 -23 -55 -10q-6 2 -41 34.5t-84.5 82t-107.5 108t-111.5 111.5t-94.5 95t-55 56l-731 -733q-18 -18 -39 -15t-34 16t-16 33.5t15 39.5l768 768q16 14 36.5 14t37.5 -14l219 -221l184 184l-477 475 q-18 18 -15 39t16 34t33.5 16t39.5 -15l219 -221l184 184l-440 440l-440 -440l221 -219q14 -16 14 -36.5t-14 -37.5l-256 -256q-18 -14 -37 -14q-18 0 -37 14l-256 256q-18 18 -15 39zM-52 1021.5q-3 20.5 15 39.5l512 512q18 18 39 15t34 -16t16 -34t-15 -39l-512 -512 q-18 -18 -39 -15t-34 16t-16 33.5zM460 -514.5q-3 20.5 15 39.5l256 256q16 14 36.5 14t37.5 -14l256 -256q18 -18 15 -39t-16 -34t-33.5 -16t-39.5 15l-219 221l-219 -221q-18 -18 -39 -15t-34 16t-16 33.5zM1484 -514.5q-3 20.5 15 39.5l512 512q18 18 39 15t34 -16 t16 -34t-15 -39l-512 -512q-18 -18 -39 -15t-34 16t-16 33.5z" />
<glyph unicode="D" d="M-52 2q3 21 16 34t33.5 16t39.5 -15l219 -221l184 184l-221 219q-14 16 -14 36.5t14 37.5l477 475l-733 731q-18 18 -15 39t16 34t33.5 16t39.5 -15l424 -426v389q0 35 31.5 47t56.5 -10l256 -256l1280 -1280q18 -18 15 -39t-16 -34t-33.5 -16t-39.5 15l-1192 1194v-389 q0 -8 -5 -19.5t-9 -17.5l-477 -475l221 -219q14 -16 14 -36.5t-14 -37.5l-256 -256q-18 -14 -37 -14q-18 0 -37 14l-256 256q-18 18 -15 39zM-52 509.5q-3 20.5 15 39.5l221 219l-221 219q-18 18 -15 39t16 34t33.5 16t39.5 -15l256 -256q14 -16 14 -37t-14 -37l-256 -256 q-18 -18 -39 -15t-34 16t-16 33.5zM460 -514.5q-3 20.5 15 39.5l242 239v492q0 8 5 19.5t9 17.5l256 256q16 14 36.5 14t37.5 -14l1024 -1024q18 -18 15 -39t-16 -34t-33.5 -16t-39.5 15l-987 989l-184 -184l733 -731q18 -18 15 -39t-16 -34t-33.5 -16t-39.5 15l-424 426 v-389q0 -18 -14 -37q-14 -16 -37 -14t-37 14l-219 221l-219 -221q-18 -18 -39 -15t-34 16t-16 33.5zM973 1535.5q0 20.5 14 37.5q16 14 36.5 14t37.5 -14l1024 -1024q14 -16 14 -37t-14 -37q-16 -14 -36.5 -14t-37.5 14l-1024 1024q-14 16 -14 36.5zM1485 1535.5 q0 20.5 14 37.5q16 14 36.5 14t37.5 -14l512 -512q14 -16 14 -37t-14 -37q-16 -14 -36.5 -14t-37.5 14l-512 512q-14 16 -14 36.5z" />
<glyph unicode="E" horiz-adv-x="512" d="M-52 509.5q-3 20.5 15 39.5l242 239v369l-168 -170q-18 -18 -39 -15t-34 16t-16 33.5t15 39.5l256 256l256 256q12 12 37 14t37 -14q4 -8 9 -17.5t5 -19.5v-512q0 -18 -14 -37l-512 -512q-18 -18 -39 -15t-34 16t-16 33.5zM-51 -0.5q0 20.5 14 37.5l256 256l256 256 q8 8 25 12q23 4 43 -9t20 -40v-512q0 -33 -31 -47q-33 -14 -57 10l-219 221l-184 -184l477 -475q14 -16 14 -36.5t-14 -37.5q-16 -14 -36.5 -14t-37.5 14l-512 512q-14 16 -14 36.5z" />
<glyph unicode="F" d="M-52 -2.5q-3 20.5 15 39.5l242 239v369l-168 -170q-18 -18 -39 -15t-34 16t-16 33.5t15 39.5l477 475l-184 184l-219 -221q-18 -18 -39 -15t-34 16t-16 33.5t15 39.5l256 256q16 14 36.5 14t37.5 -14l1024 -1024l475 -477l219 221q18 18 39 15t34 -16t16 -34t-15 -39 l-256 -256q-18 -14 -37 -14q-18 0 -37 14l-168 170v-389q0 -35 -31.5 -47t-56.5 10l-219 221l-219 -221q-18 -18 -39 -15t-34 16t-16 33.5t15 39.5l242 239v472l-666 665v-369l498 -495q14 -16 14 -36.5t-14 -37.5l-512 -512q-18 -18 -39 -15t-34 16t-16 33.5t15 39.5 l477 475l-389 389v-389q0 -8 -5 -19.5t-9 -17.5l-512 -512q-18 -18 -39 -15t-34 16t-16 33.5t15 39.5l477 475l-184 184l-219 -221q-18 -18 -39 -15t-34 16t-16 33.5zM460 1538q3 21 16 34t33.5 16t39.5 -15l219 -221l219 221q18 18 39 15t34 -16t16 -34t-15 -39l-256 -256 q-18 -14 -37 -14q-18 0 -37 14l-256 256q-18 18 -15 39zM973 1023.5q0 20.5 14 37.5l512 512q18 18 39 15t34 -16t16 -33.5t-15 -39.5l-477 -475l696 -696l219 221q18 18 39 15t34 -16t16 -34t-15 -39l-256 -256q-16 -14 -36.5 -14t-37.5 14l-768 768q-14 16 -14 36.5z M1485 1023.5q0 20.5 14 37.5l512 512q16 14 36.5 14t37.5 -14q14 -16 14 -36.5t-14 -37.5l-477 -475l184 -184l219 221q18 18 39 15t34 -16t16 -34t-15 -39l-256 -256q-18 -14 -37 -14q-18 0 -37 14l-256 256q-14 16 -14 36.5z" />
<glyph unicode="G" d="M-52 1021.5q-3 20.5 15 39.5l512 512q18 18 39 15t34 -16t16 -34t-15 -39l-512 -512q-18 -18 -39 -15t-34 16t-16 33.5zM-51 -0.5q0 20.5 14 37.5q16 14 36.5 14t37.5 -14l512 -512q14 -16 14 -37t-14 -37q-16 -14 -36.5 -14t-37.5 14l-512 512q-14 16 -14 36.5z M-51 511.5q0 20.5 14 37.5q16 14 36.5 14t37.5 -14l1024 -1024q14 -16 14 -37t-14 -37q-16 -14 -36.5 -14t-37.5 14l-1024 1024q-14 16 -14 36.5zM205 767.5q0 20.5 14 37.5l768 768q4 4 8 5t9 5q12 6 29.5 3t27.5 -13l256 -256l512 -512q14 -16 14 -36.5t-14 -37.5 l-477 -475l184 -184l475 477q18 18 39 15t34 -16t16 -33.5t-15 -39.5l-498 -495v-369l424 426q18 18 39 15t34 -16t16 -34t-15 -39l-55 -55t-99.5 -100.5t-120 -121t-119 -117.5t-93 -90t-44.5 -38q-29 -12 -55 10l-256 256l-512 512q-14 16 -14 36.5t14 37.5l477 475 l-184 184l-475 -477q-16 -14 -36.5 -14t-37.5 14l-256 256q-14 16 -14 36.5zM328 768l184 -184l461 460v369zM840 256l389 -389v389q0 8 5 19.5t9 17.5l477 475l-389 389v-389q0 -8 -5 -19.5t-9 -17.5zM1485 1535.5q0 20.5 14 37.5q16 14 36.5 14t37.5 -14l512 -512 q14 -16 14 -37t-14 -37q-16 -14 -36.5 -14t-37.5 14l-512 512q-14 16 -14 36.5z" />
<glyph unicode="H" horiz-adv-x="1024" d="M-52 -2.5q-3 20.5 15 39.5l242 239v369l-168 -170q-18 -18 -39 -15t-34 16t-16 33.5t15 39.5l477 475l-184 184l-219 -221q-18 -18 -39 -15t-34 16t-16 33.5t15 39.5l256 256q16 14 36.5 14t37.5 -14l256 -256q4 -6 9 -17.5t5 -19.5v-492l498 -495q14 -16 14 -37t-14 -37 l-512 -512q-18 -18 -39 -15t-34 16t-16 33.5t15 39.5l477 475l-389 389v-389q0 -8 -5 -19.5t-9 -17.5l-512 -512q-18 -18 -39 -15t-34 16t-16 33.5t15 39.5l477 475l-184 184l-219 -221q-18 -18 -39 -15t-34 16t-16 33.5zM460 1538q3 21 16 34t33.5 16t39.5 -15l219 -221 l219 221q18 18 39 15t34 -16t16 -34t-15 -39l-256 -256q-18 -14 -37 -14q-18 0 -37 14l-256 256q-18 18 -15 39zM717 767.5q0 20.5 14 37.5l256 256q18 18 39 15t34 -16t16 -33.5t-15 -39.5l-221 -219l221 -219q18 -18 15 -39t-16 -34t-33.5 -16t-39.5 15l-256 256 q-14 16 -14 36.5z" />
<glyph unicode="I" horiz-adv-x="512" d="M-52 -2.5q-3 20.5 15 39.5l512 512q18 18 39 15t34 -16t16 -34t-15 -39l-512 -512q-18 -18 -39 -15t-34 16t-16 33.5zM-52 509.5q-3 20.5 15 39.5l477 475l-477 475q-18 18 -15 39t16 34t33.5 16t39.5 -15l512 -512q14 -16 14 -37t-14 -37l-512 -512q-18 -18 -39 -15 t-34 16t-16 33.5zM-52 -514.5q-3 20.5 15 39.5l512 512q18 18 39 15t34 -16t16 -34t-15 -39l-512 -512q-18 -18 -39 -15t-34 16t-16 33.5z" />
<glyph unicode="J" d="M-52 509.5q-3 20.5 15 39.5l256 256q16 14 36.5 14t37.5 -14l1280 -1280q18 -18 15 -39t-16 -34t-33.5 -16t-39.5 15l-1243 1245l-219 -221q-18 -18 -39 -15t-34 16t-16 33.5zM-51 -0.5q0 20.5 14 37.5l256 256q16 14 36.5 14t37.5 -14l768 -768q14 -16 14 -37t-14 -37 q-16 -14 -36.5 -14t-37.5 14l-680 682v-369l242 -239q18 -18 15 -39t-16 -34t-33.5 -16t-39.5 15l-256 256l-256 256q-14 16 -14 36.5zM-51 1024v512q0 35 31.5 47t56.5 -10l2048 -2048q18 -18 15 -39t-16 -34t-33.5 -16t-39.5 15l-1755 1757l-219 -221q-14 -12 -38 -14 t-36 14q-14 18 -14 37zM460 1538q3 21 16 34t33.5 16t39.5 -15l1243 -1245l219 221q18 18 39 15t34 -16t16 -34t-15 -39l-256 -256q-16 -14 -36.5 -14t-37.5 14l-1280 1280q-18 18 -15 39zM973 1535.5q0 20.5 14 37.5q16 14 36.5 14t37.5 -14l731 -733l184 184l-477 475 q-18 18 -15 39t16 34t33.5 16t39.5 -15l512 -512q14 -16 14 -37t-14 -37l-256 -256q-16 -14 -36.5 -14t-37.5 14l-768 768q-14 16 -14 36.5z" />
<glyph unicode="K" d="M-52 -2.5q-3 20.5 15 39.5l256 256q16 14 36.5 14t37.5 -14l219 -221l184 184l-440 440l-219 -221q-18 -18 -39 -15t-34 16t-16 33.5t15 39.5l256 256q16 14 36.5 14t37.5 -14l512 -512q0 -2 1 -3t1 -3q4 -8 8 -14.5t4 -16.5v-389l168 170q16 14 36.5 14t37.5 -14 l256 -256q14 -16 14 -37t-14 -37l-256 -256q-18 -18 -39 -15t-34 16t-16 33.5t15 39.5l221 219l-184 184l-219 -221l-256 -256q-25 -23 -56.5 -10.5t-31.5 47.5v492l-205 204l-219 -221q-18 -18 -39 -15t-34 16t-16 33.5zM-52 -514.5q-3 20.5 15 39.5l256 256q18 18 39 15 t34 -16t16 -34t-15 -39l-256 -256q-18 -18 -39 -15t-34 16t-16 33.5zM-52 1021.5q-3 20.5 15 39.5l512 512q18 18 39 15t34 -16t16 -34t-15 -39l-512 -512q-18 -18 -39 -15t-34 16t-16 33.5zM461 1023.5q0 20.5 14 37.5l512 512q18 18 39 15t34 -16t16 -33.5t-15 -39.5 l-477 -475l389 -389v389q0 8 4 19.5t10 17.5l256 256q16 14 36.5 14t37.5 -14l219 -221l475 477q18 18 39 15t34 -16t16 -33.5t-15 -39.5l-512 -512q-16 -14 -36.5 -14t-37.5 14l-219 221l-184 -184l440 -440l475 477q18 18 39 15t34 -16t16 -33.5t-15 -39.5l-512 -512 q-16 -14 -36.5 -14t-37.5 14l-168 170v-369l205 -204l475 477q18 18 39 15t34 -16t16 -34t-15 -39l-512 -512q-18 -14 -37 -14q-18 0 -37 14l-1024 1024q-14 16 -14 36.5zM1484 -514.5q-3 20.5 15 39.5l512 512q18 18 39 15t34 -16t16 -34t-15 -39l-512 -512 q-18 -18 -39 -15t-34 16t-16 33.5z" />
<glyph unicode="L" horiz-adv-x="1024" d="M-52 -2.5q-3 20.5 15 39.5l221 219l-221 219q-14 16 -14 36.5t14 37.5l1024 1024q18 18 39 15t34 -16t16 -33.5t-15 -39.5l-989 -987l440 -440l184 184l-221 219q-14 16 -14 36.5t14 37.5l512 512q18 18 39 15t34 -16t16 -34t-15 -39l-477 -475l221 -219q14 -16 14 -36.5 t-14 -37.5l-512 -512l-256 -256q-18 -18 -39 -15t-34 16t-16 33.5t15 39.5l242 239v369l-168 -170q-18 -18 -39 -15t-34 16t-16 33.5zM-52 1021.5q-3 20.5 15 39.5l512 512q18 18 39 15t34 -16t16 -34t-15 -39l-512 -512q-18 -18 -39 -15t-34 16t-16 33.5zM460 -514.5 q-3 20.5 15 39.5l512 512q18 18 39 15t34 -16t16 -34t-15 -39l-512 -512q-18 -18 -39 -15t-34 16t-16 33.5z" />
<glyph unicode="M" d="M-52 514q3 21 16 34t33.5 16t39.5 -15l256 -256q14 -16 14 -36.5t-14 -37.5l-221 -219l184 -184l219 221q16 14 36.5 14t37.5 -14l256 -256q14 -16 14 -37t-14 -37l-256 -256q-18 -18 -39 -15t-34 16t-16 33.5t15 39.5l221 219l-184 184l-219 -221q-16 -14 -36.5 -14 t-37.5 14l-256 256q-14 16 -14 36.5t14 37.5l221 219l-221 219q-18 18 -15 39zM-52 1021.5q-3 20.5 15 39.5l256 256q16 14 36.5 14t37.5 -14l256 -256q14 -16 14 -36.5t-14 -37.5l-221 -219l184 -184l205 204v472l-242 239q-18 18 -15 39t16 34t33.5 16t39.5 -15l219 -221 l219 221q18 18 39 15t34 -16t16 -33.5t-15 -39.5l-221 -219l184 -184l475 477q18 18 39 15t34 -16t16 -33.5t-15 -39.5l-498 -495v-369l424 426q16 14 36.5 14t37.5 -14l256 -256q14 -16 14 -36.5t-14 -37.5l-221 -219l184 -184l219 221q18 18 39 15t34 -16t16 -34t-15 -39 l-256 -256q-18 -14 -37 -14q-18 0 -37 14l-168 170v-389q0 -8 -5 -19.5t-9 -17.5l-512 -512q-18 -18 -39 -15t-34 16t-16 33.5t15 39.5l477 475l-184 184l-219 -221q-16 -14 -36.5 -14t-37.5 14l-256 256q-14 18 -14 37v389l-168 -170q-16 -14 -36.5 -14t-37.5 14l-256 256 q-14 16 -14 36.5t14 37.5l221 219l-184 184l-219 -221q-18 -18 -39 -15t-34 16t-16 33.5zM1075 123l645 645l-184 184l-461 -460v-369zM1484 -514.5q-3 20.5 15 39.5l256 256q16 14 36.5 14t37.5 -14l256 -256q18 -18 15 -39t-16 -34t-33.5 -16t-39.5 15l-219 221l-219 -221 q-18 -18 -39 -15t-34 16t-16 33.5zM1741 1279.5q0 20.5 14 37.5l256 256q18 18 39 15t34 -16t16 -33.5t-15 -39.5l-221 -219l221 -219q18 -18 15 -39t-16 -34t-33.5 -16t-39.5 15l-256 256q-14 16 -14 36.5z" />
<glyph unicode="N" d="M-52 -2.5q-3 20.5 15 39.5l498 495v472l-498 495q-18 18 -15 39t16 34t33.5 16t39.5 -15l475 -477l184 184l-221 219q-18 18 -15 39t16 34t33.5 16t39.5 -15l256 -256l6 -12q8 -8 8 -25v-492l154 -153v389q0 8 4 19.5t10 17.5l221 219l-221 219q-18 18 -15 39t16 34 t33.5 16t39.5 -15l731 -733l219 221q18 18 39 15t34 -16t16 -33.5t-15 -39.5l-256 -256q-18 -14 -37 -14q-18 0 -37 14l-475 477l-184 -184l477 -475q18 -18 15 -39t-16 -34t-33.5 -16t-39.5 15l-168 170v-369l205 -204l475 477q18 18 39 15t34 -16t16 -33.5t-15 -39.5 l-477 -475l477 -475q18 -18 15 -39t-16 -34t-33.5 -16t-39.5 15l-219 221l-219 -221q-18 -18 -39 -15t-34 16t-16 33.5t15 39.5l221 219l-440 440l-219 -221q-16 -14 -36.5 -14t-37.5 14l-256 256q-18 18 -15 39t16 34t33.5 16t39.5 -15l168 -170v369l-205 204l-731 -733 q-18 -18 -39 -15t-34 16t-16 33.5zM-52 509.5q-3 20.5 15 39.5l221 219l-221 219q-18 18 -15 39t16 34t33.5 16t39.5 -15l256 -256q14 -16 14 -37t-14 -37l-256 -256q-18 -18 -39 -15t-34 16t-16 33.5zM204 -258.5q-3 20.5 15 39.5l256 256q16 14 36.5 14t37.5 -14l475 -477 l219 221q18 18 39 15t34 -16t16 -34t-15 -39l-256 -256q-18 -14 -37 -14q-18 0 -37 14l-475 477l-219 -221q-18 -18 -39 -15t-34 16t-16 33.5zM1485 1535.5q0 20.5 14 37.5q16 14 36.5 14t37.5 -14l256 -256q14 -16 14 -37t-14 -37q-16 -14 -36.5 -14t-37.5 14l-256 256 q-14 16 -14 36.5z" />
<glyph unicode="O" horiz-adv-x="512" d="M-52 1021.5q-3 20.5 15 39.5l512 512q18 18 39 15t34 -16t16 -34t-15 -39l-512 -512q-18 -18 -39 -15t-34 16t-16 33.5zM-51 -0.5q0 20.5 14 37.5q16 14 36.5 14t37.5 -14l512 -512q14 -16 14 -37t-14 -37q-16 -14 -36.5 -14t-37.5 14l-512 512q-14 16 -14 36.5z M-51 511.5q0 20.5 14 37.5l512 512q18 18 39 15t34 -16t16 -33.5t-15 -39.5l-477 -475l477 -475q18 -18 15 -39t-16 -34t-33.5 -16t-39.5 15l-512 512q-14 16 -14 36.5z" />
<glyph unicode="P" d="M-52 -2.5q-3 20.5 15 39.5l256 256q16 14 36.5 14t37.5 -14l768 -768q18 -18 15 -39t-16 -34t-33.5 -16t-39.5 15l-731 733l-219 -221q-18 -18 -39 -15t-34 16t-16 33.5zM-52 509.5q-3 20.5 15 39.5l242 239v369l-168 -170q-18 -18 -39 -15t-34 16t-16 33.5t15 39.5 l256 256l256 256q14 12 38 14t36 -14q14 -18 14 -37v-389l424 426q18 18 39 15t34 -16t16 -33.5t-15 -39.5l-477 -475l989 -987l512 -512q18 -18 15 -39t-16 -34t-33.5 -16t-39.5 15l-475 477l-184 -184l221 -219q18 -18 15 -39t-16 -34t-33.5 -16t-39.5 15l-256 256 l-987 989l-219 -221q-18 -18 -39 -15t-34 16t-16 33.5zM-52 -514.5q-3 20.5 15 39.5l256 256q16 14 36.5 14t37.5 -14l256 -256q18 -18 15 -39t-16 -34t-33.5 -16t-39.5 15l-219 221l-219 -221q-18 -18 -39 -15t-34 16t-16 33.5zM563 532l461 -460l184 184l-645 645v-369z M973 1023.5q0 20.5 14 37.5l512 512q18 18 39 15t34 -16t16 -33.5t-15 -39.5l-477 -475l440 -440l219 221q16 14 36.5 14t37.5 -14l256 -256q18 -18 15 -39t-16 -34t-33.5 -16t-39.5 15l-219 221l-184 -184l477 -475q18 -18 15 -39t-16 -34t-33.5 -16t-39.5 15l-1024 1024 q-14 16 -14 36.5zM1484 1021.5q-3 20.5 15 39.5l256 256q16 14 36.5 14t37.5 -14l256 -256q18 -18 15 -39t-16 -34t-33.5 -16t-39.5 15l-219 221l-219 -221q-18 -18 -39 -15t-34 16t-16 33.5z" />
<glyph unicode="Q" d="M-52 514q3 21 16 34t33.5 16t39.5 -15l256 -256q14 -16 14 -36.5t-14 -37.5l-221 -219l477 -475q18 -18 15 -39t-16 -34t-33.5 -16t-39.5 15l-512 512q-14 16 -14 36.5t14 37.5l221 219l-221 219q-18 18 -15 39zM-52 1538q3 21 16 34t33.5 16t39.5 -15l512 -512 q14 -16 14 -36.5t-14 -37.5l-221 -219l1245 -1243q18 -18 15 -39t-16 -34t-33.5 -16t-39.5 15l-731 733l-184 -184l477 -475q18 -18 15 -39t-16 -34t-33.5 -16t-39.5 15l-512 512q-14 16 -14 36.5t14 37.5l221 219l-477 475q-14 16 -14 36.5t14 37.5l221 219l-477 475 q-18 18 -15 39zM460 1538q3 21 16 34t33.5 16t39.5 -15l219 -221l219 221q16 14 36.5 14t37.5 -14l512 -512q14 -16 14 -37t-14 -37l-477 -475l221 -219q18 -18 15 -39t-16 -34t-33.5 -16t-39.5 15l-256 256l-256 256q-14 18 -14 37v492l-242 239q-18 18 -15 39zM1075 635 l389 389l-389 389v-778zM1484 514q3 21 16 34t33.5 16t39.5 -15l256 -256q14 -16 14 -36.5t-14 -37.5l-221 -219l477 -475q18 -18 15 -39t-16 -34t-33.5 -16t-39.5 15l-512 512q-14 16 -14 36.5t14 37.5l221 219l-221 219q-18 18 -15 39zM1484 1538q3 21 16 34t33.5 16 t39.5 -15l512 -512q14 -16 14 -36.5t-14 -37.5l-221 -219l221 -219q18 -18 15 -39t-16 -34t-33.5 -16t-39.5 15l-256 256q-14 16 -14 36.5t14 37.5l221 219l-477 475q-18 18 -15 39z" />
<glyph unicode="R" horiz-adv-x="1024" d="M-52 -2.5q-3 20.5 15 39.5l989 987l-477 475q-18 18 -15 39t16 34t33.5 16t39.5 -15l512 -512q4 -6 9 -17.5t5 -19.5v-1024q0 -35 -31.5 -47t-56.5 10l-256 256q-14 18 -14 37v389l-680 -682q-18 -18 -39 -15t-34 16t-16 33.5zM-52 509.5q-3 20.5 15 39.5l477 475 l-477 475q-18 18 -15 39t16 34t33.5 16t39.5 -15l512 -512q14 -16 14 -37t-14 -37l-512 -512q-18 -18 -39 -15t-34 16t-16 33.5zM-52 -514.5q-3 20.5 15 39.5l512 512q16 14 36.5 14t37.5 -14l512 -512q18 -18 15 -39t-16 -34t-33.5 -16t-39.5 15l-475 477l-475 -477 q-18 -18 -39 -15t-34 16t-16 33.5z" />
<glyph unicode="S" horiz-adv-x="1024" d="M-52 514q3 21 16 34t33.5 16t39.5 -15l475 -477l184 184l-733 731q-14 16 -14 36.5t14 37.5l512 512q20 18 49 12q16 -4 25 -12l512 -512q18 -18 15 -39t-16 -34t-33.5 -16t-39.5 15l-219 221l-184 -184l477 -475q18 -18 15 -39t-16 -34t-33.5 -16t-39.5 15l-219 221 l-184 -184l221 -219q4 -6 9 -17.5t5 -19.5v-492l242 -239q18 -18 15 -39t-16 -34t-33.5 -16t-39.5 15l-1024 1024q-18 18 -15 39zM-51 -0.5q0 20.5 14 37.5q16 14 36.5 14t37.5 -14l512 -512q14 -16 14 -37t-14 -37q-16 -14 -36.5 -14t-37.5 14l-512 512q-14 16 -14 36.5z M72 1024l440 -440l184 184l-221 219q-4 6 -9 17.5t-5 19.5v389z" />
<glyph unicode="T" horiz-adv-x="1024" d="M-52 -2.5q-3 20.5 15 39.5l221 219l-221 219q-18 18 -15 39t16 34t33.5 16t39.5 -15l256 -256q14 -16 14 -37t-14 -37l-256 -256q-18 -18 -39 -15t-34 16t-16 33.5zM-52 -514.5q-3 20.5 15 39.5l498 495v472l-498 495q-18 18 -15 39t16 34t33.5 16t39.5 -15l475 -477 l184 184l-733 731q-18 18 -15 39t16 34t33.5 16t39.5 -15l768 -768q4 -6 9 -17.5t5 -19.5v-389l168 170q18 18 39 15t34 -16t16 -33.5t-15 -39.5l-242 -239v-369l168 170q18 18 39 15t34 -16t16 -34t-15 -39l-256 -256l-256 -256q-14 -12 -38 -14t-36 14q-14 18 -14 37v389 l-424 -426q-18 -18 -39 -15t-34 16t-16 33.5zM461 1535.5q0 20.5 14 37.5q16 14 36.5 14t37.5 -14l512 -512q14 -16 14 -37t-14 -37q-16 -14 -36.5 -14t-37.5 14l-512 512q-14 16 -14 36.5z" />
<glyph unicode="U" horiz-adv-x="512" d="M-52 509.5q-3 20.5 15 39.5l242 239v472l-242 239q-18 18 -15 39t16 34t33.5 16t39.5 -15l219 -221l219 221q25 25 57 10q31 -14 31 -47v-512q0 -6 -4 -18q-2 -6 -38 -44t-89 -92.5t-116.5 -117t-120 -120t-100.5 -100.5t-58 -57q-18 -18 -39 -15t-34 16t-16 33.5z M-51 -0.5q0 20.5 14 37.5l512 512q18 18 39 15t34 -16t16 -33.5t-15 -39.5l-477 -475l477 -475q18 -18 15 -39t-16 -34t-33.5 -16t-39.5 15l-512 512q-14 16 -14 36.5z" />
<glyph unicode="V" d="M-52 -514.5q-3 20.5 15 39.5l733 731l-389 389v-389q0 -18 -14 -37l-256 -256q-20 -18 -44 -14t-36 26q-8 8 -8 25v1024q0 18 14 37q12 16 36 14t38 -14l219 -221l440 440l-221 219q-18 18 -15 39t16 34t33.5 16t39.5 -15l475 -477l184 184l-221 219q-18 18 -15 39t16 34 t33.5 16t39.5 -15l256 -256l6 -12q8 -8 8 -25v-389l389 389l-221 219q-18 18 -15 39t16 34t33.5 16t39.5 -15l512 -512q18 -18 15 -39t-16 -34t-33.5 -16t-39.5 15l-219 221l-461 -460v-472l754 -751q18 -18 15 -39t-16 -34t-33.5 -16t-39.5 15l-1024 1024l-256 256 q-18 18 -15 39t16 34t33.5 16t39.5 -15l168 -170v369l-205 204l-440 -440l733 -731q4 -6 9 -17.5t5 -19.5v-512q0 -18 -14 -37q-12 -16 -36 -14t-38 14l-219 221l-219 -221q-18 -18 -39 -15t-34 16t-16 33.5t15 39.5l477 475l-184 184l-731 -733q-18 -18 -39 -15t-34 16 t-16 33.5zM-51 1535.5q0 20.5 14 37.5q16 14 36.5 14t37.5 -14l256 -256q14 -16 14 -37t-14 -37q-16 -14 -36.5 -14t-37.5 14l-256 256q-14 16 -14 36.5zM1229 -256.5q0 20.5 14 37.5q16 14 36.5 14t37.5 -14l256 -256q14 -16 14 -37t-14 -37q-16 -14 -36.5 -14t-37.5 14 l-256 256q-14 16 -14 36.5zM1485 511.5q0 20.5 14 37.5l256 256q16 14 36.5 14t37.5 -14l256 -256q18 -18 15 -39t-16 -34t-33.5 -16t-39.5 15l-219 221l-184 -184l477 -475q14 -16 14 -37t-14 -37q-16 -14 -36.5 -14t-37.5 14l-512 512q-14 16 -14 36.5z" />
<glyph unicode="W" d="M-52 -2.5q-3 20.5 15 39.5l477 475l-477 475q-14 16 -14 36.5t14 37.5l221 219l-221 219q-18 18 -15 39t16 34t33.5 16t39.5 -15l1499 -1501l184 184l-477 475q-14 16 -14 36.5t14 37.5l768 768q18 18 39 15t34 -16t16 -33.5t-15 -39.5l-733 -731l184 -184l475 477 q18 18 39 15t34 -16t16 -33.5t-15 -39.5l-477 -475l184 -184l219 221q18 18 39 15t34 -16t16 -34t-15 -39l-512 -512l-512 -512q-16 -14 -36.5 -14t-37.5 14l-219 221l-219 -221q-16 -14 -36.5 -14t-37.5 14l-256 256q-14 16 -14 36.5t14 37.5l221 219l-184 184l-219 -221 q-18 -18 -39 -15t-34 16t-16 33.5zM307 788l242 -239q14 -16 14 -36.5t-14 -37.5l-221 -219l184 -184l219 221q16 14 36.5 14t37.5 -14l219 -221l184 184l-901 901v-369zM460 1538q3 21 16 34t33.5 16t39.5 -15l475 -477l475 477q18 18 39 15t34 -16t16 -34t-15 -39 l-512 -512q-18 -14 -37 -14q-18 0 -37 14l-512 512q-18 18 -15 39zM563 -20v-369l389 389l-184 184zM1075 -20v-369l389 389l-184 184zM1484 -514.5q-3 20.5 15 39.5l512 512q18 18 39 15t34 -16t16 -34t-15 -39l-512 -512q-18 -18 -39 -15t-34 16t-16 33.5z" />
<glyph unicode="X" d="M-52 509.5q-3 20.5 15 39.5l768 768q16 14 36.5 14t37.5 -14l512 -512q18 -18 15 -39t-16 -34t-33.5 -16t-39.5 15l-219 221l-440 -440l221 -219q18 -18 15 -39t-16 -34t-33.5 -16t-39.5 15l-219 221l-440 -440l477 -475q18 -18 15 -39t-16 -34t-33.5 -16t-39.5 15 l-512 512q-14 16 -14 36.5t14 37.5l242 239v369l-168 -170q-18 -18 -39 -15t-34 16t-16 33.5zM-52 1538q3 21 16 34t33.5 16t39.5 -15l219 -221l219 221q18 18 39 15t34 -16t16 -34t-15 -39l-256 -256q-18 -14 -37 -14q-18 0 -37 14l-256 256q-18 18 -15 39zM460 2 q3 21 16 34t33.5 16t39.5 -15l219 -221l440 440l-221 219q-18 18 -15 39t16 34t33.5 16t39.5 -15l219 -221l440 440l-477 475q-14 16 -14 36.5t14 37.5l256 256q16 14 36.5 14t37.5 -14l512 -512q18 -18 15 -39t-16 -34t-33.5 -16t-39.5 15l-475 477l-184 -184l733 -731 q14 -16 14 -36.5t-14 -37.5l-498 -495v-369l424 426q18 18 39 15t34 -16t16 -34t-15 -39l-55 -55t-99.5 -100.5t-120 -121t-119 -117.5t-93 -90t-44.5 -38q-29 -12 -55 10l-256 256q-14 18 -14 37v389l-389 -389l221 -219q14 -16 14 -36.5t-14 -37.5q-16 -14 -36.5 -14 t-37.5 14l-512 512q-18 18 -15 39zM563 635l389 389l-184 184l-205 -204v-369zM1587 123l389 389l-184 184l-205 -204v-369z" />
<glyph unicode="Y" horiz-adv-x="512" d="M-52 -2.5q-3 20.5 15 39.5l221 219l-221 219q-18 18 -15 39t16 34t33.5 16t39.5 -15l168 -170v389q0 8 5 19.5t9 17.5l256 256q18 18 39 15t34 -16t16 -33.5t-15 -39.5l-221 -219l221 -219q14 -16 14 -37t-14 -37l-256 -256l-256 -256q-18 -18 -39 -15t-34 16t-16 33.5z M-52 -514.5q-3 20.5 15 39.5l512 512q18 18 39 15t34 -16t16 -34t-15 -39l-512 -512q-18 -18 -39 -15t-34 16t-16 33.5zM-52 1021.5q-3 20.5 15 39.5l512 512q18 18 39 15t34 -16t16 -34t-15 -39l-512 -512q-18 -18 -39 -15t-34 16t-16 33.5z" />
<glyph unicode="Z" d="M-52 514q3 21 16 34t33.5 16t39.5 -15l219 -221l696 696l-221 219q-18 18 -15 39t16 34t33.5 16t39.5 -15l256 -256l6 -12q8 -8 8 -25v-389l389 389l-477 475q-18 18 -15 39t16 34t33.5 16t39.5 -15l219 -221l219 221q18 18 39 15t34 -16t16 -33.5t-15 -39.5l-221 -219 l221 -219q14 -16 14 -37t-14 -37l-498 -495v-492q0 -8 -5 -19.5t-9 -17.5l-221 -219l221 -219q18 -18 15 -39t-16 -34t-33.5 -16t-39.5 15l-219 221l-219 -221q-18 -18 -39 -15t-34 16t-16 33.5t15 39.5l477 475l-221 219q-14 18 -14 37v389l-389 -389l221 -219 q14 -16 14 -36.5t-14 -37.5l-512 -512q-18 -18 -39 -15t-34 16t-16 33.5t15 39.5l477 475l-477 475q-18 18 -15 39zM204 765.5q-3 20.5 15 39.5l221 219l-221 219q-14 16 -14 36.5t14 37.5l256 256q18 18 39 15t34 -16t16 -33.5t-15 -39.5l-221 -219l221 -219q14 -16 14 -37 t-14 -37l-256 -256q-18 -18 -39 -15t-34 16t-16 33.5zM1228 -258.5q-3 20.5 15 39.5l221 219l-221 219q-14 16 -14 36.5t14 37.5l733 731l-221 219q-18 18 -15 39t16 34t33.5 16t39.5 -15l256 -256q14 -16 14 -36.5t-14 -37.5l-221 -219l221 -219q18 -18 15 -39t-16 -34 t-33.5 -16t-39.5 15l-219 221l-440 -440l221 -219q14 -16 14 -36.5t-14 -37.5l-256 -256q-18 -18 -39 -15t-34 16t-16 33.5zM1484 -514.5q-3 20.5 15 39.5l477 475l-221 219q-18 18 -15 39t16 34t33.5 16t39.5 -15l256 -256q14 -16 14 -36.5t-14 -37.5l-221 -219l221 -219 q18 -18 15 -39t-16 -34t-33.5 -16t-39.5 15l-219 221l-219 -221q-18 -18 -39 -15t-34 16t-16 33.5z" />
<glyph unicode="[" horiz-adv-x="512" d="M-52 -2.5q-3 20.5 15 39.5l256 256q23 18 43 12q23 -4 31 -12l256 -256q14 -18 14 -37v-512q0 -16 -9 -27.5t-22 -19.5q-12 -8 -29.5 -4t-27.5 14l-256 256q-14 18 -14 37v389l-168 -170q-18 -18 -39 -15t-34 16t-16 33.5zM-52 509.5q-3 20.5 15 39.5l256 256l256 256 q25 25 57 10q31 -14 31 -47v-512q0 -33 -31 -47q-33 -14 -57 10l-219 221l-219 -221q-18 -18 -39 -15t-34 16t-16 33.5zM-52 1021.5q-3 20.5 15 39.5l512 512q18 18 39 15t34 -16t16 -34t-15 -39l-512 -512q-18 -18 -39 -15t-34 16t-16 33.5z" />
<glyph unicode="\" horiz-adv-x="1024" d="M-52 514q3 21 16 34t33.5 16t39.5 -15l219 -221l440 440l-184 184l-219 -221q-16 -14 -36.5 -14t-37.5 14l-256 256q-18 18 -15 39t16 34t33.5 16t39.5 -15l168 -170v369l-242 239q-18 18 -15 39t16 34t33.5 16t39.5 -15l1024 -1024q18 -18 15 -39t-16 -34t-33.5 -16 t-39.5 15l-168 170v-369l242 -239q18 -18 15 -39t-16 -34t-33.5 -16t-39.5 15l-475 477l-184 -184l733 -731q18 -18 15 -39t-16 -34t-33.5 -16t-39.5 15l-1024 1024q-18 18 -15 39zM-51 -0.5q0 20.5 14 37.5q16 14 36.5 14t37.5 -14l512 -512q14 -16 14 -37t-14 -37 q-16 -14 -36.5 -14t-37.5 14l-512 512q-14 16 -14 36.5zM461 1535.5q0 20.5 14 37.5q16 14 36.5 14t37.5 -14l512 -512q14 -16 14 -37t-14 -37q-16 -14 -36.5 -14t-37.5 14l-512 512q-14 16 -14 36.5z" />
<glyph unicode="]" horiz-adv-x="512" d="M-52 514q3 21 16 34t33.5 16t39.5 -15l168 -170v389q0 16 8 25l6 12l256 256q18 18 39 15t34 -16t16 -33.5t-15 -39.5l-221 -219l221 -219q14 -18 14 -37v-512q0 -16 -8 -25l-6 -12l-512 -512q-18 -18 -39 -15t-34 16t-16 33.5t15 39.5l477 475l-477 475q-18 18 -15 39z M-52 1021.5q-3 20.5 15 39.5l221 219l-221 219q-18 18 -15 39t16 34t33.5 16t39.5 -15l256 -256q14 -16 14 -37t-14 -37l-256 -256q-18 -18 -39 -15t-34 16t-16 33.5z" />
<glyph unicode="^" d="M-52 2q3 21 16 34t33.5 16t39.5 -15l219 -221l717 716v369l-680 -682q-18 -18 -39 -15t-34 16t-16 33.5t15 39.5l989 987l-184 184l-987 -989q-18 -18 -39 -15t-34 16t-16 33.5t15 39.5l221 219l-221 219q-18 18 -15 39t16 34t33.5 16t39.5 -15l219 -221l731 733 q16 14 36.5 14t37.5 -14l768 -768q18 -18 15 -39t-16 -34t-33.5 -16t-39.5 15l-424 426v-369l461 -460l219 221q18 18 39 15t34 -16t16 -33.5t-15 -39.5l-221 -219l221 -219q18 -18 15 -39t-16 -34t-33.5 -16t-39.5 15l-680 682v-369l754 -751q18 -18 15 -39t-16 -34 t-33.5 -16t-39.5 15l-987 989l-987 -989q-18 -18 -39 -15t-34 16t-16 33.5t15 39.5l221 219l-221 219q-18 18 -15 39zM204 1277.5q-3 20.5 15 39.5l256 256q18 18 39 15t34 -16t16 -34t-15 -39l-256 -256q-18 -18 -39 -15t-34 16t-16 33.5zM460 -514.5q-3 20.5 15 39.5 l512 512q16 14 36.5 14t37.5 -14l512 -512q18 -18 15 -39t-16 -34t-33.5 -16t-39.5 15l-475 477l-475 -477q-18 -18 -39 -15t-34 16t-16 33.5zM1485 1535.5q0 20.5 14 37.5q16 14 36.5 14t37.5 -14l512 -512q14 -16 14 -37t-14 -37q-16 -14 -36.5 -14t-37.5 14l-512 512 q-14 16 -14 36.5z" />
<glyph unicode="_" horiz-adv-x="512" d="M-52 509.5q-3 20.5 15 39.5l242 239v492q0 16 8 25l6 12l256 256q18 18 39 15t34 -16t16 -33.5t-15 -39.5l-221 -219l221 -219q14 -16 14 -37t-14 -37l-256 -256l-256 -256q-18 -18 -39 -15t-34 16t-16 33.5zM-52 -514.5q-3 20.5 15 39.5l242 239v492q0 16 8 25l6 12 l256 256q18 18 39 15t34 -16t16 -33.5t-15 -39.5l-221 -219l221 -219q14 -16 14 -37t-14 -37l-256 -256l-256 -256q-18 -18 -39 -15t-34 16t-16 33.5z" />
<glyph unicode="`" horiz-adv-x="512" d="M-52 1026q3 21 16 34t33.5 16t39.5 -15l168 -170v369l-242 239q-18 18 -15 39t16 34t33.5 16t39.5 -15l219 -221l219 221q14 12 38 14t36 -14q14 -18 14 -37v-1024q0 -33 -31 -47q-33 -14 -57 10l-256 256l-256 256q-18 18 -15 39zM-51 -0.5q0 20.5 14 37.5 q16 14 36.5 14t37.5 -14l512 -512q14 -16 14 -37t-14 -37q-16 -14 -36.5 -14t-37.5 14l-512 512q-14 16 -14 36.5zM-51 511.5q0 20.5 14 37.5q16 14 36.5 14t37.5 -14l512 -512q14 -16 14 -37t-14 -37q-16 -14 -36.5 -14t-37.5 14l-512 512q-14 16 -14 36.5z" />
<glyph unicode="a" horiz-adv-x="512" d="M-51 -0.5q0 20.5 14 37.5q16 14 36.5 14t37.5 -14l512 -512q14 -16 14 -37t-14 -37q-16 -14 -36.5 -14t-37.5 14l-512 512q-14 16 -14 36.5zM-51 511.5q0 20.5 14 37.5q16 14 36.5 14t37.5 -14l512 -512q14 -16 14 -37t-14 -37q-16 -14 -36.5 -14t-37.5 14l-512 512 q-14 16 -14 36.5zM-51 1023.5q0 20.5 14 37.5q16 14 36.5 14t37.5 -14l512 -512q14 -16 14 -37t-14 -37q-16 -14 -36.5 -14t-37.5 14l-512 512q-14 16 -14 36.5zM-51 1535.5q0 20.5 14 37.5q16 14 36.5 14t37.5 -14l512 -512q14 -16 14 -37t-14 -37q-16 -14 -36.5 -14 t-37.5 14l-512 512q-14 16 -14 36.5z" />
<glyph unicode="b" d="M-52 -514.5q-3 20.5 15 39.5l512 512q16 14 36.5 14t37.5 -14l512 -512q18 -18 15 -39t-16 -34t-33.5 -16t-39.5 15l-475 477l-475 -477q-18 -18 -39 -15t-34 16t-16 33.5zM-52 1538q3 21 16 34t33.5 16t39.5 -15l219 -221l219 221q16 14 36.5 14t37.5 -14l475 -477 l184 184l-221 219q-18 18 -15 39t16 34t33.5 16t39.5 -15l219 -221l219 221q18 18 39 15t34 -16t16 -33.5t-15 -39.5l-477 -475l184 -184l731 733q18 18 39 15t34 -16t16 -33.5t-15 -39.5l-477 -475l477 -475q18 -18 15 -39t-16 -34t-33.5 -16t-39.5 15l-424 426v-369 l498 -495q14 -16 14 -37t-14 -37l-512 -512q-25 -25 -55 -10q-6 2 -10.5 4t-8.5 6l-1192 1194v-389q0 -18 -14 -37l-256 -256q-25 -23 -56.5 -10.5t-31.5 47.5v1024q0 8 4 19.5t10 17.5l221 219l-221 219q-18 18 -15 39zM72 1024l1208 -1208l184 184l-989 987q-18 18 -15 39 t16 34t33.5 16t39.5 -15l1024 -1024q4 -6 9 -17.5t5 -19.5v-389l389 389l-1464 1464z" />
<glyph unicode="c" d="M-52 509.5q-3 20.5 15 39.5l221 219l-221 219q-18 18 -15 39t16 34t33.5 16t39.5 -15l256 -256q14 -16 14 -37t-14 -37l-256 -256q-18 -18 -39 -15t-34 16t-16 33.5zM-52 1538q3 21 16 34t33.5 16t39.5 -15l768 -768q14 -16 14 -36.5t-14 -37.5l-477 -475l440 -440 l205 204v492q0 8 5 19.5t9 17.5l477 475l-184 184l-219 -221q-16 -14 -36.5 -14t-37.5 14l-256 256q-14 16 -14 36.5t14 37.5l256 256q18 18 39 15t34 -16t16 -33.5t-15 -39.5l-221 -219l184 -184l219 221q16 14 36.5 14t37.5 -14l512 -512q14 -16 14 -36.5t-14 -37.5 l-221 -219l184 -184l219 221q18 18 39 15t34 -16t16 -33.5t-15 -39.5l-256 -256q-16 -14 -36.5 -14t-37.5 14l-256 256q-14 16 -14 36.5t14 37.5l221 219l-184 184l-440 -440l696 -696l219 221q18 18 39 15t34 -16t16 -34t-15 -39l-512 -512q-18 -18 -39 -15t-34 16 t-16 33.5t15 39.5l221 219l-389 389v-389q0 -8 -5 -19.5t-9 -17.5l-256 -256q-18 -18 -39 -15t-34 16t-16 33.5t15 39.5l221 219l-184 184l-219 -221q-16 -14 -36.5 -14t-37.5 14l-512 512q-14 16 -14 36.5t14 37.5l477 475l-733 731q-18 18 -15 39zM-51 -0.5 q0 20.5 14 37.5q16 14 36.5 14t37.5 -14l512 -512q14 -16 14 -37t-14 -37q-16 -14 -36.5 -14t-37.5 14l-512 512q-14 16 -14 36.5zM1485 1535.5q0 20.5 14 37.5q16 14 36.5 14t37.5 -14l512 -512q14 -16 14 -37t-14 -37q-16 -14 -36.5 -14t-37.5 14l-512 512 q-14 16 -14 36.5z" />
<glyph unicode="d" d="M-52 2q3 21 16 34t33.5 16t39.5 -15l256 -256q14 -16 14 -37t-14 -37l-256 -256q-18 -18 -39 -15t-34 16t-16 33.5t15 39.5l221 219l-221 219q-18 18 -15 39zM-52 509.5q-3 20.5 15 39.5l1024 1024q8 8 25 12q23 4 43 -9t20 -40v-389l424 426q18 18 39 15t34 -16 t16 -33.5t-15 -39.5l-1245 -1243l184 -184l1499 1501q18 18 39 15t34 -16t16 -34t-15 -39l-989 -987l733 -731q14 -16 14 -36.5t-14 -37.5l-256 -256q-18 -18 -39 -15t-34 16t-16 33.5t15 39.5l221 219l-184 184l-219 -221q-16 -14 -36.5 -14t-37.5 14l-475 477l-219 -221 q-16 -14 -36.5 -14t-37.5 14l-256 256q-14 16 -14 36.5t14 37.5l498 495v369l-680 -682q-18 -18 -39 -15t-34 16t-16 33.5zM-52 1021.5q-3 20.5 15 39.5l512 512q18 18 39 15t34 -16t16 -34t-15 -39l-512 -512q-18 -18 -39 -15t-34 16t-16 33.5zM460 -514.5q-3 20.5 15 39.5 l256 256q16 14 36.5 14t37.5 -14l256 -256q18 -18 15 -39t-16 -34t-33.5 -16t-39.5 15l-219 221l-219 -221q-18 -18 -39 -15t-34 16t-16 33.5zM1075 20l205 -204l184 184l-389 389v-369zM1485 511.5q0 20.5 14 37.5l512 512q18 18 39 15t34 -16t16 -33.5t-15 -39.5 l-477 -475l184 -184l219 221q18 18 39 15t34 -16t16 -33.5t-15 -39.5l-221 -219l221 -219q18 -18 15 -39t-16 -34t-33.5 -16t-39.5 15l-512 512q-14 16 -14 36.5z" />
<glyph unicode="e" horiz-adv-x="512" d="M-52 514q3 21 16 34t33.5 16t39.5 -15l512 -512q14 -16 14 -37t-14 -37l-512 -512q-18 -18 -39 -15t-34 16t-16 33.5t15 39.5l477 475l-477 475q-18 18 -15 39zM-51 1023.5q0 20.5 14 37.5q16 14 36.5 14t37.5 -14l512 -512q14 -16 14 -37t-14 -37q-16 -14 -36.5 -14 t-37.5 14l-512 512q-14 16 -14 36.5zM-51 1535.5q0 20.5 14 37.5q16 14 36.5 14t37.5 -14l512 -512q14 -16 14 -37t-14 -37q-16 -14 -36.5 -14t-37.5 14l-512 512q-14 16 -14 36.5z" />
<glyph unicode="f" d="M-52 -2.5q-3 20.5 15 39.5l221 219l-221 219q-18 18 -15 39t16 34t33.5 16t39.5 -15l256 -256q14 -16 14 -37t-14 -37l-256 -256q-18 -18 -39 -15t-34 16t-16 33.5zM-52 1026q3 21 16 34t33.5 16t39.5 -15l424 -426v369l-498 495q-18 18 -15 39t16 34t33.5 16t39.5 -15 l475 -477l184 184l-221 219q-18 18 -15 39t16 34t33.5 16t39.5 -15l256 -256l6 -12q8 -12 8 -25v-389l389 389l-221 219q-18 18 -15 39t16 34t33.5 16t39.5 -15l256 -256q14 -16 14 -36.5t-14 -37.5l-498 -495v-369l901 901l-221 219q-18 18 -15 39t16 34t33.5 16t39.5 -15 l256 -256q14 -16 14 -37t-14 -37l-1501 -1499l221 -219q18 -18 15 -39t-16 -34t-33.5 -16t-39.5 15l-256 256q-14 16 -14 36.5t14 37.5l477 475l-733 731q-18 18 -15 39zM717 -256.5q0 20.5 14 37.5l512 512l256 256q8 8 25 12q27 6 49 -12l512 -512q18 -18 15 -39t-16 -34 t-33.5 -16t-39.5 15l-424 426v-369l498 -495q18 -18 15 -39t-16 -34t-33.5 -16t-39.5 15l-475 477l-184 -184l221 -219q18 -18 15 -39t-16 -34t-33.5 -16t-39.5 15l-256 256l-6 12q-8 8 -8 25v389l-389 -389l221 -219q18 -18 15 -39t-16 -34t-33.5 -16t-39.5 15l-256 256 q-14 16 -14 36.5zM1741 767.5q0 20.5 14 37.5l256 256q18 18 39 15t34 -16t16 -33.5t-15 -39.5l-221 -219l221 -219q18 -18 15 -39t-16 -34t-33.5 -16t-39.5 15l-256 256q-14 16 -14 36.5z" />
<glyph unicode="g" d="M-52 509.5q-3 20.5 15 39.5l1024 1024q8 8 25 12q23 4 43 -9t20 -40v-389l168 170q16 14 36.5 14t37.5 -14l768 -768q18 -18 15 -39t-16 -34t-33.5 -16t-39.5 15l-731 733l-184 -184l733 -731q14 -16 14 -36.5t-14 -37.5l-512 -512q-18 -14 -37 -14q-18 0 -37 14 l-512 512q-4 6 -9 17.5t-5 19.5v389l-389 -389l733 -731q18 -18 15 -39t-16 -34t-33.5 -16t-39.5 15l-768 768q-14 16 -14 36.5t14 37.5l498 495v369l-680 -682q-18 -18 -39 -15t-34 16t-16 33.5zM-52 1021.5q-3 20.5 15 39.5l512 512q18 18 39 15t34 -16t16 -34t-15 -39 l-512 -512q-18 -18 -39 -15t-34 16t-16 33.5zM-51 -0.5q0 20.5 14 37.5q16 14 36.5 14t37.5 -14l512 -512q14 -16 14 -37t-14 -37q-16 -14 -36.5 -14t-37.5 14l-512 512q-14 16 -14 36.5zM840 256l440 -440l440 440l-645 645v-369l242 -239q18 -18 15 -39t-16 -34t-33.5 -16 t-39.5 15l-219 221zM1484 -514.5q-3 20.5 15 39.5l512 512q18 18 39 15t34 -16t16 -34t-15 -39l-512 -512q-18 -18 -39 -15t-34 16t-16 33.5zM1485 1535.5q0 20.5 14 37.5q16 14 36.5 14t37.5 -14l512 -512q14 -16 14 -37t-14 -37q-16 -14 -36.5 -14t-37.5 14l-512 512 q-14 16 -14 36.5z" />
<glyph unicode="h" horiz-adv-x="1024" d="M-52 2q3 21 16 34t33.5 16t39.5 -15l219 -221l184 184l-477 475q-18 18 -15 39t16 34t33.5 16t39.5 -15l424 -426v389q0 8 5 19.5t9 17.5l256 256q16 14 36.5 14t37.5 -14l256 -256q18 -18 15 -39t-16 -34t-33.5 -16t-39.5 15l-219 221l-184 -184l477 -475q18 -18 15 -39 t-16 -34t-33.5 -16t-39.5 15l-219 221l-219 -221l-256 -256q-18 -14 -37 -14q-18 0 -37 14l-256 256q-18 18 -15 39zM-52 1026q3 21 16 34t33.5 16t39.5 -15l219 -221l184 184l-477 475q-18 18 -15 39t16 34t33.5 16t39.5 -15l424 -426v389q0 18 14 37q12 16 36 14t38 -14 l512 -512q18 -18 15 -39t-16 -34t-33.5 -16t-39.5 15l-219 221l-219 -221l-256 -256q-18 -14 -37 -14q-18 0 -37 14l-256 256q-18 18 -15 39zM460 -514.5q-3 20.5 15 39.5l256 256q16 14 36.5 14t37.5 -14l256 -256q18 -18 15 -39t-16 -34t-33.5 -16t-39.5 15l-219 221 l-219 -221q-18 -18 -39 -15t-34 16t-16 33.5z" />
<glyph unicode="i" horiz-adv-x="512" d="M-52 2q3 21 16 34t33.5 16t39.5 -15l168 -170v369l-242 239q-18 18 -15 39t16 34t33.5 16t39.5 -15l512 -512q14 -18 14 -37v-512q0 -18 -14 -37q-12 -16 -36 -14t-38 14l-256 256l-256 256q-18 18 -15 39zM-51 1023.5q0 20.5 14 37.5l512 512q16 14 36.5 14t37.5 -14 q14 -16 14 -36.5t-14 -37.5l-477 -475l184 -184l219 221q25 25 57 10q31 -14 31 -47v-512q0 -29 -22.5 -43t-46.5 -4q-6 2 -10.5 4t-8.5 6l-256 256l-256 256q-14 16 -14 36.5z" />
<glyph unicode="j" d="M-52 -2.5q-3 20.5 15 39.5l498 495v369l-424 -426q-18 -18 -39 -15t-34 16t-16 33.5t15 39.5l733 731l-184 184l-475 -477q-18 -18 -39 -15t-34 16t-16 33.5t15 39.5l512 512q16 14 36.5 14t37.5 -14l256 -256q4 -6 9 -17.5t5 -19.5v-389l389 389l-221 219q-18 18 -15 39 t16 34t33.5 16t39.5 -15l256 -256q14 -16 14 -37t-14 -37l-1280 -1280q-18 -18 -39 -15t-34 16t-16 33.5zM205 -256.5q0 20.5 14 37.5l1501 1499l-221 219q-18 18 -15 39t16 34t33.5 16t39.5 -15l256 -256q14 -16 14 -37t-14 -37l-1501 -1499l221 -219q18 -18 15 -39 t-16 -34t-33.5 -16t-39.5 15l-256 256q-14 16 -14 36.5zM717 -256.5q0 20.5 14 37.5l1280 1280q18 18 39 15t34 -16t16 -33.5t-15 -39.5l-733 -731l184 -184l475 477q18 18 39 15t34 -16t16 -33.5t-15 -39.5l-498 -495v-369l424 426q18 18 39 15t34 -16t16 -34t-15 -39 l-55 -55t-99.5 -100.5t-120 -121t-119 -117.5t-93 -90t-44.5 -38q-29 -12 -55 10l-256 256q-14 18 -14 37v389l-389 -389l221 -219q18 -18 15 -39t-16 -34t-33.5 -16t-39.5 15l-256 256q-14 16 -14 36.5z" />
<glyph unicode="k" d="M-52 2q3 21 16 34t33.5 16t39.5 -15l168 -170v369l-242 239q-18 18 -15 39t16 34t33.5 16t39.5 -15l219 -221l184 184l-477 475q-18 18 -15 39t16 34t33.5 16t39.5 -15l512 -512q4 -6 9 -17.5t5 -19.5v-389l936 938q16 14 36.5 14t37.5 -14l256 -256l256 -256 q18 -18 15 -39t-16 -34t-33.5 -16t-39.5 15l-168 170v-389q0 -8 -5 -19.5t-9 -17.5l-221 -219l477 -475q18 -18 15 -39t-16 -34t-33.5 -16t-39.5 15l-512 512q-14 16 -14 36.5t14 37.5l221 219l-184 184l-440 -440l477 -475q18 -18 15 -39t-16 -34t-33.5 -16t-39.5 15 l-512 512q-14 16 -14 36.5t14 37.5l498 495v369l-901 -901l477 -475q18 -18 15 -39t-16 -34t-33.5 -16t-39.5 15l-424 426v-389q0 -18 -14 -37q-12 -16 -36 -14t-38 14l-256 256l-256 256q-18 18 -15 39zM-51 1535.5q0 20.5 14 37.5q16 14 36.5 14t37.5 -14l256 -256 q14 -16 14 -37t-14 -37q-16 -14 -36.5 -14t-37.5 14l-256 256q-14 16 -14 36.5zM460 1538q3 21 16 34t33.5 16t39.5 -15l256 -256q14 -16 14 -36.5t-14 -37.5l-221 -219l184 -184l440 440l-221 219q-18 18 -15 39t16 34t33.5 16t39.5 -15l256 -256q14 -16 14 -37t-14 -37 l-512 -512q-18 -14 -37 -14q-18 0 -37 14l-256 256q-14 16 -14 36.5t14 37.5l221 219l-221 219q-18 18 -15 39zM1485 1535.5q0 20.5 14 37.5q16 14 36.5 14t37.5 -14l512 -512q14 -16 14 -37t-14 -37q-16 -14 -36.5 -14t-37.5 14l-512 512q-14 16 -14 36.5z" />
<glyph unicode="l" horiz-adv-x="1024" d="M-52 1026q3 21 16 34t33.5 16t39.5 -15l256 -256l6 -12q8 -8 8 -25v-492l754 -751q18 -18 15 -39t-16 -34t-33.5 -16t-39.5 15l-768 768l-256 256q-14 16 -14 36.5t14 37.5l221 219l-221 219q-18 18 -15 39zM-52 1538q3 21 16 34t33.5 16t39.5 -15l768 -768 q14 -16 14 -36.5t-14 -37.5l-221 -219l477 -475q18 -18 15 -39t-16 -34t-33.5 -16t-39.5 15l-512 512q-14 16 -14 36.5t14 37.5l221 219l-733 731q-18 18 -15 39zM-51 -0.5q0 20.5 14 37.5q16 14 36.5 14t37.5 -14l512 -512q14 -16 14 -37t-14 -37q-16 -14 -36.5 -14 t-37.5 14l-512 512q-14 16 -14 36.5zM461 1535.5q0 20.5 14 37.5q16 14 36.5 14t37.5 -14l512 -512q14 -16 14 -37t-14 -37q-16 -14 -36.5 -14t-37.5 14l-512 512q-14 16 -14 36.5z" />
<glyph unicode="m" d="M-52 2q3 21 16 34t33.5 16t39.5 -15l256 -256q14 -16 14 -37t-14 -37l-256 -256q-18 -18 -39 -15t-34 16t-16 33.5t15 39.5l221 219l-221 219q-18 18 -15 39zM-52 514q3 21 16 34t33.5 16t39.5 -15l475 -477l184 184l-477 475l-256 256q-18 18 -15 39t16 34t33.5 16 t39.5 -15l219 -221l184 184l-221 219q-14 16 -14 36.5t14 37.5l256 256q16 14 36.5 14t37.5 -14l219 -221l219 221q18 18 39 15t34 -16t16 -33.5t-15 -39.5l-256 -256q-16 -14 -36.5 -14t-37.5 14l-219 221l-184 -184l221 -219q4 -6 9 -17.5t5 -19.5v-492l242 -239 q4 -6 9 -17.5t5 -19.5v-389l168 170q16 14 36.5 14t37.5 -14l219 -221l184 184l-733 731q-18 18 -15 39t16 34t33.5 16t39.5 -15l219 -221l184 184l-221 219q-14 16 -14 36.5t14 37.5l256 256q16 14 36.5 14t37.5 -14l219 -221l184 184l-221 219q-18 18 -15 39t16 34 t33.5 16t39.5 -15l256 -256l6 -12q8 -12 8 -25v-389l168 170q18 18 39 15t34 -16t16 -33.5t-15 -39.5l-221 -219l221 -219q18 -18 15 -39t-16 -34t-33.5 -16t-39.5 15l-219 221l-184 -184l477 -475q18 -18 15 -39t-16 -34t-33.5 -16t-39.5 15l-512 512q-4 6 -9 17.5t-5 19.5 v492l-205 204l-184 -184l221 -219q14 -16 14 -36.5t-14 -37.5l-221 -219l477 -475q14 -16 14 -36.5t-14 -37.5l-256 -256q-16 -14 -36.5 -14t-37.5 14l-219 221l-184 -184l221 -219q18 -18 15 -39t-16 -34t-33.5 -16t-39.5 15l-1024 1024q-18 18 -15 39zM1484 -514.5 q-3 20.5 15 39.5l256 256q16 14 36.5 14t37.5 -14l256 -256q18 -18 15 -39t-16 -34t-33.5 -16t-39.5 15l-219 221l-219 -221q-18 -18 -39 -15t-34 16t-16 33.5z" />
<glyph unicode="n" d="M-52 -2.5q-3 20.5 15 39.5l256 256q16 14 36.5 14t37.5 -14l219 -221l205 204v492q0 12 8 25l6 12l256 256q18 18 39 15t34 -16t16 -33.5t-15 -39.5l-221 -219l221 -219q14 -16 14 -36.5t-14 -37.5l-221 -219l733 -731q18 -18 15 -39t-16 -34t-33.5 -16t-39.5 15 l-731 733l-731 -733q-18 -18 -39 -15t-34 16t-16 33.5t15 39.5l477 475l-184 184l-219 -221q-18 -18 -39 -15t-34 16t-16 33.5zM-52 509.5q-3 20.5 15 39.5l733 731l-221 219q-18 18 -15 39t16 34t33.5 16t39.5 -15l256 -256q14 -16 14 -37t-14 -37l-477 -475l221 -219 q18 -18 15 -39t-16 -34t-33.5 -16t-39.5 15l-219 221l-219 -221q-18 -18 -39 -15t-34 16t-16 33.5zM-52 1021.5q-3 20.5 15 39.5l256 256q18 18 39 15t34 -16t16 -34t-15 -39l-256 -256q-18 -18 -39 -15t-34 16t-16 33.5zM460 -514.5q-3 20.5 15 39.5l256 256q16 14 36.5 14 t37.5 -14l256 -256q18 -18 15 -39t-16 -34t-33.5 -16t-39.5 15l-219 221l-219 -221q-18 -18 -39 -15t-34 16t-16 33.5zM972 1538q3 21 16 34t33.5 16t39.5 -15l475 -477l475 477q18 18 39 15t34 -16t16 -33.5t-15 -39.5l-221 -219l221 -219q18 -18 15 -39t-16 -34t-33.5 -16 t-39.5 15l-219 221l-440 -440l221 -219q4 -6 9 -17.5t5 -19.5v-389l389 389l-221 219q-18 18 -15 39t16 34t33.5 16t39.5 -15l256 -256q14 -16 14 -37t-14 -37l-477 -475l221 -219q18 -18 15 -39t-16 -34t-33.5 -16t-39.5 15l-256 256l-256 256q-14 16 -14 36.5t14 37.5 l221 219l-221 219q-14 16 -14 36.5t14 37.5l221 219l-477 475q-18 18 -15 39z" />
<glyph unicode="o" horiz-adv-x="512" d="M-52 -2.5q-3 20.5 15 39.5l242 239v472l-242 239q-18 18 -15 39t16 34t33.5 16t39.5 -15l219 -221l184 184l-477 475q-18 18 -15 39t16 34t33.5 16t39.5 -15l512 -512q4 -6 9 -17.5t5 -19.5v-512q0 -18 -14 -37l-512 -512q-18 -18 -39 -15t-34 16t-16 33.5zM-52 -514.5 q-3 20.5 15 39.5l512 512q18 18 39 15t34 -16t16 -34t-15 -39l-512 -512q-18 -18 -39 -15t-34 16t-16 33.5z" />
<glyph unicode="p" d="M-52 -2.5q-3 20.5 15 39.5l1245 1243l-221 219q-18 18 -15 39t16 34t33.5 16t39.5 -15l256 -256q14 -16 14 -37t-14 -37l-1280 -1280q-18 -18 -39 -15t-34 16t-16 33.5zM-52 -514.5q-3 20.5 15 39.5l512 512l1024 1024q16 14 36.5 14t37.5 -14l512 -512q18 -18 15 -39 t-16 -34t-33.5 -16t-39.5 15l-475 477l-696 -696l184 -184l475 477q16 14 36.5 14t37.5 -14l512 -512q18 -18 15 -39t-16 -34t-33.5 -16t-39.5 15l-475 477l-987 -989q-18 -18 -39 -15t-34 16t-16 33.5t15 39.5l221 219l-184 184l-475 -477q-18 -18 -39 -15t-34 16t-16 33.5 zM-52 1538q3 21 16 34t33.5 16t39.5 -15l256 -256l6 -12q8 -8 8 -25v-389l389 389l-221 219q-18 18 -15 39t16 34t33.5 16t39.5 -15l256 -256q14 -16 14 -37t-14 -37l-512 -512l-256 -256q-27 -23 -55 -10q-14 4 -23.5 18.5t-9.5 28.5v512q0 18 14 37l221 219l-221 219 q-18 18 -15 39zM972 -514.5q-3 20.5 15 39.5l256 256q18 18 39 15t34 -16t16 -34t-15 -39l-256 -256q-18 -18 -39 -15t-34 16t-16 33.5zM1484 2q3 21 16 34t33.5 16t39.5 -15l256 -256q14 -16 14 -37t-14 -37l-256 -256q-18 -18 -39 -15t-34 16t-16 33.5t15 39.5l221 219 l-221 219q-18 18 -15 39zM1485 1535.5q0 20.5 14 37.5q16 14 36.5 14t37.5 -14l512 -512q14 -16 14 -37t-14 -37q-16 -14 -36.5 -14t-37.5 14l-512 512q-14 16 -14 36.5z" />
<glyph unicode="q" d="M-52 -2.5q-3 20.5 15 39.5l512 512q16 14 36.5 14t37.5 -14l219 -221l184 184l-440 440l-475 -477q-18 -18 -39 -15t-34 16t-16 33.5t15 39.5l512 512q16 14 36.5 14t37.5 -14l475 -477l205 204v369l-168 -170q-18 -18 -39 -15t-34 16t-16 33.5t15 39.5l256 256 q16 14 36.5 14t37.5 -14l219 -221l475 477q18 18 39 15t34 -16t16 -34t-15 -39l-512 -512l-768 -768q-16 -14 -36.5 -14t-37.5 14l-219 221l-475 -477q-18 -18 -39 -15t-34 16t-16 33.5zM-52 -514.5q-3 20.5 15 39.5l512 512q16 14 36.5 14t37.5 -14l219 -221l1243 1245 q18 18 39 15t34 -16t16 -33.5t-15 -39.5l-498 -495v-369l424 426q18 18 39 15t34 -16t16 -33.5t-15 -39.5l-498 -495v-369l424 426q18 18 39 15t34 -16t16 -34t-15 -39l-512 -512q-4 -4 -8 -5t-9 -5q-33 -14 -57 10l-219 221l-219 -221q-18 -18 -39 -15t-34 16t-16 33.5 t15 39.5l242 239v369l-424 -426q-16 -14 -36.5 -14t-37.5 14l-219 221l-475 -477q-18 -18 -39 -15t-34 16t-16 33.5zM-52 1021.5q-3 20.5 15 39.5l512 512q16 14 36.5 14t37.5 -14l219 -221l219 221q18 18 39 15t34 -16t16 -34t-15 -39l-256 -256q-16 -14 -36.5 -14 t-37.5 14l-219 221l-475 -477q-18 -18 -39 -15t-34 16t-16 33.5z" />
<glyph unicode="r" horiz-adv-x="1024" d="M-52 514q3 21 16 34t33.5 16t39.5 -15l512 -512q14 -16 14 -37t-14 -37l-512 -512q-18 -18 -39 -15t-34 16t-16 33.5t15 39.5l477 475l-477 475q-18 18 -15 39zM-52 1026q3 21 16 34t33.5 16t39.5 -15l680 -682v389q0 16 8 25l6 12l256 256q18 18 39 15t34 -16t16 -33.5 t-15 -39.5l-221 -219l221 -219q14 -18 14 -37v-512q0 -18 -14 -37l-512 -512q-18 -18 -39 -15t-34 16t-16 33.5t15 39.5l242 239v472l-754 751q-18 18 -15 39zM-52 1538q3 21 16 34t33.5 16t39.5 -15l475 -477l475 477q18 18 39 15t34 -16t16 -34t-15 -39l-512 -512 q-18 -14 -37 -14q-18 0 -37 14l-512 512q-18 18 -15 39z" />
<glyph unicode="s" horiz-adv-x="1024" d="M-52 2q3 21 16 34t33.5 16t39.5 -15l219 -221l184 184l-477 475q-18 18 -15 39t16 34t33.5 16t39.5 -15l219 -221l184 184l-221 219q-4 6 -9 17.5t-5 19.5v492l-242 239q-18 18 -15 39t16 34t33.5 16t39.5 -15l1024 -1024q18 -18 15 -39t-16 -34t-33.5 -16t-39.5 15 l-475 477l-184 -184l733 -731q14 -16 14 -37t-14 -37l-512 -512q-25 -25 -55 -10q-6 2 -43 38t-91.5 89t-118 115.5t-121 120t-100.5 101.5t-57 58q-18 18 -15 39zM328 256l221 -219q4 -6 9 -17.5t5 -19.5v-389l389 389l-440 440zM461 1535.5q0 20.5 14 37.5q16 14 36.5 14 t37.5 -14l512 -512q14 -16 14 -37t-14 -37q-16 -14 -36.5 -14t-37.5 14l-512 512q-14 16 -14 36.5z" />
<glyph unicode="t" horiz-adv-x="1024" d="M-52 -2.5q-3 20.5 15 39.5l498 495v472l-498 495q-18 18 -15 39t16 34t33.5 16t39.5 -15l424 -426v389q0 18 14 37q12 16 36 14t38 -14l256 -256l256 -256q18 -18 15 -39t-16 -34t-33.5 -16t-39.5 15l-168 170v-369l242 -239q18 -18 15 -39t-16 -34t-33.5 -16t-39.5 15 l-168 170v-389q0 -8 -5 -19.5t-9 -17.5l-768 -768q-18 -18 -39 -15t-34 16t-16 33.5t15 39.5l733 731l-184 184l-475 -477q-18 -18 -39 -15t-34 16t-16 33.5zM-52 509.5q-3 20.5 15 39.5l221 219l-221 219q-18 18 -15 39t16 34t33.5 16t39.5 -15l256 -256q14 -16 14 -37 t-14 -37l-256 -256q-18 -18 -39 -15t-34 16t-16 33.5zM460 -514.5q-3 20.5 15 39.5l512 512q18 18 39 15t34 -16t16 -34t-15 -39l-512 -512q-18 -18 -39 -15t-34 16t-16 33.5z" />
<glyph unicode="u" horiz-adv-x="512" d="M-52 514q3 21 16 34t33.5 16t39.5 -15l512 -512q14 -16 14 -37t-14 -37l-512 -512q-18 -18 -39 -15t-34 16t-16 33.5t15 39.5l477 475l-477 475q-18 18 -15 39zM-51 1023.5q0 20.5 14 37.5l512 512q18 18 39 15t34 -16t16 -33.5t-15 -39.5l-477 -475l477 -475 q18 -18 15 -39t-16 -34t-33.5 -16t-39.5 15l-512 512q-14 16 -14 36.5z" />
<glyph unicode="v" d="M-52 -2.5q-3 20.5 15 39.5l477 475l-184 184l-219 -221q-18 -18 -39 -15t-34 16t-16 33.5t15 39.5l477 475l-184 184l-219 -221q-18 -18 -39 -15t-34 16t-16 33.5t15 39.5l512 512q18 18 39 15t34 -16t16 -33.5t-15 -39.5l-221 -219l696 -696l987 989q18 18 39 15t34 -16 t16 -33.5t-15 -39.5l-1280 -1280q-18 -18 -39 -15t-34 16t-16 33.5t15 39.5l221 219l-184 184l-440 -440l440 -440l475 477l256 256q25 23 56.5 10.5t31.5 -47.5v-492l498 -495q18 -18 15 -39t-16 -34t-33.5 -16t-39.5 15l-424 426v-389q0 -18 -14 -37q-14 -16 -37 -14 t-37 14l-219 221l-219 -221q-18 -18 -39 -15t-34 16t-16 33.5t15 39.5l242 239v369l-680 -682q-18 -18 -39 -15t-34 16t-16 33.5t15 39.5l221 219l-440 440l-219 -221q-18 -18 -39 -15t-34 16t-16 33.5zM-52 -514.5q-3 20.5 15 39.5l256 256q18 18 39 15t34 -16t16 -34 t-15 -39l-256 -256q-18 -18 -39 -15t-34 16t-16 33.5zM717 1279.5q0 20.5 14 37.5l256 256q18 18 39 15t34 -16t16 -33.5t-15 -39.5l-221 -219l184 -184l475 477q16 14 36.5 14t37.5 -14q14 -16 14 -37t-14 -37l-512 -512q-16 -14 -36.5 -14t-37.5 14l-256 256 q-14 16 -14 36.5zM1740 765.5q-3 20.5 15 39.5l256 256q18 18 39 15t34 -16t16 -34t-15 -39l-256 -256q-18 -18 -39 -15t-34 16t-16 33.5zM1741 255.5q0 20.5 14 37.5l256 256q18 18 39 15t34 -16t16 -33.5t-15 -39.5l-221 -219l221 -219q18 -18 15 -39t-16 -34t-33.5 -16 t-39.5 15l-256 256q-14 16 -14 36.5z" />
<glyph unicode="w" d="M-52 -2.5q-3 20.5 15 39.5l477 475l-477 475q-14 16 -14 36.5t14 37.5l512 512q16 14 36.5 14t37.5 -14l219 -221l219 221q16 14 36.5 14t37.5 -14l219 -221l219 221q16 14 36.5 14t37.5 -14l512 -512q18 -18 15 -39t-16 -34t-33.5 -16t-39.5 15l-475 477l-205 -204v-369 l168 170q16 14 36.5 14t37.5 -14l256 -256l256 -256q18 -18 15 -39t-16 -34t-33.5 -16t-39.5 15l-168 170v-369l242 -239q18 -18 15 -39t-16 -34t-33.5 -16t-39.5 15l-475 477l-184 -184l733 -731q18 -18 15 -39t-16 -34t-33.5 -16t-39.5 15l-768 768q-14 16 -14 36.5 t14 37.5l256 256l221 219l-184 184l-1499 -1501q-18 -18 -39 -15t-34 16t-16 33.5t15 39.5l989 987l-477 475q-14 16 -14 36.5t14 37.5l221 219l-184 184l-440 -440l477 -475q14 -16 14 -36.5t-14 -37.5l-512 -512q-18 -18 -39 -15t-34 16t-16 33.5zM460 -514.5 q-3 20.5 15 39.5l512 512q16 14 36.5 14t37.5 -14l512 -512q18 -18 15 -39t-16 -34t-33.5 -16t-39.5 15l-475 477l-475 -477q-18 -18 -39 -15t-34 16t-16 33.5zM819 891l389 389l-184 184l-205 -204v-369zM840 768l184 -184l184 184l-184 184z" />
<glyph unicode="x" d="M-52 -514.5q-3 20.5 15 39.5l477 475l-221 219q-14 16 -14 36.5t14 37.5l512 512q18 18 39 15t34 -16t16 -33.5t-15 -39.5l-221 -219l440 -440l219 221q18 18 39 15t34 -16t16 -33.5t-15 -39.5l-221 -219l440 -440l475 477q18 18 39 15t34 -16t16 -34t-15 -39l-512 -512 q-18 -14 -37 -14q-18 0 -37 14l-475 477l-475 -477q-16 -14 -36.5 -14t-37.5 14l-219 221l-219 -221q-18 -18 -39 -15t-34 16t-16 33.5zM-51 1023.5q0 20.5 14 37.5l512 512q18 18 39 15t34 -16t16 -33.5t-15 -39.5l-477 -475l184 -184l475 477l256 256q25 23 56.5 10.5 t31.5 -47.5v-389l424 426q16 14 36.5 14t37.5 -14l256 -256q18 -18 15 -39t-16 -34t-33.5 -16t-39.5 15l-219 221l-440 -440l184 -184l219 221q16 14 36.5 14t37.5 -14l219 -221l219 221q18 18 39 15t34 -16t16 -33.5t-15 -39.5l-256 -256q-16 -14 -36.5 -14t-37.5 14 l-219 221l-184 -184l440 -440l219 221q18 18 39 15t34 -16t16 -34t-15 -39l-512 -512q-18 -18 -39 -15t-34 16t-16 33.5t15 39.5l221 219l-440 440l-219 -221q-18 -18 -39 -15t-34 16t-16 33.5t15 39.5l221 219l-440 440l-475 -477q-18 -14 -37 -14q-18 0 -37 14l-256 256 q-14 16 -14 36.5zM328 256l221 -219q4 -6 9 -17.5t5 -19.5v-389l389 389l-440 440z" />
<glyph unicode="y" horiz-adv-x="512" d="M-52 2q3 21 16 34t33.5 16t39.5 -15l168 -170v389q0 8 5 19.5t9 17.5l256 256q18 18 39 15t34 -16t16 -33.5t-15 -39.5l-221 -219l221 -219q14 -16 14 -36.5t-14 -37.5l-221 -219l221 -219q18 -18 15 -39t-16 -34t-33.5 -16t-39.5 15l-512 512q-18 18 -15 39zM-52 509.5 q-3 20.5 15 39.5l221 219l-221 219q-18 18 -15 39t16 34t33.5 16t39.5 -15l168 -170v369l-242 239q-18 18 -15 39t16 34t33.5 16t39.5 -15l512 -512q14 -16 14 -37t-14 -37l-512 -512q-18 -18 -39 -15t-34 16t-16 33.5z" />
<glyph unicode="z" d="M-52 -2.5q-3 20.5 15 39.5l221 219l-221 219q-18 18 -15 39t16 34t33.5 16t39.5 -15l475 -477l461 460v369l-424 -426q-18 -14 -37 -14q-18 0 -37 14l-256 256q-18 18 -15 39t16 34t33.5 16t39.5 -15l219 -221l696 696l-221 219q-18 18 -15 39t16 34t33.5 16t39.5 -15 l475 -477l475 477q18 18 39 15t34 -16t16 -33.5t-15 -39.5l-512 -512q-16 -14 -36.5 -14t-37.5 14l-168 170v-369l205 -204l475 477q18 18 39 15t34 -16t16 -33.5t-15 -39.5l-221 -219l221 -219q18 -18 15 -39t-16 -34t-33.5 -16t-39.5 15l-219 221l-219 -221 q-16 -14 -36.5 -14t-37.5 14l-219 221l-731 -733q-16 -14 -36.5 -14t-37.5 14l-219 221l-219 -221q-18 -18 -39 -15t-34 16t-16 33.5zM-52 1021.5q-3 20.5 15 39.5l256 256q16 14 36.5 14t37.5 -14l219 -221l219 221q18 18 39 15t34 -16t16 -34t-15 -39l-256 -256 q-16 -14 -36.5 -14t-37.5 14l-219 221l-219 -221q-18 -18 -39 -15t-34 16t-16 33.5zM204 -254q3 21 16 34t33.5 16t39.5 -15l219 -221l731 733q16 14 36.5 14t37.5 -14l219 -221l219 221q18 18 39 15t34 -16t16 -33.5t-15 -39.5l-256 -256q-16 -14 -36.5 -14t-37.5 14 l-168 170v-369l205 -204l475 477q18 18 39 15t34 -16t16 -33.5t-15 -39.5l-221 -219l221 -219q18 -18 15 -39t-16 -34t-33.5 -16t-39.5 15l-219 221l-219 -221q-16 -14 -36.5 -14t-37.5 14l-475 477l-184 -184l221 -219q18 -18 15 -39t-16 -34t-33.5 -16t-39.5 15l-219 221 l-219 -221q-16 -14 -36.5 -14t-37.5 14l-256 256q-18 18 -15 39z" />
<glyph unicode="{" horiz-adv-x="512" d="M-52 -514.5q-3 20.5 15 39.5l242 239v472l-242 239q-14 16 -14 36.5t14 37.5l242 239v472l-242 239q-18 18 -15 39t16 34t33.5 16t39.5 -15l219 -221l219 221q18 18 39 15t34 -16t16 -33.5t-15 -39.5l-221 -219l221 -219q14 -18 14 -37v-512q0 -33 -31 -47 q-33 -14 -57 10l-219 221l-184 -184q14 -14 56 -55t95 -93.5t111.5 -110.5t108 -108.5t82 -85t34.5 -41.5q4 -12 4 -18v-512q0 -18 -14 -37q-12 -16 -36 -14t-38 14l-219 221l-219 -221q-18 -18 -39 -15t-34 16t-16 33.5z" />
<glyph unicode="|" horiz-adv-x="1024" d="M-52 509.5q-3 20.5 15 39.5l256 256q16 14 36.5 14t37.5 -14l219 -221l184 184l-733 731q-18 18 -15 39t16 34t33.5 16t39.5 -15l768 -768q4 -6 9 -17.5t5 -19.5v-389l168 170q18 18 39 15t34 -16t16 -34t-15 -39l-256 -256q-25 -25 -55 -10q-6 2 -41 34.5t-85.5 82 t-108.5 108t-110.5 111.5t-93.5 95t-55 56l-219 -221q-18 -18 -39 -15t-34 16t-16 33.5zM-51 -0.5q0 20.5 14 37.5l256 256q16 14 36.5 14t37.5 -14l768 -768q14 -16 14 -37t-14 -37q-16 -14 -36.5 -14t-37.5 14l-680 682v-369l242 -239q18 -18 15 -39t-16 -34t-33.5 -16 t-39.5 15l-256 256l-256 256q-14 16 -14 36.5zM461 1535.5q0 20.5 14 37.5q16 14 36.5 14t37.5 -14l512 -512q14 -16 14 -37t-14 -37q-16 -14 -36.5 -14t-37.5 14l-512 512q-14 16 -14 36.5z" />
<glyph unicode="}" horiz-adv-x="512" d="M-52 -2.5q-3 20.5 15 39.5l477 475l-477 475q-18 18 -15 39t16 34t33.5 16t39.5 -15l168 -170v369l-242 239q-18 18 -15 39t16 34t33.5 16t39.5 -15l219 -221l219 221q14 12 38 14t36 -14q14 -18 14 -37v-512q0 -18 -14 -37l-221 -219l221 -219q4 -6 9 -17.5t5 -19.5 v-512q0 -18 -14 -37l-221 -219l221 -219q18 -18 15 -39t-16 -34t-33.5 -16t-39.5 15l-219 221l-219 -221q-18 -18 -39 -15t-34 16t-16 33.5t15 39.5l242 239v369l-168 -170q-18 -18 -39 -15t-34 16t-16 33.5z" />
<glyph unicode="~" d="M-52 -2.5q-3 20.5 15 39.5l221 219l-221 219q-18 18 -15 39t16 34t33.5 16t39.5 -15l256 -256q14 -16 14 -37t-14 -37l-256 -256q-18 -18 -39 -15t-34 16t-16 33.5zM-52 1026q3 21 16 34t33.5 16t39.5 -15l168 -170v369l-242 239q-18 18 -15 39t16 34t33.5 16t39.5 -15 l987 -989l731 733q16 14 36.5 14t37.5 -14l256 -256q18 -18 15 -39t-16 -34t-33.5 -16t-39.5 15l-219 221l-184 -184l477 -475q18 -18 15 -39t-16 -34t-33.5 -16t-39.5 15l-424 426v-369l498 -495q18 -18 15 -39t-16 -34t-33.5 -16t-39.5 15l-475 477l-184 -184l221 -219 q14 -16 14 -36.5t-14 -37.5l-512 -512q-18 -14 -37 -14q-18 0 -37 14l-475 477l-184 -184l221 -219q18 -18 15 -39t-16 -34t-33.5 -16t-39.5 15l-256 256q-14 16 -14 36.5t14 37.5l256 256q16 14 36.5 14t37.5 -14l475 -477l440 440l-221 219q-6 6 -10 17.5t-4 19.5v389 l-154 -153v-492q0 -35 -31.5 -47t-56.5 10l-256 256l-768 768q-18 18 -15 39zM461 1535.5q0 20.5 14 37.5q16 14 36.5 14t37.5 -14l256 -256q14 -16 14 -37t-14 -37q-16 -14 -36.5 -14t-37.5 14l-256 256q-14 16 -14 36.5zM563 532l154 -153v369l-154 153v-369zM972 1021.5 q-3 20.5 15 39.5l512 512q18 18 39 15t34 -16t16 -34t-15 -39l-512 -512q-18 -18 -39 -15t-34 16t-16 33.5zM1484 -514.5q-3 20.5 15 39.5l256 256q16 14 36.5 14t37.5 -14l256 -256q18 -18 15 -39t-16 -34t-33.5 -16t-39.5 15l-219 221l-219 -221q-18 -18 -39 -15t-34 16 t-16 33.5z" />
<glyph unicode="&#xa1;" horiz-adv-x="1024" d="M-52 509.5q-3 20.5 15 39.5l1024 1024q18 18 39 15t34 -16t16 -33.5t-15 -39.5l-477 -475l184 -184l219 221q18 18 39 15t34 -16t16 -34t-15 -39l-989 -987l477 -475q18 -18 15 -39t-16 -34t-33.5 -16t-39.5 15l-512 512q-14 16 -14 36.5t14 37.5l498 495v369l-424 -426 q-18 -18 -39 -15t-34 16t-16 33.5zM-52 1021.5q-3 20.5 15 39.5l512 512q18 18 39 15t34 -16t16 -34t-15 -39l-512 -512q-18 -18 -39 -15t-34 16t-16 33.5zM461 -0.5q0 20.5 14 37.5l512 512q18 18 39 15t34 -16t16 -33.5t-15 -39.5l-477 -475l477 -475q18 -18 15 -39 t-16 -34t-33.5 -16t-39.5 15l-512 512q-14 16 -14 36.5z" />
<glyph unicode="&#xa2;" d="M-52 509.5q-3 20.5 15 39.5l256 256q16 14 36.5 14t37.5 -14l256 -256q14 -16 14 -36.5t-14 -37.5l-477 -475l440 -440l205 204v369l-168 -170q-18 -18 -39 -15t-34 16t-16 33.5t15 39.5l242 239v472l-754 751q-18 18 -15 39t16 34t33.5 16t39.5 -15l475 -477l475 477 q18 18 39 15t34 -16t16 -33.5t-15 -39.5l-477 -475l184 -184l731 733q16 14 36.5 14t37.5 -14l512 -512q14 -16 14 -36.5t-14 -37.5l-477 -475l184 -184l219 221q18 18 39 15t34 -16t16 -33.5t-15 -39.5l-256 -256q-18 -14 -37 -14q-18 0 -37 14l-256 256q-14 16 -14 36.5 t14 37.5l477 475l-440 440l-696 -696l184 -184l475 477q18 18 39 15t34 -16t16 -33.5t-15 -39.5l-498 -495v-369l168 170q16 14 36.5 14t37.5 -14l768 -768q18 -18 15 -39t-16 -34t-33.5 -16t-39.5 15l-475 477l-475 -477q-18 -18 -39 -15t-34 16t-16 33.5t15 39.5l477 475 l-184 184l-731 -733q-16 -14 -36.5 -14t-37.5 14l-512 512q-14 16 -14 36.5t14 37.5l477 475l-184 184l-219 -221q-18 -18 -39 -15t-34 16t-16 33.5z" />
<glyph unicode="&#xa3;" horiz-adv-x="512" d="M-52 -2.5q-3 20.5 15 39.5l221 219l-221 219q-18 18 -15 39t16 34t33.5 16t39.5 -15l168 -170v369l-242 239q-14 16 -14 36.5t14 37.5l512 512q18 18 39 15t34 -16t16 -33.5t-15 -39.5l-477 -475l184 -184l219 221q18 18 39 15t34 -16t16 -33.5t-15 -39.5l-221 -219 l221 -219q14 -18 14 -37v-512q0 -16 -8 -25l-6 -12l-512 -512q-18 -18 -39 -15t-34 16t-16 33.5t15 39.5l477 475l-184 184l-219 -221q-18 -18 -39 -15t-34 16t-16 33.5z" />
<glyph unicode="&#xa5;" horiz-adv-x="512" d="M-52 2q3 21 16 34t33.5 16t39.5 -15l168 -170v389q0 16 8 25l6 12l256 256q18 18 39 15t34 -16t16 -33.5t-15 -39.5l-221 -219l221 -219q14 -18 14 -37v-512q0 -29 -22.5 -43t-46.5 -4q-6 2 -44 38t-91.5 89t-117 116.5t-119.5 120t-100.5 100.5t-58.5 58q-18 18 -15 39z M-52 509.5q-3 20.5 15 39.5l477 475l-477 475q-18 18 -15 39t16 34t33.5 16t39.5 -15l512 -512q14 -16 14 -37t-14 -37l-512 -512q-18 -18 -39 -15t-34 16t-16 33.5z" />
<glyph unicode="&#xa7;" horiz-adv-x="512" d="M-52 -2.5q-3 20.5 15 39.5l477 475l-184 184l-219 -221q-18 -18 -39 -15t-34 16t-16 33.5t15 39.5l242 239v369l-168 -170q-18 -18 -39 -15t-34 16t-16 33.5t15 39.5l256 256l256 256q14 12 38 14t36 -14q14 -18 14 -37v-1024q0 -8 -5 -19.5t-9 -17.5l-512 -512 q-18 -18 -39 -15t-34 16t-16 33.5zM-52 -514.5q-3 20.5 15 39.5l512 512q18 18 39 15t34 -16t16 -34t-15 -39l-512 -512q-18 -18 -39 -15t-34 16t-16 33.5z" />
<glyph unicode="&#xa8;" horiz-adv-x="512" d="M-52 1538q3 21 16 34t33.5 16t39.5 -15l512 -512q14 -16 14 -36.5t-14 -37.5l-477 -475l477 -475q18 -18 15 -39t-16 -34t-33.5 -16t-39.5 15l-512 512q-14 16 -14 36.5t14 37.5l477 475l-477 475q-18 18 -15 39zM-51 -0.5q0 20.5 14 37.5q16 14 36.5 14t37.5 -14 l512 -512q14 -16 14 -37t-14 -37q-16 -14 -36.5 -14t-37.5 14l-512 512q-14 16 -14 36.5z" />
<glyph unicode="&#xa9;" d="M-52 1026q3 21 16 34t33.5 16t39.5 -15l768 -768q4 -6 9 -17.5t5 -19.5v-492l242 -239q18 -18 15 -39t-16 -34t-33.5 -16t-39.5 15l-256 256l-256 256q-14 16 -14 36.5t14 37.5l221 219l-733 731q-18 18 -15 39zM-52 1538q3 21 16 34t33.5 16t39.5 -15l1192 -1194v369 l-754 751q-18 18 -15 39t16 34t33.5 16t39.5 -15l731 -733l219 221q10 10 27.5 13t29.5 -3q4 -4 8.5 -5t8.5 -5l512 -512q18 -18 15 -39t-16 -34t-33.5 -16t-39.5 15l-424 426v-369l498 -495q18 -18 15 -39t-16 -34t-33.5 -16t-39.5 15l-475 477l-440 -440l477 -475 q18 -18 15 -39t-16 -34t-33.5 -16t-39.5 15l-512 512q-14 16 -14 36.5t14 37.5l221 219l-1245 1243q-18 18 -15 39zM-51 -0.5q0 20.5 14 37.5q16 14 36.5 14t37.5 -14l512 -512q14 -16 14 -37t-14 -37q-16 -14 -36.5 -14t-37.5 14l-512 512q-14 16 -14 36.5zM-51 511.5 q0 20.5 14 37.5q16 14 36.5 14t37.5 -14l256 -256q14 -16 14 -37t-14 -37q-16 -14 -36.5 -14t-37.5 14l-256 256q-14 16 -14 36.5zM973 1535.5q0 20.5 14 37.5q16 14 36.5 14t37.5 -14l256 -256q14 -16 14 -37t-14 -37q-16 -14 -36.5 -14t-37.5 14l-256 256q-14 16 -14 36.5 zM1485 -0.5q0 20.5 14 37.5q16 14 36.5 14t37.5 -14l512 -512q14 -16 14 -37t-14 -37q-16 -14 -36.5 -14t-37.5 14l-512 512q-14 16 -14 36.5zM1485 1535.5q0 20.5 14 37.5q16 14 36.5 14t37.5 -14l512 -512q14 -16 14 -37t-14 -37q-16 -14 -36.5 -14t-37.5 14l-512 512 q-14 16 -14 36.5z" />
<glyph unicode="&#xaa;" horiz-adv-x="1024" d="M-52 -2.5q-3 20.5 15 39.5l221 219l-221 219q-14 16 -14 36.5t14 37.5l1024 1024q18 18 39 15t34 -16t16 -33.5t-15 -39.5l-477 -475l477 -475q14 -16 14 -36.5t-14 -37.5l-242 -239v-472l242 -239q18 -18 15 -39t-16 -34t-33.5 -16t-39.5 15l-475 477l-475 -477 q-18 -18 -39 -15t-34 16t-16 33.5t15 39.5l989 987l-184 184l-731 -733q-18 -18 -39 -15t-34 16t-16 33.5zM-52 1021.5q-3 20.5 15 39.5l221 219l-221 219q-18 18 -15 39t16 34t33.5 16t39.5 -15l219 -221l219 221q16 14 36.5 14t37.5 -14q14 -16 14 -37t-14 -37l-512 -512 q-18 -18 -39 -15t-34 16t-16 33.5zM72 512l184 -184l205 204v369z" />
<glyph unicode="&#xab;" horiz-adv-x="1024" d="M-52 2q3 21 16 34t33.5 16t39.5 -15l219 -221l205 204v492q0 8 5 19.5t9 17.5l512 512q18 18 39 15t34 -16t16 -33.5t-15 -39.5l-477 -475l477 -475q18 -18 15 -39t-16 -34t-33.5 -16t-39.5 15l-219 221l-440 -440l221 -219q18 -18 15 -39t-16 -34t-33.5 -16t-39.5 15 l-512 512q-18 18 -15 39zM-52 1021.5q-3 20.5 15 39.5l512 512q18 18 39 15t34 -16t16 -34t-15 -39l-512 -512q-18 -18 -39 -15t-34 16t-16 33.5zM-51 511.5q0 20.5 14 37.5l1024 1024q18 18 39 15t34 -16t16 -34t-15 -39l-989 -987l221 -219q18 -18 15 -39t-16 -34 t-33.5 -16t-39.5 15l-256 256q-14 16 -14 36.5zM717 -256.5q0 20.5 14 37.5q16 14 36.5 14t37.5 -14l256 -256q14 -16 14 -37t-14 -37q-16 -14 -36.5 -14t-37.5 14l-256 256q-14 16 -14 36.5z" />
<glyph unicode="&#xac;" horiz-adv-x="1024" d="M-52 -2.5q-3 20.5 15 39.5l733 731l-477 475q-14 16 -14 36.5t14 37.5l256 256q18 18 39 15t34 -16t16 -33.5t-15 -39.5l-221 -219l440 -440l219 221q18 18 39 15t34 -16t16 -34t-15 -39l-733 -731l477 -475q14 -16 14 -36.5t-14 -37.5l-256 -256q-18 -18 -39 -15t-34 16 t-16 33.5t15 39.5l221 219l-184 184l-475 -477q-18 -18 -39 -15t-34 16t-16 33.5t15 39.5l242 239v369l-168 -170q-18 -18 -39 -15t-34 16t-16 33.5zM-52 509.5q-3 20.5 15 39.5l221 219l-221 219q-18 18 -15 39t16 34t33.5 16t39.5 -15l256 -256q14 -16 14 -37t-14 -37 l-256 -256q-18 -18 -39 -15t-34 16t-16 33.5zM716 1277.5q-3 20.5 15 39.5l256 256q18 18 39 15t34 -16t16 -34t-15 -39l-256 -256q-18 -18 -39 -15t-34 16t-16 33.5zM717 255.5q0 20.5 14 37.5l256 256q18 18 39 15t34 -16t16 -33.5t-15 -39.5l-221 -219l221 -219 q18 -18 15 -39t-16 -34t-33.5 -16t-39.5 15l-256 256q-14 16 -14 36.5z" />
<glyph unicode="&#xae;" horiz-adv-x="1024" d="M-52 2q3 21 16 34t33.5 16t39.5 -15l219 -221l440 440l-733 731q-18 18 -15 39t16 34t33.5 16t39.5 -15l768 -768q4 -6 9 -17.5t5 -19.5v-389l168 170q18 18 39 15t34 -16t16 -34t-15 -39l-512 -512q-18 -18 -39 -15t-34 16t-16 33.5t15 39.5l221 219l-184 184l-219 -221 q-16 -14 -36.5 -14t-37.5 14l-256 256q-18 18 -15 39zM-52 1538q3 21 16 34t33.5 16t39.5 -15l219 -221l219 221q18 18 39 15t34 -16t16 -34t-15 -39l-256 -256q-18 -14 -37 -14q-18 0 -37 14l-256 256q-18 18 -15 39zM-51 511.5q0 20.5 14 37.5q16 14 36.5 14t37.5 -14 l256 -256q14 -16 14 -37t-14 -37q-16 -14 -36.5 -14t-37.5 14l-256 256q-14 16 -14 36.5zM460 1021.5q-3 20.5 15 39.5l512 512q18 18 39 15t34 -16t16 -34t-15 -39l-512 -512q-18 -18 -39 -15t-34 16t-16 33.5zM717 767.5q0 20.5 14 37.5l256 256q18 18 39 15t34 -16 t16 -33.5t-15 -39.5l-221 -219l221 -219q18 -18 15 -39t-16 -34t-33.5 -16t-39.5 15l-256 256q-14 16 -14 36.5z" />
<glyph unicode="&#xaf;" horiz-adv-x="512" d="M-52 514q3 21 16 34t33.5 16t39.5 -15l512 -512q4 -6 9 -17.5t5 -19.5v-512q0 -16 -8 -25q-12 -23 -35.5 -26.5t-44.5 14.5l-256 256q-14 16 -14 36.5t14 37.5l221 219l-477 475q-18 18 -15 39zM-52 1538q3 21 16 34t33.5 16t39.5 -15l512 -512q4 -6 9 -17.5t5 -19.5 v-512q0 -16 -8 -25q-12 -23 -35.5 -26.5t-44.5 14.5l-256 256q-14 16 -14 36.5t14 37.5l221 219l-477 475q-18 18 -15 39z" />
<glyph unicode="&#xb0;" horiz-adv-x="1024" d="M-52 1021.5q-3 20.5 15 39.5l512 512q23 18 43 12q18 0 31 -12l512 -512q18 -18 15 -39t-16 -34t-33.5 -16t-39.5 15l-219 221l-696 -696l221 -219q4 -6 9 -17.5t5 -19.5v-492l205 -204l475 477q18 18 39 15t34 -16t16 -34t-15 -39l-512 -512q-16 -14 -36.5 -14t-37.5 14 l-256 256l-256 256q-14 16 -14 36.5t14 37.5l221 219l-221 219q-14 16 -14 36.5t14 37.5l498 495v369l-424 -426q-18 -18 -39 -15t-34 16t-16 33.5zM460 -2.5q-3 20.5 15 39.5l477 475l-221 219q-18 18 -15 39t16 34t33.5 16t39.5 -15l256 -256q14 -16 14 -37t-14 -37 l-512 -512q-18 -18 -39 -15t-34 16t-16 33.5z" />
<glyph unicode="&#xb1;" horiz-adv-x="512" d="M-52 -2.5q-3 20.5 15 39.5l477 475l-184 184l-219 -221q-18 -18 -39 -15t-34 16t-16 33.5t15 39.5l221 219l-221 219q-18 18 -15 39t16 34t33.5 16t39.5 -15l168 -170v369l-242 239q-18 18 -15 39t16 34t33.5 16t39.5 -15l219 -221l219 221q18 18 39 15t34 -16t16 -33.5 t-15 -39.5l-221 -219l221 -219q14 -18 14 -37v-512q0 -8 -5 -19.5t-9 -17.5l-221 -219l221 -219q14 -18 14 -37v-512q0 -18 -14 -37q-12 -16 -36 -14t-38 14l-219 221l-219 -221q-18 -18 -39 -15t-34 16t-16 33.5t15 39.5l242 239v369l-168 -170q-18 -18 -39 -15t-34 16 t-16 33.5z" />
<glyph unicode="&#xb4;" horiz-adv-x="512" d="M-52 -2.5q-3 20.5 15 39.5l477 475l-477 475q-18 18 -15 39t16 34t33.5 16t39.5 -15l512 -512l6 -12q8 -8 8 -25v-512q0 -18 -14 -37q-12 -16 -36 -14t-38 14l-219 221l-219 -221q-18 -18 -39 -15t-34 16t-16 33.5zM-52 -514.5q-3 20.5 15 39.5l256 256q16 14 36.5 14 t37.5 -14l256 -256q18 -18 15 -39t-16 -34t-33.5 -16t-39.5 15l-219 221l-219 -221q-18 -18 -39 -15t-34 16t-16 33.5zM-51 1535.5q0 20.5 14 37.5q16 14 36.5 14t37.5 -14l512 -512q14 -16 14 -37t-14 -37q-16 -14 -36.5 -14t-37.5 14l-512 512q-14 16 -14 36.5z" />
<glyph unicode="&#xb5;" d="M-52 -2.5q-3 20.5 15 39.5l221 219l-221 219q-18 18 -15 39t16 34t33.5 16t39.5 -15l256 -256q14 -16 14 -37t-14 -37l-256 -256q-18 -18 -39 -15t-34 16t-16 33.5zM-52 1026q3 21 16 34t33.5 16t39.5 -15l768 -768q4 -6 9 -17.5t5 -19.5v-389l389 389l-1245 1243 q-18 18 -15 39t16 34t33.5 16t39.5 -15l1192 -1194v369l-754 751q-18 18 -15 39t16 34t33.5 16t39.5 -15l731 -733l184 184l-477 475q-18 18 -15 39t16 34t33.5 16t39.5 -15l512 -512q4 -6 9 -17.5t5 -19.5v-389l389 389l-477 475q-18 18 -15 39t16 34t33.5 16t39.5 -15 l512 -512q14 -16 14 -37t-14 -37l-1280 -1280l-256 -256q-25 -23 -56.5 -10.5t-31.5 47.5v389l-424 -426q-18 -14 -37 -14q-35 0 -47 31.5t10 56.5l733 731l-733 731q-18 18 -15 39zM973 -512.5q0 20.5 14 37.5l1024 1024q18 18 39 15t34 -16t16 -34t-15 -39l-1024 -1024 q-16 -14 -36.5 -14t-37.5 14q-14 16 -14 36.5zM1484 -514.5q-3 20.5 15 39.5l512 512q18 18 39 15t34 -16t16 -34t-15 -39l-512 -512q-18 -18 -39 -15t-34 16t-16 33.5z" />
<glyph unicode="&#xb6;" d="M-52 -2.5q-3 20.5 15 39.5l221 219l-221 219q-18 18 -15 39t16 34t33.5 16t39.5 -15l256 -256q14 -16 14 -37t-14 -37l-256 -256q-18 -18 -39 -15t-34 16t-16 33.5zM-52 -514.5q-3 20.5 15 39.5l498 495v492q0 8 4 19.5t10 17.5l498 495v369l-680 -682q-16 -14 -36.5 -14 t-37.5 14l-256 256q-14 16 -14 36.5t14 37.5l512 512q18 18 39 15t34 -16t16 -33.5t-15 -39.5l-477 -475l184 -184l731 733q16 14 36.5 14t37.5 -14l219 -221l219 221q18 18 39 15t34 -16t16 -33.5t-15 -39.5l-256 -256l-477 -475l645 -645v389q0 8 4 19.5t10 17.5l512 512 q18 18 39 15t34 -16t16 -34t-15 -39l-477 -475l221 -219q14 -16 14 -36.5t-14 -37.5l-256 -256l-256 -256q-18 -18 -39 -15t-34 16t-16 33.5t15 39.5l221 219l-696 696l-184 -184l221 -219q14 -16 14 -36.5t-14 -37.5l-256 -256l-512 -512q-18 -18 -39 -15t-34 16t-16 33.5z M460 -514.5q-3 20.5 15 39.5l512 512q18 18 39 15t34 -16t16 -34t-15 -39l-512 -512q-18 -18 -39 -15t-34 16t-16 33.5zM1229 767.5q0 20.5 14 37.5l768 768q18 18 39 15t34 -16t16 -34t-15 -39l-768 -768q-16 -14 -36.5 -14t-37.5 14q-14 16 -14 36.5zM1484 -514.5 q-3 20.5 15 39.5l512 512q18 18 39 15t34 -16t16 -34t-15 -39l-512 -512q-18 -18 -39 -15t-34 16t-16 33.5z" />
<glyph unicode="&#xb7;" horiz-adv-x="1024" d="M-52 -2.5q-3 20.5 15 39.5l256 256q16 14 36.5 14t37.5 -14l256 -256q14 -16 14 -37t-14 -37l-512 -512q-16 -14 -36.5 -14t-37.5 14q-14 16 -14 36.5t14 37.5l477 475l-184 184l-219 -221q-18 -18 -39 -15t-34 16t-16 33.5zM-52 509.5q-3 20.5 15 39.5l256 256 q16 14 36.5 14t37.5 -14l168 -170v389q0 8 4 19.5t10 17.5l512 512q18 18 39 15t34 -16t16 -33.5t-15 -39.5l-477 -475l184 -184l219 221q18 18 39 15t34 -16t16 -33.5t-15 -39.5l-242 -239v-369l168 170q18 18 39 15t34 -16t16 -34t-15 -39l-256 -256q-25 -25 -55 -10 q-6 2 -41 34.5t-84.5 82t-107.5 108t-111.5 111.5t-94.5 95t-55 56l-219 -221q-18 -18 -39 -15t-34 16t-16 33.5zM-52 1021.5q-3 20.5 15 39.5l512 512q18 18 39 15t34 -16t16 -34t-15 -39l-512 -512q-18 -18 -39 -15t-34 16t-16 33.5zM460 -514.5q-3 20.5 15 39.5l512 512 q18 18 39 15t34 -16t16 -34t-15 -39l-512 -512q-18 -18 -39 -15t-34 16t-16 33.5z" />
<glyph unicode="&#xb8;" d="M-52 514q3 21 16 34t33.5 16t39.5 -15l219 -221l440 440l-733 731q-18 18 -15 39t16 34t33.5 16t39.5 -15l680 -682v369l-242 239q-18 18 -15 39t16 34t33.5 16t39.5 -15l475 -477l184 184l-221 219q-18 18 -15 39t16 34t33.5 16t39.5 -15l219 -221l219 221 q16 14 36.5 14t37.5 -14l512 -512q18 -18 15 -39t-16 -34t-33.5 -16t-39.5 15l-475 477l-184 -184l477 -475q18 -18 15 -39t-16 -34t-33.5 -16t-39.5 15l-475 477l-184 -184l221 -219q18 -18 15 -39t-16 -34t-33.5 -16t-39.5 15l-168 170v-369l717 -716l184 184l-477 475 q-18 18 -15 39t16 34t33.5 16t39.5 -15l512 -512q14 -16 14 -37t-14 -37l-512 -512q-18 -14 -37 -14q-18 0 -37 14l-424 426v-389q0 -35 -31.5 -47t-56.5 10l-731 733l-184 -184l477 -475q18 -18 15 -39t-16 -34t-33.5 -16t-39.5 15l-512 512q-14 16 -14 36.5t14 37.5 l221 219l-221 219q-18 18 -15 39zM-51 1023.5q0 20.5 14 37.5q16 14 36.5 14t37.5 -14l256 -256q14 -16 14 -37t-14 -37q-16 -14 -36.5 -14t-37.5 14l-256 256q-14 16 -14 36.5zM328 256l389 -389v369l-205 204zM584 512l952 -952l184 184l-952 952z" />
<glyph unicode="&#xba;" horiz-adv-x="1024" d="M-52 -514.5q-3 20.5 15 39.5l498 495v492q0 33 31 47q33 14 57 -10l219 -221l184 184l-221 219q-14 16 -14 36.5t14 37.5l256 256q25 23 56.5 10.5t31.5 -47.5v-512q0 -8 -5 -19.5t-9 -17.5l-512 -512l-512 -512q-18 -18 -39 -15t-34 16t-16 33.5zM-51 511.5 q0 20.5 14 37.5l498 495v492q0 33 31 47q33 14 57 -10l219 -221l219 221q18 18 39 15t34 -16t16 -34t-15 -39l-989 -987l221 -219q18 -18 15 -39t-16 -34t-33.5 -16t-39.5 15l-256 256q-14 16 -14 36.5zM-51 1535.5q0 20.5 14 37.5q16 14 36.5 14t37.5 -14l256 -256 q14 -16 14 -37t-14 -37q-16 -14 -36.5 -14t-37.5 14l-256 256q-14 16 -14 36.5zM717 -256.5q0 20.5 14 37.5l256 256q25 23 56.5 10.5t31.5 -47.5v-512q0 -35 -31.5 -47t-56.5 10l-256 256q-14 16 -14 36.5z" />
<glyph unicode="&#xbb;" horiz-adv-x="1024" d="M-52 -2.5q-3 20.5 15 39.5l477 475l-477 475q-18 18 -15 39t16 34t33.5 16t39.5 -15l219 -221l205 204v492q0 18 14 37q12 16 36 14t38 -14l512 -512q18 -18 15 -39t-16 -34t-33.5 -16t-39.5 15l-219 221l-440 -440l440 -440l184 184l-221 219q-18 18 -15 39t16 34 t33.5 16t39.5 -15l256 -256q14 -16 14 -37t-14 -37l-1024 -1024q-18 -18 -39 -15t-34 16t-16 33.5t15 39.5l498 495v369l-424 -426q-18 -18 -39 -15t-34 16t-16 33.5zM-51 1535.5q0 20.5 14 37.5q16 14 36.5 14t37.5 -14l256 -256q14 -16 14 -37t-14 -37q-16 -14 -36.5 -14 t-37.5 14l-256 256q-14 16 -14 36.5zM460 -514.5q-3 20.5 15 39.5l512 512q18 18 39 15t34 -16t16 -34t-15 -39l-512 -512q-18 -18 -39 -15t-34 16t-16 33.5z" />
<glyph unicode="&#xbf;" horiz-adv-x="1024" d="M-52 509.5q-3 20.5 15 39.5l242 239v369l-168 -170q-18 -18 -39 -15t-34 16t-16 33.5t15 39.5l512 512q18 18 39 15t34 -16t16 -33.5t-15 -39.5l-221 -219l440 -440l219 221q18 18 39 15t34 -16t16 -34t-15 -39l-989 -987l477 -475q18 -18 15 -39t-16 -34t-33.5 -16 t-39.5 15l-512 512q-14 16 -14 36.5t14 37.5l477 475l-184 184l-219 -221q-18 -18 -39 -15t-34 16t-16 33.5zM461 -0.5q0 20.5 14 37.5l512 512q18 18 39 15t34 -16t16 -33.5t-15 -39.5l-477 -475l477 -475q18 -18 15 -39t-16 -34t-33.5 -16t-39.5 15l-512 512 q-14 16 -14 36.5zM716 1277.5q-3 20.5 15 39.5l256 256q18 18 39 15t34 -16t16 -34t-15 -39l-256 -256q-18 -18 -39 -15t-34 16t-16 33.5z" />
<glyph unicode="&#xc0;" d="M-52 -514.5q-3 20.5 15 39.5l498 495v492q0 8 4 19.5t10 17.5l1024 1024q16 14 36.5 14t37.5 -14l219 -221l219 221q18 18 39 15t34 -16t16 -34t-15 -39l-1266 -1263v-472l242 -239q18 -18 15 -39t-16 -34t-33.5 -16t-39.5 15l-219 221l-219 -221q-18 -18 -39 -15t-34 16 t-16 33.5t15 39.5l221 219l-184 184l-475 -477q-18 -18 -39 -15t-34 16t-16 33.5zM584 512l184 -184l952 952l-184 184zM973 -0.5q0 20.5 14 37.5l1024 1024q18 18 39 15t34 -16t16 -33.5t-15 -39.5l-242 -239v-369l168 170q18 18 39 15t34 -16t16 -33.5t-15 -39.5 l-221 -219l221 -219q18 -18 15 -39t-16 -34t-33.5 -16t-39.5 15l-475 477l-440 -440l477 -475q18 -18 15 -39t-16 -34t-33.5 -16t-39.5 15l-512 512q-14 16 -14 36.5zM1485 -0.5q0 20.5 14 37.5q16 14 36.5 14t37.5 -14l512 -512q14 -16 14 -37t-14 -37q-16 -14 -36.5 -14 t-37.5 14l-512 512q-14 16 -14 36.5z" />
<glyph unicode="&#xc1;" horiz-adv-x="512" d="M-52 509.5q-3 20.5 15 39.5l221 219l-221 219q-18 18 -15 39t16 34t33.5 16t39.5 -15l512 -512q14 -16 14 -36.5t-14 -37.5l-477 -475l477 -475q18 -18 15 -39t-16 -34t-33.5 -16t-39.5 15l-512 512q-14 16 -14 36.5t14 37.5l242 239v369l-168 -170q-18 -18 -39 -15 t-34 16t-16 33.5zM-52 1538q3 21 16 34t33.5 16t39.5 -15l219 -221l219 221q25 25 57 10q31 -14 31 -47v-512q0 -18 -14 -37q-12 -16 -36 -14t-38 14l-512 512q-18 18 -15 39z" />
<glyph unicode="&#xc2;" d="M-52 -514.5q-3 20.5 15 39.5l1245 1243l-733 731q-18 18 -15 39t16 34t33.5 16t39.5 -15l1536 -1536q14 -16 14 -37t-14 -37l-512 -512q-18 -18 -39 -15t-34 16t-16 33.5t15 39.5l477 475l-440 440l-987 -989q-18 -18 -39 -15t-34 16t-16 33.5t15 39.5l754 751v369 l-1192 -1194q-18 -18 -39 -15t-34 16t-16 33.5zM-52 1026q3 21 16 34t33.5 16t39.5 -15l256 -256l6 -12q8 -8 8 -25v-389l389 389l-733 731q-18 18 -15 39t16 34t33.5 16t39.5 -15l768 -768q14 -16 14 -37t-14 -37l-512 -512l-256 -256q-25 -23 -56.5 -10.5t-31.5 47.5v512 q0 18 14 37l221 219l-221 219q-18 18 -15 39zM972 -514.5q-3 20.5 15 39.5l512 512q18 18 39 15t34 -16t16 -34t-15 -39l-512 -512q-18 -18 -39 -15t-34 16t-16 33.5zM973 1535.5q0 20.5 14 37.5q16 14 36.5 14t37.5 -14l1024 -1024q14 -16 14 -37t-14 -37 q-16 -14 -36.5 -14t-37.5 14l-1024 1024q-14 16 -14 36.5zM1485 1535.5q0 20.5 14 37.5q16 14 36.5 14t37.5 -14l512 -512q14 -16 14 -37t-14 -37q-16 -14 -36.5 -14t-37.5 14l-512 512q-14 16 -14 36.5z" />
<glyph unicode="&#xc3;" horiz-adv-x="512" d="M-52 509.5q-3 20.5 15 39.5l242 239v369l-168 -170q-18 -18 -39 -15t-34 16t-16 33.5t15 39.5l512 512q18 18 39 15t34 -16t16 -33.5t-15 -39.5l-221 -219l221 -219q14 -18 14 -37v-512q0 -8 -5 -19.5t-9 -17.5l-477 -475l184 -184l219 221q18 18 39 15t34 -16t16 -33.5 t-15 -39.5q-14 -14 -57 -58t-100.5 -101.5l-120 -120t-117 -115.5t-92 -89t-44.5 -38q-25 -10 -47 4t-22 43v512q0 8 5 19.5t9 17.5l477 475l-184 184l-219 -221q-18 -18 -39 -15t-34 16t-16 33.5z" />
<glyph unicode="&#xc4;" d="M-51 -512.5q0 20.5 14 37.5l768 768q20 18 49 12q14 -4 54 -40t85.5 -82t85 -89t56.5 -57l256 -256q14 -16 14 -37t-14 -37l-256 -256q-18 -18 -39 -15t-34 16t-16 33.5t15 39.5l221 219l-184 184l-475 -477q-18 -18 -39 -15t-34 16t-16 33.5t15 39.5l242 239v369 l-680 -682q-16 -14 -36.5 -14t-37.5 14q-14 16 -14 36.5zM717 768v512q0 35 31.5 47t56.5 -10l256 -256q14 -18 14 -37v-389l936 938q18 18 39 15t34 -16t16 -33.5t-15 -39.5l-989 -987l440 -440l475 477q18 18 39 15t34 -16t16 -34t-15 -39l-512 -512q-16 -14 -36.5 -14 t-37.5 14l-512 512l-256 256q-14 18 -14 37zM1484 509.5q-3 20.5 15 39.5l512 512q18 18 39 15t34 -16t16 -34t-15 -39l-512 -512q-18 -18 -39 -15t-34 16t-16 33.5zM1484 -514.5q-3 20.5 15 39.5l512 512q18 18 39 15t34 -16t16 -34t-15 -39l-512 -512q-18 -18 -39 -15 t-34 16t-16 33.5z" />
<glyph unicode="&#xc5;" horiz-adv-x="512" d="M-52 -2.5q-3 20.5 15 39.5l256 256q16 14 36.5 14t37.5 -14l256 -256q14 -18 14 -37v-512q0 -10 -5 -19.5t-9 -17.5q-12 -16 -36 -14t-38 14l-219 221l-219 -221q-18 -18 -39 -15t-34 16t-16 33.5t15 39.5l242 239v369l-168 -170q-18 -18 -39 -15t-34 16t-16 33.5z M-52 509.5q-3 20.5 15 39.5l242 239v369l-168 -170q-18 -18 -39 -15t-34 16t-16 33.5t15 39.5l256 256q16 14 36.5 14t37.5 -14l256 -256q14 -18 14 -37v-512q0 -10 -5 -19.5t-9 -17.5q-12 -16 -36 -14t-38 14l-219 221l-219 -221q-18 -18 -39 -15t-34 16t-16 33.5z" />
<glyph unicode="&#xc6;" d="M-52 -2.5q-3 20.5 15 39.5l768 768q16 14 36.5 14t37.5 -14l168 -170v389q0 8 4 19.5t10 17.5l512 512q18 18 39 15t34 -16t16 -33.5t-15 -39.5l-477 -475l184 -184l731 733q18 18 39 15t34 -16t16 -33.5t-15 -39.5l-754 -751v-369l680 682q18 18 39 15t34 -16t16 -33.5 t-15 -39.5l-733 -731l389 -389v389q0 16 8 25l6 12l256 256q18 18 39 15t34 -16t16 -33.5t-15 -39.5l-221 -219l221 -219q14 -18 14 -37v-512q0 -29 -22.5 -43t-46.5 -4q-6 2 -10.5 4t-8.5 6l-1243 1245l-731 -733q-18 -18 -39 -15t-34 16t-16 33.5zM-52 -514.5 q-3 20.5 15 39.5l768 768q16 14 36.5 14t37.5 -14l768 -768q18 -18 15 -39t-16 -34t-33.5 -16t-39.5 15l-731 733l-731 -733q-18 -18 -39 -15t-34 16t-16 33.5zM-52 1021.5q-3 20.5 15 39.5l512 512q18 18 39 15t34 -16t16 -34t-15 -39l-512 -512q-18 -18 -39 -15t-34 16 t-16 33.5zM-51 511.5q0 20.5 14 37.5l1024 1024q18 18 39 15t34 -16t16 -34t-15 -39l-1024 -1024q-16 -14 -36.5 -14t-37.5 14q-14 16 -14 36.5zM460 -514.5q-3 20.5 15 39.5l256 256q16 14 36.5 14t37.5 -14l256 -256q18 -18 15 -39t-16 -34t-33.5 -16t-39.5 15l-219 221 l-219 -221q-18 -18 -39 -15t-34 16t-16 33.5z" />
<glyph unicode="&#xc7;" d="M-52 1021.5q-3 20.5 15 39.5l256 256q18 18 39 15t34 -16t16 -34t-15 -39l-256 -256q-18 -18 -39 -15t-34 16t-16 33.5zM-51 -0.5q0 20.5 14 37.5q16 14 36.5 14t37.5 -14l512 -512q14 -16 14 -37t-14 -37q-16 -14 -36.5 -14t-37.5 14l-512 512q-14 16 -14 36.5z M-51 511.5q0 20.5 14 37.5l733 731l-221 219q-18 18 -15 39t16 34t33.5 16t39.5 -15l256 -256l6 -12q8 -8 8 -25v-389l680 682q18 18 39 15t34 -16t16 -33.5t-15 -39.5l-754 -751v-472l154 -153v389q0 8 5 19.5t9 17.5l1024 1024q18 18 39 15t34 -16t16 -33.5t-15 -39.5 l-989 -987l184 -184l731 733q18 18 39 15t34 -16t16 -33.5t-15 -39.5l-1024 -1024q-4 -4 -8 -6t-11 -4q-31 -14 -55 10l-256 256l-256 256q-14 18 -14 37v389l-389 -389l952 -952l987 989q18 18 39 15t34 -16t16 -34t-15 -39l-1024 -1024q-16 -14 -36.5 -14t-37.5 14 l-1024 1024q-14 16 -14 36.5zM1484 -514.5q-3 20.5 15 39.5l512 512q18 18 39 15t34 -16t16 -34t-15 -39l-512 -512q-18 -18 -39 -15t-34 16t-16 33.5z" />
<glyph unicode="&#xc8;" d="M-52 1538q3 21 16 34t33.5 16t39.5 -15l731 -733l184 184l-477 475q-18 18 -15 39t16 34t33.5 16t39.5 -15l475 -477l475 477q18 18 39 15t34 -16t16 -33.5t-15 -39.5l-498 -495v-472l154 -153v389q0 8 4 19.5t10 17.5l768 768q18 18 39 15t34 -16t16 -33.5t-15 -39.5 l-733 -731l733 -731q23 -25 10.5 -56.5t-47.5 -31.5q-18 0 -37 14l-424 426v-369l498 -495q18 -18 15 -39t-16 -34t-33.5 -16t-39.5 15l-475 477l-219 -221q-25 -25 -57 -10q-31 14 -31 47v492l-205 204l-219 -221q-25 -25 -57 -10q-31 14 -31 47v492l-754 751 q-18 18 -15 39zM1741 767.5q0 20.5 14 37.5l256 256q18 18 39 15t34 -16t16 -33.5t-15 -39.5l-221 -219l221 -219q18 -18 15 -39t-16 -34t-33.5 -16t-39.5 15l-256 256q-14 16 -14 36.5z" />
<glyph unicode="&#xcb;" d="M-52 1538q3 21 16 34t33.5 16t39.5 -15l731 -733l731 733q18 18 39 15t34 -16t16 -33.5t-15 -39.5l-989 -987l184 -184l1243 1245q18 18 39 15t34 -16t16 -34t-15 -39l-1266 -1263v-492q0 -35 -31.5 -47t-56.5 10l-256 256q-14 18 -14 37v512q0 8 5 19.5t9 17.5l221 219 l-733 731q-18 18 -15 39zM460 1538q3 21 16 34t33.5 16t39.5 -15l219 -221l219 221q18 18 39 15t34 -16t16 -34t-15 -39l-256 -256q-18 -14 -37 -14q-18 0 -37 14l-256 256q-18 18 -15 39zM1229 255.5q0 20.5 14 37.5l768 768q18 18 39 15t34 -16t16 -33.5t-15 -39.5 l-733 -731l733 -731q18 -18 15 -39t-16 -34t-33.5 -16t-39.5 15l-768 768q-14 16 -14 36.5zM1741 255.5q0 20.5 14 37.5l256 256q18 18 39 15t34 -16t16 -33.5t-15 -39.5l-221 -219l221 -219q18 -18 15 -39t-16 -34t-33.5 -16t-39.5 15l-256 256q-14 16 -14 36.5z" />
<glyph unicode="&#xcd;" horiz-adv-x="1024" d="M-52 509.5q-3 20.5 15 39.5l221 219l-221 219q-14 16 -14 36.5t14 37.5l512 512q16 14 36.5 14t37.5 -14l512 -512q18 -18 15 -39t-16 -34t-33.5 -16t-39.5 15l-475 477l-184 -184l477 -475q4 -6 9 -17.5t5 -19.5v-492l242 -239q18 -18 15 -39t-16 -34t-33.5 -16 t-39.5 15l-219 221l-184 -184l221 -219q14 -16 14 -36.5t-14 -37.5l-256 -256q-18 -18 -39 -15t-34 16t-16 33.5t15 39.5l221 219l-221 219q-4 6 -9 17.5t-5 19.5v389l-389 -389l221 -219q14 -16 14 -36.5t-14 -37.5l-256 -256q-18 -18 -39 -15t-34 16t-16 33.5t15 39.5 l221 219l-221 219q-14 16 -14 36.5t14 37.5l733 731l-440 440l-184 -184l221 -219q14 -16 14 -36.5t-14 -37.5l-256 -256q-18 -18 -39 -15t-34 16t-16 33.5z" />
<glyph unicode="&#xce;" d="M-52 514q3 21 16 34t33.5 16t39.5 -15l424 -426v389q0 8 5 19.5t9 17.5l498 495v369l-680 -682q-16 -14 -36.5 -14t-37.5 14l-256 256q-14 16 -14 36.5t14 37.5l512 512q18 18 39 15t34 -16t16 -33.5t-15 -39.5l-477 -475l184 -184l731 733q23 18 43 12q23 -4 31 -12 l1024 -1024q18 -18 15 -39t-16 -34t-33.5 -16t-39.5 15l-680 682v-369l754 -751q18 -18 15 -39t-16 -34t-33.5 -16t-39.5 15l-680 682v-369l754 -751q18 -18 15 -39t-16 -34t-33.5 -16t-39.5 15l-768 768l-256 256q-14 18 -14 37v389l-389 -389l989 -987q23 -25 10.5 -56.5 t-47.5 -31.5q-18 0 -37 14l-475 477l-475 -477q-18 -18 -39 -15t-34 16t-16 33.5t15 39.5l477 475l-184 184l-731 -733q-18 -18 -39 -15t-34 16t-16 33.5t15 39.5l477 475l-477 475q-18 18 -15 39zM1485 1535.5q0 20.5 14 37.5q16 14 36.5 14t37.5 -14l512 -512 q14 -16 14 -37t-14 -37q-16 -14 -36.5 -14t-37.5 14l-512 512q-14 16 -14 36.5z" />
<glyph unicode="&#xcf;" d="M-52 2q3 21 16 34t33.5 16t39.5 -15l219 -221l219 221q18 18 39 15t34 -16t16 -33.5t-15 -39.5l-221 -219l221 -219q18 -18 15 -39t-16 -34t-33.5 -16t-39.5 15l-219 221l-219 -221q-18 -18 -39 -15t-34 16t-16 33.5t15 39.5l221 219l-221 219q-18 18 -15 39zM-51 512 v512q0 16 8 25l6 12l256 256q18 18 39 15t34 -16t16 -33.5t-15 -39.5l-221 -219l221 -219q14 -16 14 -37t-14 -37l-256 -256q-14 -12 -38 -14t-36 14q-14 18 -14 37zM204 253.5q-3 20.5 15 39.5l512 512q18 18 39 15t34 -16t16 -33.5t-15 -39.5l-221 -219l184 -184l440 440 l-440 440l-219 -221q-18 -18 -39 -15t-34 16t-16 33.5t15 39.5l221 219l-221 219q-18 18 -15 39t16 34t33.5 16t39.5 -15l219 -221l219 221q18 18 39 15t34 -16t16 -33.5t-15 -39.5l-221 -219l389 -389v389q0 8 4 19.5t10 17.5l256 256q16 14 36.5 14t37.5 -14l512 -512 q14 -16 14 -36.5t-14 -37.5l-256 -256q-18 -18 -39 -15t-34 16t-16 33.5t15 39.5l221 219l-440 440l-184 -184l221 -219q14 -16 14 -36.5t-14 -37.5l-221 -219l440 -440l219 221q18 18 39 15t34 -16t16 -33.5t-15 -39.5l-477 -475l184 -184l219 221q18 18 39 15t34 -16 t16 -34t-15 -39q-14 -14 -57 -58t-100.5 -100.5t-120 -120t-117 -116.5t-92 -89t-44.5 -38q-25 -10 -47 4t-22 43v512q0 8 4 19.5t10 17.5l221 219l-440 440l-440 -440l184 -184l219 221q18 18 39 15t34 -16t16 -33.5t-15 -39.5l-221 -219l221 -219q18 -18 15 -39t-16 -34 t-33.5 -16t-39.5 15l-219 221l-219 -221q-18 -18 -39 -15t-34 16t-16 33.5t15 39.5l221 219l-440 440l-219 -221q-18 -18 -39 -15t-34 16t-16 33.5z" />
<glyph unicode="&#xd1;" d="M-52 2q3 21 16 34t33.5 16t39.5 -15l219 -221l184 184l-477 475q-18 18 -15 39t16 34t33.5 16t39.5 -15l424 -426v369l-498 495q-18 18 -15 39t16 34t33.5 16t39.5 -15l475 -477l184 184l-221 219q-14 16 -14 36.5t14 37.5l512 512q23 18 43 12q23 -4 31 -12l475 -477 l184 184l-221 219q-18 18 -15 39t16 34t33.5 16t39.5 -15l256 -256q14 -16 14 -36.5t-14 -37.5l-256 -256q-16 -14 -36.5 -14t-37.5 14l-168 170v-369l410 -409v389q0 16 8 25l6 12l256 256q18 18 39 15t34 -16t16 -33.5t-15 -39.5l-221 -219l221 -219q14 -18 14 -37v-512 q0 -35 -31.5 -47t-56.5 10l-256 256l-475 477l-184 -184l989 -987q18 -18 15 -39t-16 -34t-33.5 -16t-39.5 15l-1024 1024q-4 6 -9 17.5t-5 19.5v901l-389 -389l221 -219q4 -6 9 -17.5t5 -19.5v-512q0 -18 -14 -37l-256 -256l-256 -256q-18 -14 -37 -14q-18 0 -37 14 l-256 256q-18 18 -15 39zM-52 1538q3 21 16 34t33.5 16t39.5 -15l219 -221l219 221q18 18 39 15t34 -16t16 -34t-15 -39l-256 -256q-18 -14 -37 -14q-18 0 -37 14l-256 256q-18 18 -15 39zM460 -514.5q-3 20.5 15 39.5l512 512q18 18 39 15t34 -16t16 -34t-15 -39l-512 -512 q-18 -18 -39 -15t-34 16t-16 33.5zM1229 -256.5q0 20.5 14 37.5q16 14 36.5 14t37.5 -14l256 -256q14 -16 14 -37t-14 -37q-16 -14 -36.5 -14t-37.5 14l-256 256q-14 16 -14 36.5z" />
<glyph unicode="&#xd2;" horiz-adv-x="1024" d="M-52 -2.5q-3 20.5 15 39.5l221 219l-221 219q-18 18 -15 39t16 34t33.5 16t39.5 -15l256 -256q14 -16 14 -37t-14 -37l-256 -256q-18 -18 -39 -15t-34 16t-16 33.5zM-52 1538q3 21 16 34t33.5 16t39.5 -15l256 -256l6 -12q8 -12 8 -25v-389l389 389l-221 219 q-18 18 -15 39t16 34t33.5 16t39.5 -15l256 -256q14 -16 14 -36.5t-14 -37.5l-477 -475l733 -731q18 -18 15 -39t-16 -34t-33.5 -16t-39.5 15l-219 221l-440 -440l221 -219q18 -18 15 -39t-16 -34t-33.5 -16t-39.5 15l-256 256q-14 16 -14 36.5t14 37.5l477 475l-733 731 q-14 16 -14 36.5t14 37.5l221 219l-221 219q-18 18 -15 39zM717 -256.5q0 20.5 14 37.5q16 14 36.5 14t37.5 -14l256 -256q14 -16 14 -37t-14 -37q-16 -14 -36.5 -14t-37.5 14l-256 256q-14 16 -14 36.5zM717 767.5q0 20.5 14 37.5l256 256q18 18 39 15t34 -16t16 -33.5 t-15 -39.5l-221 -219l221 -219q18 -18 15 -39t-16 -34t-33.5 -16t-39.5 15l-256 256q-14 16 -14 36.5z" />
<glyph unicode="&#xd3;" horiz-adv-x="1024" d="M-52 509.5q-3 20.5 15 39.5l1024 1024q18 18 39 15t34 -16t16 -33.5t-15 -39.5l-242 -239v-369l168 170q18 18 39 15t34 -16t16 -34t-15 -39l-256 -256q-16 -14 -36.5 -14t-37.5 14l-219 221l-475 -477q-18 -18 -39 -15t-34 16t-16 33.5zM-52 1021.5q-3 20.5 15 39.5 l512 512q18 18 39 15t34 -16t16 -34t-15 -39l-512 -512q-18 -18 -39 -15t-34 16t-16 33.5zM-51 -0.5q0 20.5 14 37.5l512 512q16 14 36.5 14t37.5 -14l219 -221l219 221q18 18 39 15t34 -16t16 -33.5t-15 -39.5l-242 -239v-472l242 -239q18 -18 15 -39t-16 -34t-33.5 -16 t-39.5 15l-512 512q-14 18 -14 37v389l-389 -389l477 -475q18 -18 15 -39t-16 -34t-33.5 -16t-39.5 15l-512 512q-14 16 -14 36.5z" />
<glyph unicode="&#xd4;" d="M-52 -2.5q-3 20.5 15 39.5l242 239v369l-168 -170q-18 -18 -39 -15t-34 16t-16 33.5t15 39.5l477 475l-184 184l-219 -221q-18 -18 -39 -15t-34 16t-16 33.5t15 39.5l512 512q16 14 36.5 14t37.5 -14l219 -221l219 221q18 18 39 15t34 -16t16 -33.5t-15 -39.5l-256 -256 q-16 -14 -36.5 -14t-37.5 14l-219 221l-184 -184l901 -901v369l-242 239q-14 16 -14 36.5t14 37.5l512 512q18 18 39 15t34 -16t16 -33.5t-15 -39.5l-477 -475l184 -184l731 733q18 18 39 15t34 -16t16 -33.5t-15 -39.5l-733 -731l184 -184l475 477q18 18 39 15t34 -16 t16 -33.5t-15 -39.5l-498 -495v-472l498 -495q18 -18 15 -39t-16 -34t-33.5 -16t-39.5 15l-424 426v-389q0 -35 -31.5 -47t-56.5 10l-219 221l-219 -221q-18 -18 -39 -15t-34 16t-16 33.5t15 39.5l242 239v472l-717 716l-184 -184l733 -731q14 -16 14 -36.5t-14 -37.5 l-512 -512q-18 -18 -39 -15t-34 16t-16 33.5t15 39.5l477 475l-440 440l-475 -477q-18 -18 -39 -15t-34 16t-16 33.5zM-52 -514.5q-3 20.5 15 39.5l512 512q18 18 39 15t34 -16t16 -34t-15 -39l-512 -512q-18 -18 -39 -15t-34 16t-16 33.5zM1741 255.5q0 20.5 14 37.5 l256 256q18 18 39 15t34 -16t16 -33.5t-15 -39.5l-221 -219l221 -219q18 -18 15 -39t-16 -34t-33.5 -16t-39.5 15l-256 256q-14 16 -14 36.5z" />
<glyph unicode="&#xd5;" horiz-adv-x="512" d="M-51 0v512q0 10 5 19.5t9 17.5q12 16 37 14t37 -14l512 -512q18 -18 15 -39t-17.5 -34t-33.5 -16t-38 15l-219 221l-219 -221q-14 -12 -38 -14t-36 14q-4 8 -9 17.5t-5 19.5zM-51 1024v512q0 10 5 19.5t9 17.5q12 16 37 14t37 -14l512 -512q18 -18 15 -39t-17.5 -34 t-33.5 -16t-38 15l-219 221l-219 -221q-14 -12 -38 -14t-36 14q-4 8 -9 17.5t-5 19.5zM205 -256.5q0 20.5 14 37.5q16 14 36.5 14t37.5 -14l256 -256q14 -16 14 -37t-14 -37q-16 -14 -36.5 -14t-37.5 14l-256 256q-14 16 -14 36.5zM205 767.5q0 20.5 14 37.5q16 14 36.5 14 t37.5 -14l256 -256q14 -16 14 -37t-14 -37q-16 -14 -36.5 -14t-37.5 14l-256 256q-14 16 -14 36.5z" />
<glyph unicode="&#xd7;" horiz-adv-x="512" d="M-52 509.5q-3 20.5 15 39.5l221 219l-221 219q-18 18 -15 39t16 34t33.5 16t39.5 -15l168 -170v389q0 8 5 19.5t9 17.5l256 256q18 18 39 15t34 -16t16 -33.5t-15 -39.5l-221 -219l221 -219q14 -16 14 -37t-14 -37l-256 -256l-256 -256q-18 -18 -39 -15t-34 16t-16 33.5z M-52 -514.5q-3 20.5 15 39.5l221 219l-221 219q-14 16 -14 36.5t14 37.5l256 256l256 256q18 18 39 15t34 -16t16 -33.5t-15 -39.5l-221 -219l221 -219q18 -18 15 -39t-16 -34t-33.5 -16t-39.5 15l-168 170v-389q0 -16 -8 -25l-6 -12l-256 -256q-18 -18 -39 -15t-34 16 t-16 33.5z" />
<glyph unicode="&#xd8;" horiz-adv-x="512" d="M-51 -0.5q0 20.5 14 37.5l256 256l221 219l-477 475q-14 16 -14 36.5t14 37.5l512 512q18 18 39 15t34 -16t16 -33.5t-15 -39.5l-477 -475l477 -475l6 -12q8 -8 8 -25v-512q0 -18 -14 -37q-12 -16 -36 -14t-38 14l-219 221l-184 -184l477 -475q18 -18 15 -39t-16 -34 t-33.5 -16t-39.5 15l-512 512q-14 16 -14 36.5z" />
<glyph unicode="&#xda;" horiz-adv-x="512" d="M-51 -0.5q0 20.5 14 37.5l256 256l221 219l-477 475q-14 16 -14 36.5t14 37.5q16 14 36.5 14t37.5 -14l512 -512q0 -2 1 -3t1 -3q4 -4 4 -6q8 -16 8 -25v-512q0 -33 -31 -47q-16 -4 -20 -4q-18 0 -37 14l-219 221l-184 -184l477 -475q14 -16 14 -36.5t-14 -37.5 q-14 -14 -37 -14t-37 14l-512 512q-14 16 -14 36.5zM-51 1535.5q0 20.5 14 37.5q16 14 36.5 14t37.5 -14l512 -512q14 -16 14 -37t-14 -37q-14 -14 -37 -14t-37 14l-512 512q-14 16 -14 36.5z" />
<glyph unicode="&#xdf;" horiz-adv-x="1024" d="M-52 514q3 21 16 34t33.5 16t39.5 -15l256 -256q14 -16 14 -36.5t-14 -37.5l-221 -219l440 -440l475 477q18 18 39 15t34 -16t16 -33.5t-15 -39.5l-221 -219l221 -219q18 -18 15 -39t-16 -34t-33.5 -16t-39.5 15l-219 221l-219 -221q-16 -14 -36.5 -14t-37.5 14l-512 512 q-14 16 -14 36.5t14 37.5l221 219l-221 219q-18 18 -15 39zM-52 1538q3 21 16 34t33.5 16t39.5 -15l256 -256q14 -16 14 -36.5t-14 -37.5l-221 -219l389 -389v389q0 8 5 19.5t9 17.5l221 219l-221 219q-18 18 -15 39t16 34t33.5 16t39.5 -15l256 -256q14 -16 14 -36.5 t-14 -37.5l-221 -219l184 -184l219 221q18 18 39 15t34 -16t16 -34t-15 -39l-242 -239v-56.5t1 -96.5t1 -114.5v-113t-2 -88t-4 -41.5t-4 -10.5t-6 -8.5l-256 -256q-25 -23 -56.5 -10.5t-31.5 47.5v492l-498 495q-14 16 -14 36.5t14 37.5l221 219l-221 219q-18 18 -15 39z " />
<glyph unicode="&#xe0;" d="M-52 -2.5q-3 20.5 15 39.5l989 987l-477 475q-18 18 -15 39t16 34t33.5 16t39.5 -15l512 -512q14 -16 14 -36.5t-14 -37.5l-477 -475l184 -184l731 733l256 256l256 256q16 14 36.5 14t37.5 -14q14 -16 14 -37t-14 -37l-242 -239v-492q0 -8 -5 -19.5t-9 -17.5 l-1024 -1024q-16 -14 -36.5 -14t-37.5 14l-219 221l-475 -477q-18 -18 -39 -15t-34 16t-16 33.5t15 39.5l498 495v369l-424 -426q-18 -18 -39 -15t-34 16t-16 33.5zM-52 509.5q-3 20.5 15 39.5l221 219l-221 219q-18 18 -15 39t16 34t33.5 16t39.5 -15l256 -256 q14 -16 14 -37t-14 -37l-256 -256q-18 -18 -39 -15t-34 16t-16 33.5zM-51 1535.5q0 20.5 14 37.5q16 14 36.5 14t37.5 -14l512 -512q14 -16 14 -37t-14 -37q-16 -14 -36.5 -14t-37.5 14l-512 512q-14 16 -14 36.5zM819 -133l901 901l-184 184l-717 -716v-369zM972 1538 q3 21 16 34t33.5 16t39.5 -15l219 -221l219 221q18 18 39 15t34 -16t16 -34t-15 -39l-256 -256q-18 -14 -37 -14q-18 0 -37 14l-256 256q-18 18 -15 39z" />
<glyph unicode="&#xe3;" horiz-adv-x="512" d="M-52 2q3 21 16 34t33.5 16t39.5 -15l168 -170v369l-242 239q-18 18 -15 39t16 34t33.5 16t39.5 -15l219 -221l184 184l-477 475q-14 16 -14 36.5t14 37.5l221 219l-221 219q-18 18 -15 39t16 34t33.5 16t39.5 -15l512 -512q18 -18 15 -39t-16 -34t-33.5 -16t-39.5 15 l-219 221l-184 -184l477 -475q4 -6 9 -17.5t5 -19.5v-1024q0 -20 -15.5 -35.5t-35.5 -15.5q-18 0 -37 14l-256 256l-256 256q-18 18 -15 39z" />
<glyph unicode="&#xe4;" d="M-52 -2.5q-3 20.5 15 39.5l512 512q18 18 39 15t34 -16t16 -34t-15 -39l-512 -512q-18 -18 -39 -15t-34 16t-16 33.5zM-52 509.5q-3 20.5 15 39.5l512 512q16 14 36.5 14t37.5 -14l512 -512l256 -256q14 -18 14 -37v-512q0 -35 -31.5 -47t-56.5 10l-256 256 q-14 18 -14 37v389l-936 -938q-18 -18 -39 -15t-34 16t-16 33.5t15 39.5l989 987l-440 440l-475 -477q-18 -18 -39 -15t-34 16t-16 33.5zM-52 1021.5q-3 20.5 15 39.5l512 512q18 18 39 15t34 -16t16 -34t-15 -39l-512 -512q-18 -18 -39 -15t-34 16t-16 33.5zM717 1279.5 q0 20.5 14 37.5l256 256q18 18 39 15t34 -16t16 -33.5t-15 -39.5l-221 -219l184 -184l475 477q18 18 39 15t34 -16t16 -33.5t-15 -39.5l-242 -239v-369l680 682q16 14 36.5 14t37.5 -14q14 -16 14 -37t-14 -37l-768 -768q-25 -25 -55 -10q-8 2 -29 20.5t-48.5 45t-58 58.5 t-59.5 60.5t-50.5 51t-29.5 30.5l-256 256q-14 16 -14 36.5z" />
<glyph unicode="&#xe5;" horiz-adv-x="512" d="M-52 2q3 21 16 34t33.5 16t39.5 -15l168 -170v369l-242 239q-18 18 -15 39t16 34t33.5 16t39.5 -15l219 -221l219 221q12 12 37 14t37 -14q4 -8 9 -17.5t5 -19.5v-512q0 -18 -14 -37l-256 -256q-4 -4 -8 -6t-11 -4q-31 -14 -55 10l-256 256q-18 18 -15 39zM-52 1026 q3 21 16 34t33.5 16t39.5 -15l168 -170v369l-242 239q-18 18 -15 39t16 34t33.5 16t39.5 -15l219 -221l219 221q12 12 37 14t37 -14q4 -8 9 -17.5t5 -19.5v-512q0 -18 -14 -37l-256 -256q-4 -4 -8 -6t-11 -4q-31 -14 -55 10l-256 256q-18 18 -15 39z" />
<glyph unicode="&#xe6;" d="M-51 -0.5q0 20.5 14 37.5q16 14 36.5 14t37.5 -14l512 -512q14 -16 14 -37t-14 -37q-16 -14 -36.5 -14t-37.5 14l-512 512q-14 16 -14 36.5zM-51 511.5q0 20.5 14 37.5q16 14 36.5 14t37.5 -14l1024 -1024q14 -16 14 -37t-14 -37q-16 -14 -36.5 -14t-37.5 14l-1024 1024 q-14 16 -14 36.5zM-51 1023.5q0 20.5 14 37.5q16 14 36.5 14t37.5 -14l512 -512q14 -16 14 -37t-14 -37q-16 -14 -36.5 -14t-37.5 14l-512 512q-14 16 -14 36.5zM-51 1535.5q0 20.5 14 37.5q16 14 36.5 14t37.5 -14l768 -768q14 -16 14 -37t-14 -37q-16 -14 -36.5 -14 t-37.5 14l-768 768q-14 16 -14 36.5zM460 1538q3 21 16 34t33.5 16t39.5 -15l475 -477l184 184l-221 219q-18 18 -15 39t16 34t33.5 16t39.5 -15l256 -256l6 -12q8 -12 8 -25v-389l680 682q18 18 39 15t34 -16t16 -34t-15 -39l-1245 -1243l733 -731q18 -18 15 -39t-16 -34 t-33.5 -16t-39.5 15l-768 768q-14 16 -14 36.5t14 37.5l242 239v472l-498 495q-18 18 -15 39zM1229 255.5q0 20.5 14 37.5l768 768q18 18 39 15t34 -16t16 -33.5t-15 -39.5l-733 -731l389 -389v389q0 16 8 25l6 12l256 256q18 18 39 15t34 -16t16 -33.5t-15 -39.5l-221 -219 l221 -219q14 -18 14 -37v-512q0 -35 -31.5 -47t-56.5 10l-256 256l-512 512q-14 16 -14 36.5z" />
<glyph unicode="&#xe7;" d="M-52 1021.5q-3 20.5 15 39.5l512 512q18 18 39 15t34 -16t16 -34t-15 -39l-512 -512q-18 -18 -39 -15t-34 16t-16 33.5zM-51 -0.5q0 20.5 14 37.5q16 14 36.5 14t37.5 -14l256 -256q14 -16 14 -37t-14 -37q-16 -14 -36.5 -14t-37.5 14l-256 256q-14 16 -14 36.5z M-51 511.5q0 20.5 14 37.5l1024 1024q16 14 36.5 14t37.5 -14l1024 -1024q18 -18 15 -39t-16 -34t-33.5 -16t-39.5 15l-680 682v-369l754 -751q18 -18 15 -39t-16 -34t-33.5 -16t-39.5 15l-680 682v-369l754 -751q18 -18 15 -39t-16 -34t-33.5 -16t-39.5 15l-768 768 l-256 256q-14 18 -14 37v389l-389 -389l989 -987q18 -18 15 -39t-16 -34t-33.5 -16t-39.5 15l-680 682v-389q0 -16 -8 -25l-6 -12l-256 -256q-18 -18 -39 -15t-34 16t-16 33.5t15 39.5l221 219l-733 731q-14 16 -14 36.5zM72 512l389 -389v389q0 8 5 19.5t9 17.5l733 731 l-184 184zM1485 1535.5q0 20.5 14 37.5q16 14 36.5 14t37.5 -14l512 -512q14 -16 14 -37t-14 -37q-16 -14 -36.5 -14t-37.5 14l-512 512q-14 16 -14 36.5z" />
<glyph unicode="&#xe8;" d="M-52 -2.5q-3 20.5 15 39.5l221 219l-221 219q-18 18 -15 39t16 34t33.5 16t39.5 -15l256 -256q14 -16 14 -37t-14 -37l-256 -256q-18 -18 -39 -15t-34 16t-16 33.5zM-52 -514.5q-3 20.5 15 39.5l733 731l-733 731q-14 16 -14 36.5t14 37.5q16 14 36.5 14t37.5 -14 l424 -426v369l-498 495q-18 18 -15 39t16 34t33.5 16t39.5 -15l475 -477l219 221q25 25 57 10q31 -14 31 -47v-492l205 -204l219 221q25 25 57 10q31 -14 31 -47v-492l754 -751q18 -18 15 -39t-16 -34t-33.5 -16t-39.5 15l-680 682v-369l242 -239q18 -18 15 -39t-16 -34 t-33.5 -16t-39.5 15l-475 477l-475 -477q-18 -18 -39 -15t-34 16t-16 33.5t15 39.5l498 495v472l-154 153v-389q0 -8 -5 -19.5t-9 -17.5l-768 -768q-18 -18 -39 -15t-34 16t-16 33.5z" />
<glyph unicode="&#xe9;" horiz-adv-x="512" d="M-52 1026q3 21 16 34t33.5 16t39.5 -15l168 -170v369l-242 239q-18 18 -15 39t16 34t33.5 16t39.5 -15l219 -221l219 221q14 12 38 14t36 -14q14 -18 14 -37v-1024q0 -33 -31 -47q-33 -14 -57 10l-256 256l-256 256q-18 18 -15 39zM-51 -0.5q0 20.5 14 37.5 q16 14 36.5 14t37.5 -14l512 -512q14 -16 14 -37t-14 -37q-16 -14 -36.5 -14t-37.5 14l-512 512q-14 16 -14 36.5zM-51 511.5q0 20.5 14 37.5q16 14 36.5 14t37.5 -14l512 -512q14 -16 14 -37t-14 -37q-16 -14 -36.5 -14t-37.5 14l-512 512q-14 16 -14 36.5z" />
<glyph unicode="&#xeb;" d="M-52 -2.5q-3 20.5 15 39.5l733 731l-733 731q-18 18 -15 39t16 34t33.5 16t39.5 -15l768 -768q14 -16 14 -37t-14 -37l-768 -768q-18 -18 -39 -15t-34 16t-16 33.5zM-52 509.5q-3 20.5 15 39.5l221 219l-221 219q-18 18 -15 39t16 34t33.5 16t39.5 -15l256 -256 q14 -16 14 -37t-14 -37l-256 -256q-18 -18 -39 -15t-34 16t-16 33.5zM-52 -514.5q-3 20.5 15 39.5l1266 1263v492q0 35 31.5 47t56.5 -10l256 -256q14 -18 14 -37v-512q0 -8 -4 -19.5t-10 -17.5l-221 -219l733 -731q18 -18 15 -39t-16 -34t-33.5 -16t-39.5 15l-731 733 l-731 -733q-18 -18 -39 -15t-34 16t-16 33.5t15 39.5l989 987l-184 184l-1243 -1245q-18 -18 -39 -15t-34 16t-16 33.5zM972 -514.5q-3 20.5 15 39.5l256 256q16 14 36.5 14t37.5 -14l256 -256q18 -18 15 -39t-16 -34t-33.5 -16t-39.5 15l-219 221l-219 -221 q-18 -18 -39 -15t-34 16t-16 33.5z" />
<glyph unicode="&#xee;" horiz-adv-x="512" d="M-52 514q3 21 16 34t33.5 16t39.5 -15l512 -512q14 -16 14 -37t-14 -37l-512 -512q-18 -18 -39 -15t-34 16t-16 33.5t15 39.5l477 475l-477 475q-18 18 -15 39zM-52 1021.5q-3 20.5 15 39.5l512 512q18 18 39 15t34 -16t16 -34t-15 -39l-512 -512q-18 -18 -39 -15t-34 16 t-16 33.5zM205 767.5q0 20.5 14 37.5l256 256q18 18 39 15t34 -16t16 -33.5t-15 -39.5l-221 -219l221 -219q18 -18 15 -39t-16 -34t-33.5 -16t-39.5 15l-256 256q-14 16 -14 36.5z" />
<glyph unicode="&#xf1;" d="M-52 2q3 21 16 34t33.5 16t39.5 -15l219 -221l184 184l-477 475q-18 18 -15 39t16 34t33.5 16t39.5 -15l424 -426v369l-498 495q-18 18 -15 39t16 34t33.5 16t39.5 -15l475 -477l184 184l-221 219q-14 16 -14 36.5t14 37.5l512 512q23 18 43 12q23 -4 31 -12l475 -477 l184 184l-221 219q-18 18 -15 39t16 34t33.5 16t39.5 -15l256 -256q14 -16 14 -36.5t-14 -37.5l-256 -256q-16 -14 -36.5 -14t-37.5 14l-168 170v-369l410 -409v389q0 16 8 25l6 12l256 256q18 18 39 15t34 -16t16 -33.5t-15 -39.5l-221 -219l221 -219q14 -18 14 -37v-512 q0 -35 -31.5 -47t-56.5 10l-256 256l-475 477l-184 -184l989 -987q18 -18 15 -39t-16 -34t-33.5 -16t-39.5 15l-1024 1024q-4 6 -9 17.5t-5 19.5v901l-389 -389l221 -219q4 -6 9 -17.5t5 -19.5v-512q0 -18 -14 -37l-256 -256l-256 -256q-18 -14 -37 -14q-18 0 -37 14 l-256 256q-18 18 -15 39zM-52 1538q3 21 16 34t33.5 16t39.5 -15l219 -221l219 221q18 18 39 15t34 -16t16 -34t-15 -39l-256 -256q-18 -14 -37 -14q-18 0 -37 14l-256 256q-18 18 -15 39zM460 -514.5q-3 20.5 15 39.5l512 512q18 18 39 15t34 -16t16 -34t-15 -39l-512 -512 q-18 -18 -39 -15t-34 16t-16 33.5zM1229 -256.5q0 20.5 14 37.5q16 14 36.5 14t37.5 -14l256 -256q14 -16 14 -37t-14 -37q-16 -14 -36.5 -14t-37.5 14l-256 256q-14 16 -14 36.5z" />
<glyph unicode="&#xf5;" horiz-adv-x="512" d="M-52 -2.5q-3 20.5 15 39.5l512 512q12 12 37 14t37 -14q4 -8 9 -17.5t5 -19.5v-512q0 -10 -5 -19.5t-9 -17.5q-12 -16 -36 -14t-38 14l-219 221l-219 -221q-18 -18 -39 -15t-34 16t-16 33.5zM-52 509.5q-3 20.5 15 39.5l256 256q18 18 39 15t34 -16t16 -34t-15 -39 l-256 -256q-18 -18 -39 -15t-34 16t-16 33.5zM-52 -514.5q-3 20.5 15 39.5l256 256q18 18 39 15t34 -16t16 -34t-15 -39l-256 -256q-18 -18 -39 -15t-34 16t-16 33.5zM-52 1021.5q-3 20.5 15 39.5l512 512q12 12 37 14t37 -14q4 -8 9 -17.5t5 -19.5v-512q0 -10 -5 -19.5 t-9 -17.5q-12 -16 -36 -14t-38 14l-219 221l-219 -221q-18 -18 -39 -15t-34 16t-16 33.5z" />
<glyph unicode="&#xf7;" horiz-adv-x="512" d="M-52 1026q3 21 16 34t33.5 16t39.5 -15l168 -170v389q0 8 5 19.5t9 17.5l256 256q18 18 39 15t34 -16t16 -33.5t-15 -39.5l-221 -219l221 -219q14 -16 14 -36.5t-14 -37.5l-221 -219l221 -219q18 -18 15 -39t-16 -34t-33.5 -16t-39.5 15l-512 512q-18 18 -15 39zM-51 0 q0 10 5 19.5t9 17.5q12 16 37 14t37 -14l256 -256q14 -16 14 -37t-14 -37l-256 -256q-25 -23 -56.5 -10.5t-31.5 47.5v512zM-51 511.5q0 20.5 14 37.5q16 14 36.5 14t37.5 -14l512 -512q14 -16 14 -37t-14 -37q-16 -14 -36.5 -14t-37.5 14l-512 512q-14 16 -14 36.5z" />
<glyph unicode="&#xf8;" horiz-adv-x="512" d="M-52 514q3 21 16 34t33.5 16t39.5 -15l512 -512q14 -16 14 -37t-14 -37l-512 -512q-18 -18 -39 -15t-34 16t-16 33.5t15 39.5l477 475l-477 475q-18 18 -15 39zM-52 1026q3 21 16 34t33.5 16t39.5 -15l219 -221l184 184l-477 475q-14 16 -14 36.5t14 37.5q16 14 36.5 14 t37.5 -14l512 -512q14 -16 14 -37t-14 -37l-256 -256q-18 -14 -37 -14q-18 0 -37 14l-256 256q-18 18 -15 39z" />
<glyph unicode="&#xfc;" horiz-adv-x="512" d="M-52 -514.5q-3 20.5 15 39.5l477 475l-477 475q-14 16 -14 36.5t14 37.5l512 512q18 18 39 15t34 -16t16 -33.5t-15 -39.5l-221 -219l221 -219q14 -16 14 -36.5t-14 -37.5l-221 -219l221 -219q14 -16 14 -37t-14 -37l-512 -512q-18 -18 -39 -15t-34 16t-16 33.5z M-52 1021.5q-3 20.5 15 39.5l512 512q18 18 39 15t34 -16t16 -34t-15 -39l-512 -512q-18 -18 -39 -15t-34 16t-16 33.5z" />
<glyph unicode="&#x131;" d="M-52 514q3 21 16 34t33.5 16t39.5 -15l168 -170v389q0 8 5 19.5t9 17.5l768 768q18 18 39 15t34 -16t16 -33.5t-15 -39.5l-733 -731l184 -184l987 989q18 18 39 15t34 -16t16 -33.5t-15 -39.5l-1010 -1007v-369l1448 1450q16 14 36.5 14t37.5 -14q14 -16 14 -37t-14 -37 l-1536 -1536q-4 -4 -8 -5t-9 -5q-12 -8 -29.5 -4t-27.5 14l-256 256l-256 256q-18 18 -15 39zM-52 -514.5q-3 20.5 15 39.5l256 256q18 18 39 15t34 -16t16 -34t-15 -39l-256 -256q-18 -18 -39 -15t-34 16t-16 33.5zM-52 1021.5q-3 20.5 15 39.5l512 512q18 18 39 15t34 -16 t16 -34t-15 -39l-512 -512q-18 -18 -39 -15t-34 16t-16 33.5zM460 -514.5q-3 20.5 15 39.5l1280 1280q16 14 36.5 14t37.5 -14l256 -256q18 -18 15 -39t-16 -34t-33.5 -16t-39.5 15l-219 221l-1243 -1245q-18 -18 -39 -15t-34 16t-16 33.5zM973 -512.5q0 20.5 14 37.5 l768 768q20 18 49 12q16 -4 25 -12l256 -256q14 -16 14 -37t-14 -37l-512 -512q-18 -18 -39 -15t-34 16t-16 33.5t15 39.5l242 239v369l-680 -682q-16 -14 -36.5 -14t-37.5 14q-14 16 -14 36.5z" />
<glyph unicode="&#x152;" d="M-52 -2.5q-3 20.5 15 39.5l733 731l-184 184l-475 -477q-18 -18 -39 -15t-34 16t-16 33.5t15 39.5l242 239v369l-168 -170q-18 -18 -39 -15t-34 16t-16 33.5t15 39.5l512 512q18 18 39 15t34 -16t16 -33.5t-15 -39.5l-221 -219l221 -219l256 -256q14 -16 14 -37t-14 -37 l-768 -768q-18 -18 -39 -15t-34 16t-16 33.5zM-52 -514.5q-3 20.5 15 39.5l1024 1024q4 4 8 5t9 5q10 8 28.5 3t28.5 -13l256 -256l475 -477l219 221q18 18 39 15t34 -16t16 -34t-15 -39l-512 -512q-18 -18 -39 -15t-34 16t-16 33.5t15 39.5l221 219l-389 389v-389 q0 -16 -8 -25l-6 -12l-256 -256q-18 -18 -39 -15t-34 16t-16 33.5t15 39.5l221 219l-184 184l-475 -477q-18 -18 -39 -15t-34 16t-16 33.5t15 39.5l498 495v369l-936 -938q-18 -18 -39 -15t-34 16t-16 33.5zM717 1279.5q0 20.5 14 37.5l256 256q18 18 39 15t34 -16t16 -33.5 t-15 -39.5l-221 -219l184 -184l475 477q18 18 39 15t34 -16t16 -33.5t-15 -39.5l-477 -475l184 -184l731 733q18 18 39 15t34 -16t16 -33.5t-15 -39.5l-733 -731l440 -440l219 221q18 18 39 15t34 -16t16 -34t-15 -39l-256 -256q-16 -14 -36.5 -14t-37.5 14l-1024 1024 q-14 16 -14 36.5zM1740 765.5q-3 20.5 15 39.5l256 256q18 18 39 15t34 -16t16 -34t-15 -39l-256 -256q-18 -18 -39 -15t-34 16t-16 33.5z" />
<glyph unicode="&#x153;" d="M-52 514q3 21 16 34t33.5 16t39.5 -15l168 -170v369l-242 239q-18 18 -15 39t16 34t33.5 16t39.5 -15l219 -221l184 184l-477 475q-18 18 -15 39t16 34t33.5 16t39.5 -15l987 -989l696 696l-221 219q-18 18 -15 39t16 34t33.5 16t39.5 -15l512 -512q18 -18 15 -39 t-16 -34t-33.5 -16t-39.5 15l-219 221l-731 -733q-16 -14 -36.5 -14t-37.5 14l-424 426v-369l242 -239q14 -16 14 -36.5t-14 -37.5l-477 -475l221 -219q18 -18 15 -39t-16 -34t-33.5 -16t-39.5 15l-512 512q-14 16 -14 36.5t14 37.5q16 14 36.5 14t37.5 -14l219 -221 l440 440l-184 184l-219 -221q-16 -14 -36.5 -14t-37.5 14l-256 256q-18 18 -15 39zM461 1535.5q0 20.5 14 37.5q16 14 36.5 14t37.5 -14l512 -512q14 -16 14 -37t-14 -37q-16 -14 -36.5 -14t-37.5 14l-512 512q-14 16 -14 36.5zM717 -256.5q0 20.5 14 37.5l1024 1024 q16 14 36.5 14t37.5 -14l256 -256q18 -18 15 -39t-16 -34t-33.5 -16t-39.5 15l-219 221l-696 -696l389 -389v389q0 8 5 19.5t9 17.5l256 256q16 14 36.5 14t37.5 -14l256 -256q18 -18 15 -39t-16 -34t-33.5 -16t-39.5 15l-219 221l-184 -184l477 -475q18 -18 15 -39t-16 -34 t-33.5 -16t-39.5 15l-219 221l-219 -221q-16 -14 -36.5 -14t-37.5 14l-475 477l-184 -184l221 -219q18 -18 15 -39t-16 -34t-33.5 -16t-39.5 15l-256 256q-14 16 -14 36.5zM973 1535.5q0 20.5 14 37.5q16 14 36.5 14t37.5 -14l256 -256q14 -16 14 -37t-14 -37 q-16 -14 -36.5 -14t-37.5 14l-256 256q-14 16 -14 36.5z" />
<glyph unicode="&#x192;" d="M-52 514q3 21 16 34t33.5 16t39.5 -15l256 -256q14 -16 14 -36.5t-14 -37.5l-221 -219l221 -219q18 -18 15 -39t-16 -34t-33.5 -16t-39.5 15l-256 256q-14 16 -14 36.5t14 37.5l221 219l-221 219q-18 18 -15 39zM-52 1021.5q-3 20.5 15 39.5l221 219l-221 219 q-18 18 -15 39t16 34t33.5 16t39.5 -15l219 -221l219 221q18 18 39 15t34 -16t16 -33.5t-15 -39.5l-221 -219l221 -219q4 -6 9 -17.5t5 -19.5v-389l389 389l-221 219q-18 18 -15 39t16 34t33.5 16t39.5 -15l219 -221l219 221q18 18 39 15t34 -16t16 -33.5t-15 -39.5 l-221 -219l221 -219q18 -18 15 -39t-16 -34t-33.5 -16t-39.5 15l-219 221l-184 -184l440 -440l205 204v492q0 18 14 37q12 16 36 14t38 -14l512 -512q18 -18 15 -39t-16 -34t-33.5 -16t-39.5 15l-219 221l-440 -440l221 -219q18 -18 15 -39t-16 -34t-33.5 -16t-39.5 15 l-219 221l-440 -440l221 -219q18 -18 15 -39t-16 -34t-33.5 -16t-39.5 15l-219 221l-219 -221q-18 -18 -39 -15t-34 16t-16 33.5t15 39.5l221 219l-221 219q-14 16 -14 36.5t14 37.5l221 219l-477 475q-14 16 -14 36.5t14 37.5l221 219l-184 184l-219 -221q-18 -18 -39 -15 t-34 16t-16 33.5zM584 512l221 -219q4 -6 9 -17.5t5 -19.5v-389l389 389l-440 440zM1228 -254q3 21 16 34t33.5 16t39.5 -15l219 -221l440 440l-221 219q-18 18 -15 39t16 34t33.5 16t39.5 -15l256 -256q14 -16 14 -37t-14 -37l-512 -512q-18 -14 -37 -14q-18 0 -37 14 l-256 256q-18 18 -15 39zM1485 1535.5q0 20.5 14 37.5q16 14 36.5 14t37.5 -14l512 -512q14 -16 14 -37t-14 -37q-16 -14 -36.5 -14t-37.5 14l-512 512q-14 16 -14 36.5z" />
<glyph unicode="&#x2c6;" horiz-adv-x="512" d="M-52 -2.5q-3 20.5 15 39.5l221 219l-221 219q-18 18 -15 39t16 34t33.5 16t39.5 -15l168 -170v369l-242 239q-14 16 -14 36.5t14 37.5l512 512q18 18 39 15t34 -16t16 -33.5t-15 -39.5l-477 -475l184 -184l219 221q25 25 57 10q31 -14 31 -47v-512q0 -6 -4 -18 q-2 -6 -38 -44t-89 -92.5t-116.5 -117t-120 -120t-100.5 -100.5t-58 -57q-18 -18 -39 -15t-34 16t-16 33.5zM-52 -514.5q-3 20.5 15 39.5l512 512q18 18 39 15t34 -16t16 -34t-15 -39l-512 -512q-18 -18 -39 -15t-34 16t-16 33.5z" />
<glyph unicode="&#x2c7;" horiz-adv-x="1024" d="M-52 1021.5q-3 20.5 15 39.5l512 512q18 18 39 15t34 -16t16 -34t-15 -39l-512 -512q-18 -18 -39 -15t-34 16t-16 33.5zM-51 -0.5q0 20.5 14 37.5q16 14 36.5 14t37.5 -14l512 -512q14 -16 14 -37t-14 -37q-16 -14 -36.5 -14t-37.5 14l-512 512q-14 16 -14 36.5z M-51 511.5q0 20.5 14 37.5l1024 1024q18 18 39 15t34 -16t16 -34t-15 -39l-1024 -1024q-16 -14 -36.5 -14t-37.5 14q-14 16 -14 36.5zM205 255.5q0 20.5 14 37.5l256 256q10 10 26.5 12t30.5 -2q6 -2 44 -38t92.5 -90t118 -117.5t120 -121t99.5 -100.5l55 -55q18 -18 15 -39 t-16 -34t-33.5 -16t-39.5 15l-424 426v-369l498 -495q14 -16 14 -37t-14 -37q-16 -14 -36.5 -14t-37.5 14l-768 768q-14 16 -14 36.5zM717 767.5q0 20.5 14 37.5l256 256q18 18 39 15t34 -16t16 -33.5t-15 -39.5l-221 -219l221 -219q18 -18 15 -39t-16 -34t-33.5 -16 t-39.5 15l-256 256q-14 16 -14 36.5z" />
<glyph unicode="&#x2d8;" horiz-adv-x="512" d="M-52 -2.5q-3 20.5 15 39.5l477 475l-221 219l-256 256q-14 16 -14 36.5t14 37.5l512 512q18 18 39 15t34 -16t16 -33.5t-15 -39.5l-477 -475l184 -184l219 221q25 25 57 10q31 -14 31 -47v-512q0 -16 -8 -25l-6 -12l-512 -512q-18 -18 -39 -15t-34 16t-16 33.5z M-52 -514.5q-3 20.5 15 39.5l512 512q18 18 39 15t34 -16t16 -34t-15 -39l-512 -512q-18 -18 -39 -15t-34 16t-16 33.5z" />
<glyph unicode="&#x2d9;" horiz-adv-x="1024" d="M-52 514q3 21 16 34t33.5 16t39.5 -15l424 -426v369l-242 239q-14 16 -14 36.5t14 37.5l242 239v369l-424 -426q-18 -18 -39 -15t-34 16t-16 33.5t15 39.5l512 512q4 4 8 5t9 5q12 6 29.5 3t27.5 -13l219 -221l219 221q18 18 39 15t34 -16t16 -33.5t-15 -39.5l-256 -256 l-477 -475l733 -731q18 -18 15 -39t-16 -34t-33.5 -16t-39.5 15l-168 170v-369l242 -239q18 -18 15 -39t-16 -34t-33.5 -16t-39.5 15l-1024 1024q-18 18 -15 39zM-51 -0.5q0 20.5 14 37.5q16 14 36.5 14t37.5 -14l512 -512q14 -16 14 -37t-14 -37q-16 -14 -36.5 -14 t-37.5 14l-512 512q-14 16 -14 36.5zM717 767.5q0 20.5 14 37.5l256 256q18 18 39 15t34 -16t16 -33.5t-15 -39.5l-221 -219l221 -219q18 -18 15 -39t-16 -34t-33.5 -16t-39.5 15l-256 256q-14 16 -14 36.5z" />
<glyph unicode="&#x2da;" d="M-52 -2.5q-3 20.5 15 39.5l754 751v492q0 16 8 25l6 12l256 256q18 18 39 15t34 -16t16 -33.5t-15 -39.5l-221 -219l184 -184l475 477q18 18 39 15t34 -16t16 -33.5t-15 -39.5l-221 -219l733 -731q18 -18 15 -39t-16 -34t-33.5 -16t-39.5 15l-731 733l-952 -952l221 -219 q14 -16 14 -36.5t-14 -37.5l-256 -256l-256 -256q-18 -18 -39 -15t-34 16t-16 33.5t15 39.5l242 239v369l-168 -170q-18 -18 -39 -15t-34 16t-16 33.5zM-52 509.5q-3 20.5 15 39.5l512 512q18 18 39 15t34 -16t16 -34t-15 -39l-512 -512q-18 -18 -39 -15t-34 16t-16 33.5z M-52 1021.5q-3 20.5 15 39.5l512 512q18 18 39 15t34 -16t16 -34t-15 -39l-512 -512q-18 -18 -39 -15t-34 16t-16 33.5zM460 -514.5q-3 20.5 15 39.5l754 751v369l-424 -426q-18 -18 -39 -15t-34 16t-16 33.5t15 39.5l512 512q23 18 43 12q23 -4 31 -12l768 -768 q18 -18 15 -39t-16 -34t-33.5 -16t-39.5 15l-475 477l-987 -989q-18 -18 -39 -15t-34 16t-16 33.5zM972 -514.5q-3 20.5 15 39.5l512 512q16 14 36.5 14t37.5 -14l512 -512q18 -18 15 -39t-16 -34t-33.5 -16t-39.5 15l-475 477l-475 -477q-18 -18 -39 -15t-34 16t-16 33.5z M1741 1279.5q0 20.5 14 37.5l256 256q18 18 39 15t34 -16t16 -33.5t-15 -39.5l-221 -219l221 -219q18 -18 15 -39t-16 -34t-33.5 -16t-39.5 15l-256 256q-14 16 -14 36.5z" />
<glyph unicode="&#x2db;" d="M-52 -2.5q-3 20.5 15 39.5l498 495v381l-424 -436q-18 -18 -39 -16t-34 15t-16 32.5t15 38.5l512 528q16 16 36.5 16.5t37.5 -16.5l221 -233l182 182l-221 219q-14 16 -14 36.5t14 37.5l256 256q18 18 39 15t34 -16t16 -33.5t-15 -39.5l-221 -219l184 -184l475 477 q18 18 39 15t34 -16t16 -33.5t-15 -39.5l-221 -219l184 -184l475 477q18 18 39 15t34 -16t16 -33.5t-15 -39.5l-498 -495v-369l424 426q18 18 39 15t34 -16t16 -34t-15 -39l-512 -512q-4 -4 -8 -5t-9 -5q-33 -14 -57 10l-219 221l-184 -184l221 -219q14 -16 14 -36.5 t-14 -37.5l-768 -768q-18 -14 -37 -14q-18 0 -37 14l-256 256q-14 16 -14 36.5t14 37.5l477 475l-184 184l-475 -477q-18 -18 -39 -15t-34 16t-16 33.5zM-52 1021.5q-3 20.5 15 39.5l221 219l-221 219q-18 18 -15 39t16 34t33.5 16t39.5 -15l256 -256q14 -16 14 -37t-14 -37 l-256 -256q-18 -18 -39 -15t-34 16t-16 33.5zM328 -256l184 -184l696 696l-184 184zM819 379l410 409v369l-410 -409v-369zM972 -514.5q-3 20.5 15 39.5l512 512q16 14 36.5 14t37.5 -14l512 -512q18 -18 15 -39t-16 -34t-33.5 -16t-39.5 15l-219 221l-219 -221 q-18 -18 -39 -15t-34 16t-16 33.5t15 39.5l221 219l-184 184l-475 -477q-18 -18 -39 -15t-34 16t-16 33.5zM1741 255.5q0 20.5 14 37.5l256 256q18 18 39 15t34 -16t16 -33.5t-15 -39.5l-221 -219l221 -219q18 -18 15 -39t-16 -34t-33.5 -16t-39.5 15l-256 256 q-14 16 -14 36.5z" />
<glyph unicode="&#x2dc;" d="M-52 -2.5q-3 20.5 15 39.5l221 219l-221 219q-18 18 -15 39t16 34t33.5 16t39.5 -15l256 -256q14 -16 14 -37t-14 -37l-256 -256q-18 -18 -39 -15t-34 16t-16 33.5zM-52 1026q3 21 16 34t33.5 16t39.5 -15l168 -170v369l-242 239q-18 18 -15 39t16 34t33.5 16t39.5 -15 l987 -989l731 733q16 14 36.5 14t37.5 -14l256 -256q18 -18 15 -39t-16 -34t-33.5 -16t-39.5 15l-219 221l-184 -184l477 -475q18 -18 15 -39t-16 -34t-33.5 -16t-39.5 15l-424 426v-369l498 -495q18 -18 15 -39t-16 -34t-33.5 -16t-39.5 15l-475 477l-184 -184l221 -219 q14 -16 14 -36.5t-14 -37.5l-512 -512q-18 -14 -37 -14q-18 0 -37 14l-475 477l-184 -184l221 -219q18 -18 15 -39t-16 -34t-33.5 -16t-39.5 15l-256 256q-14 16 -14 36.5t14 37.5l256 256q16 14 36.5 14t37.5 -14l475 -477l440 440l-221 219q-6 6 -10 17.5t-4 19.5v389 l-154 -153v-492q0 -35 -31.5 -47t-56.5 10l-256 256l-768 768q-18 18 -15 39zM461 1535.5q0 20.5 14 37.5q16 14 36.5 14t37.5 -14l256 -256q14 -16 14 -37t-14 -37q-16 -14 -36.5 -14t-37.5 14l-256 256q-14 16 -14 36.5zM563 532l154 -153v369l-154 153v-369zM972 1021.5 q-3 20.5 15 39.5l512 512q18 18 39 15t34 -16t16 -34t-15 -39l-512 -512q-18 -18 -39 -15t-34 16t-16 33.5zM1484 -514.5q-3 20.5 15 39.5l256 256q16 14 36.5 14t37.5 -14l256 -256q18 -18 15 -39t-16 -34t-33.5 -16t-39.5 15l-219 221l-219 -221q-18 -18 -39 -15t-34 16 t-16 33.5z" />
<glyph unicode="&#x2dd;" d="M-52 -2.5q-3 20.5 15 39.5l498 495v492q0 8 4 19.5t10 17.5l512 512q18 18 39 15t34 -16t16 -34t-15 -39l-477 -475l221 -219q14 -16 14 -36.5t-14 -37.5l-256 -256l-512 -512q-18 -18 -39 -15t-34 16t-16 33.5zM-52 509.5q-3 20.5 15 39.5l256 256q18 18 39 15t34 -16 t16 -34t-15 -39l-256 -256q-18 -18 -39 -15t-34 16t-16 33.5zM-52 -514.5q-3 20.5 15 39.5l1245 1243l-221 219q-14 16 -14 36.5t14 37.5l512 512q18 18 39 15t34 -16t16 -33.5t-15 -39.5l-477 -475l440 -440l475 477q18 18 39 15t34 -16t16 -33.5t-15 -39.5l-498 -495v-369 l424 426q18 18 39 15t34 -16t16 -34t-15 -39l-512 -512q-4 -4 -8 -5t-9 -5q-14 -6 -30.5 -3t-26.5 13l-219 221l-731 -733q-18 -18 -39 -15t-34 16t-16 33.5t15 39.5l754 751v369l-1192 -1194q-18 -18 -39 -15t-34 16t-16 33.5zM-52 1021.5q-3 20.5 15 39.5l512 512 q18 18 39 15t34 -16t16 -34t-15 -39l-512 -512q-18 -18 -39 -15t-34 16t-16 33.5zM972 -514.5q-3 20.5 15 39.5l256 256q18 18 39 15t34 -16t16 -34t-15 -39l-256 -256q-18 -18 -39 -15t-34 16t-16 33.5zM1484 -514.5q-3 20.5 15 39.5l512 512q18 18 39 15t34 -16t16 -34 t-15 -39l-512 -512q-18 -18 -39 -15t-34 16t-16 33.5zM1484 1021.5q-3 20.5 15 39.5l512 512q18 18 39 15t34 -16t16 -34t-15 -39l-512 -512q-18 -18 -39 -15t-34 16t-16 33.5z" />
<glyph unicode="&#x3a9;" d="M-52 -2.5q-3 20.5 15 39.5l256 256q18 18 39 15t34 -16t16 -34t-15 -39l-256 -256q-18 -18 -39 -15t-34 16t-16 33.5zM-52 509.5q-3 20.5 15 39.5l221 219l-221 219q-14 16 -14 36.5t14 37.5l512 512q18 18 39 15t34 -16t16 -33.5t-15 -39.5l-477 -475l184 -184l731 733 q25 23 56.5 10.5t31.5 -47.5v-389l424 426q16 14 36.5 14t37.5 -14l512 -512q14 -16 14 -36.5t-14 -37.5l-512 -512q-18 -18 -39 -15t-34 16t-16 33.5t15 39.5l477 475l-184 184l-717 -716v-369l168 170q18 18 39 15t34 -16t16 -33.5t-15 -39.5l-221 -219l184 -184l475 477 q18 18 39 15t34 -16t16 -33.5t-15 -39.5l-477 -475l184 -184l475 477q18 18 39 15t34 -16t16 -34t-15 -39l-512 -512q-16 -14 -36.5 -14t-37.5 14l-219 221l-219 -221q-18 -18 -39 -15t-34 16t-16 33.5t15 39.5l221 219l-184 184l-475 -477q-18 -18 -39 -15t-34 16t-16 33.5 t15 39.5l242 239v369l-680 -682q-18 -18 -39 -15t-34 16t-16 33.5t15 39.5l733 731l-440 440l-219 -221q-18 -18 -39 -15t-34 16t-16 33.5zM328 768l184 -184l205 204v369zM584 512l184 -184l952 952l-184 184z" />
<glyph unicode="&#x3c0;" d="M-52 2q3 21 16 34t33.5 16t39.5 -15l168 -170v369l-242 239q-18 18 -15 39t16 34t33.5 16t39.5 -15l219 -221l184 184l-477 475q-18 18 -15 39t16 34t33.5 16t39.5 -15l512 -512q4 -6 9 -17.5t5 -19.5v-389l168 170q16 14 36.5 14t37.5 -14l768 -768q18 -18 15 -39 t-16 -34t-33.5 -16t-39.5 15l-731 733l-475 -477l-256 -256q-18 -18 -39 -15t-34 16t-16 33.5t15 39.5l221 219l-221 219q-18 18 -15 39zM-51 1535.5q0 20.5 14 37.5q16 14 36.5 14t37.5 -14l424 -426v389q0 35 31.5 47t56.5 -10l256 -256l475 -477l731 733q18 18 39 15 t34 -16t16 -33.5t-15 -39.5l-733 -731l733 -731q18 -18 15 -39t-16 -34t-33.5 -16t-39.5 15l-1192 1194v-369l1266 -1263q18 -18 15 -39t-16 -34t-33.5 -16t-39.5 15l-1280 1280l-768 768q-14 16 -14 36.5zM460 -514.5q-3 20.5 15 39.5l256 256q16 14 36.5 14t37.5 -14 l256 -256q18 -18 15 -39t-16 -34t-33.5 -16t-39.5 15l-219 221l-219 -221q-18 -18 -39 -15t-34 16t-16 33.5zM972 1538q3 21 16 34t33.5 16t39.5 -15l219 -221l219 221q18 18 39 15t34 -16t16 -34t-15 -39l-256 -256q-18 -14 -37 -14q-18 0 -37 14l-256 256q-18 18 -15 39z M1741 767.5q0 20.5 14 37.5l256 256q18 18 39 15t34 -16t16 -33.5t-15 -39.5l-221 -219l221 -219q18 -18 15 -39t-16 -34t-33.5 -16t-39.5 15l-256 256q-14 16 -14 36.5z" />
<glyph unicode="&#x2000;" horiz-adv-x="1024" />
<glyph unicode="&#x2001;" />
<glyph unicode="&#x2002;" horiz-adv-x="1024" />
<glyph unicode="&#x2003;" />
<glyph unicode="&#x2013;" horiz-adv-x="512" d="M-52 -514.5q-3 20.5 15 39.5l242 239v492q0 16 8 25l6 12l256 256q18 18 39 15t34 -16t16 -33.5t-15 -39.5l-221 -219l221 -219q14 -16 14 -37t-14 -37l-256 -256l-256 -256q-18 -18 -39 -15t-34 16t-16 33.5zM-51 512v512q0 8 5 19.5t9 17.5l512 512q18 18 39 15t34 -16 t16 -34t-15 -39l-477 -475l221 -219q14 -16 14 -36.5t-14 -37.5l-256 -256q-20 -18 -44 -14t-36 26q-8 8 -8 25z" />
<glyph unicode="&#x2014;" horiz-adv-x="512" d="M-52 514q3 21 16 34t33.5 16t39.5 -15l256 -256l6 -12q8 -8 8 -25v-492l242 -239q18 -18 15 -39t-16 -34t-33.5 -16t-39.5 15l-256 256l-256 256q-14 16 -14 36.5t14 37.5l221 219l-221 219q-18 18 -15 39zM-52 1538q3 21 16 34t33.5 16t39.5 -15l512 -512q4 -6 9 -17.5 t5 -19.5v-512q0 -16 -8 -25q-12 -23 -35.5 -26.5t-44.5 14.5l-256 256q-14 16 -14 36.5t14 37.5l221 219l-477 475q-18 18 -15 39z" />
<glyph unicode="&#x2018;" d="M-52 514q3 21 16 34t33.5 16t39.5 -15l475 -477l461 460v472l-498 495q-18 18 -15 39t16 34t33.5 16t39.5 -15l475 -477l184 184l-221 219q-18 18 -15 39t16 34t33.5 16t39.5 -15l256 -256l6 -12q8 -8 8 -25v-389l389 389l-221 219q-18 18 -15 39t16 34t33.5 16t39.5 -15 l219 -221l219 221q18 18 39 15t34 -16t16 -33.5t-15 -39.5l-221 -219l221 -219q18 -18 15 -39t-16 -34t-33.5 -16t-39.5 15l-219 221l-440 -440l733 -731q18 -18 15 -39t-16 -34t-33.5 -16t-39.5 15l-680 682v-369l754 -751q18 -18 15 -39t-16 -34t-33.5 -16t-39.5 15 l-731 733l-184 -184l477 -475q18 -18 15 -39t-16 -34t-33.5 -16t-39.5 15l-512 512q-6 6 -10 17.5t-4 19.5v389l-389 -389l477 -475q18 -18 15 -39t-16 -34t-33.5 -16t-39.5 15l-475 477l-475 -477q-18 -18 -39 -15t-34 16t-16 33.5t15 39.5l477 475l-477 475q-18 18 -15 39 zM-51 1023.5q0 20.5 14 37.5q16 14 36.5 14t37.5 -14l512 -512q14 -16 14 -37t-14 -37q-16 -14 -36.5 -14t-37.5 14l-512 512q-14 16 -14 36.5zM-51 1535.5q0 20.5 14 37.5q16 14 36.5 14t37.5 -14l768 -768q14 -16 14 -37t-14 -37q-16 -14 -36.5 -14t-37.5 14l-768 768 q-14 16 -14 36.5zM1741 767.5q0 20.5 14 37.5q16 14 36.5 14t37.5 -14l256 -256q14 -16 14 -37t-14 -37q-16 -14 -36.5 -14t-37.5 14l-256 256q-14 16 -14 36.5z" />
<glyph unicode="&#x2019;" d="M-52 -2.5q-3 20.5 15 39.5l733 731l-733 731q-18 18 -15 39t16 34t33.5 16t39.5 -15l731 -733l731 733q18 18 39 15t34 -16t16 -33.5t-15 -39.5l-477 -475l184 -184l731 733q18 18 39 15t34 -16t16 -33.5t-15 -39.5l-754 -751v-472l754 -751q18 -18 15 -39t-16 -34 t-33.5 -16t-39.5 15l-680 682v-369l242 -239q18 -18 15 -39t-16 -34t-33.5 -16t-39.5 15l-475 477l-475 -477q-18 -18 -39 -15t-34 16t-16 33.5t15 39.5l498 495v369l-936 -938q-18 -18 -39 -15t-34 16t-16 33.5t15 39.5l1010 1007v369l-936 -938q-18 -18 -39 -15t-34 16 t-16 33.5zM-52 509.5q-3 20.5 15 39.5l221 219l-221 219q-18 18 -15 39t16 34t33.5 16t39.5 -15l256 -256q14 -16 14 -37t-14 -37l-256 -256q-18 -18 -39 -15t-34 16t-16 33.5zM460 1538q3 21 16 34t33.5 16t39.5 -15l219 -221l219 221q18 18 39 15t34 -16t16 -34t-15 -39 l-256 -256q-18 -14 -37 -14q-18 0 -37 14l-256 256q-18 18 -15 39zM1485 511.5q0 20.5 14 37.5l512 512q18 18 39 15t34 -16t16 -33.5t-15 -39.5l-477 -475l477 -475q18 -18 15 -39t-16 -34t-33.5 -16t-39.5 15l-512 512q-14 16 -14 36.5z" />
<glyph unicode="&#x201a;" horiz-adv-x="1024" d="M-52 -2.5q-3 20.5 15 39.5l221 219l-221 219q-18 18 -15 39t16 34t33.5 16t39.5 -15l256 -256q14 -16 14 -37t-14 -37l-256 -256q-18 -18 -39 -15t-34 16t-16 33.5zM-52 -514.5q-3 20.5 15 39.5l512 512q20 18 49 12q16 -4 25 -12l256 -256q14 -16 14 -37t-14 -37 l-256 -256q-25 -23 -56.5 -10.5t-31.5 47.5v389l-424 -426q-18 -18 -39 -15t-34 16t-16 33.5zM-51 1023.5q0 20.5 14 37.5q16 14 36.5 14t37.5 -14l1024 -1024q14 -16 14 -37t-14 -37q-16 -14 -36.5 -14t-37.5 14l-1024 1024q-14 16 -14 36.5zM205 1279.5q0 20.5 14 37.5 l256 256q18 18 39 15t34 -16t16 -33.5t-15 -39.5l-221 -219l184 -184l475 477q16 14 36.5 14t37.5 -14q14 -16 14 -37t-14 -37l-512 -512q-16 -14 -36.5 -14t-37.5 14l-256 256q-14 16 -14 36.5zM717 767.5q0 20.5 14 37.5l256 256q25 23 56.5 10.5t31.5 -47.5v-512 q0 -35 -31.5 -47t-56.5 10l-256 256q-14 16 -14 36.5z" />
<glyph unicode="&#x201c;" d="M-52 -2.5q-3 20.5 15 39.5l498 495v472l-498 495q-18 18 -15 39t16 34t33.5 16t39.5 -15l475 -477l184 184l-221 219q-18 18 -15 39t16 34t33.5 16t39.5 -15l256 -256l6 -12q8 -8 8 -25v-492l461 -460l184 184l-477 475q-14 16 -14 36.5t14 37.5l512 512q18 18 39 15 t34 -16t16 -33.5t-15 -39.5l-477 -475l184 -184l731 733q18 18 39 15t34 -16t16 -33.5t-15 -39.5l-733 -731l184 -184l475 477q18 18 39 15t34 -16t16 -33.5t-15 -39.5l-498 -495v-472l498 -495q18 -18 15 -39t-16 -34t-33.5 -16t-39.5 15l-475 477l-184 -184l221 -219 q18 -18 15 -39t-16 -34t-33.5 -16t-39.5 15l-256 256l-6 12q-8 8 -8 25v492l-410 409v-389q0 -18 -14 -37l-256 -256l-512 -512q-18 -18 -39 -15t-34 16t-16 33.5t15 39.5l498 495v369l-424 -426q-18 -18 -39 -15t-34 16t-16 33.5zM-51 1023.5q0 20.5 14 37.5q16 14 36.5 14 t37.5 -14l256 -256q14 -16 14 -37t-14 -37q-16 -14 -36.5 -14t-37.5 14l-256 256q-14 16 -14 36.5zM460 -514.5q-3 20.5 15 39.5l512 512q18 18 39 15t34 -16t16 -34t-15 -39l-512 -512q-18 -18 -39 -15t-34 16t-16 33.5zM1741 255.5q0 20.5 14 37.5q16 14 36.5 14t37.5 -14 l256 -256q14 -16 14 -37t-14 -37q-16 -14 -36.5 -14t-37.5 14l-256 256q-14 16 -14 36.5z" />
<glyph unicode="&#x201d;" d="M-52 -2.5q-3 20.5 15 39.5l477 475l-184 184l-219 -221q-18 -18 -39 -15t-34 16t-16 33.5t15 39.5l242 239v369l-168 -170q-18 -18 -39 -15t-34 16t-16 33.5t15 39.5l512 512q16 14 36.5 14t37.5 -14l512 -512q14 -16 14 -37t-14 -37l-256 -256q-16 -14 -36.5 -14 t-37.5 14l-168 170v-389q0 -8 -5 -19.5t-9 -17.5l-512 -512q-18 -18 -39 -15t-34 16t-16 33.5zM205 -256.5q0 20.5 14 37.5l256 256q16 14 36.5 14t37.5 -14l219 -221l205 204v369l-168 -170q-18 -18 -39 -15t-34 16t-16 33.5t15 39.5l733 731l-477 475q-18 18 -15 39t16 34 t33.5 16t39.5 -15l219 -221l219 221q16 14 36.5 14t37.5 -14l219 -221l219 221q18 18 39 15t34 -16t16 -33.5t-15 -39.5l-256 -256q-16 -14 -36.5 -14t-37.5 14l-219 221l-184 -184l221 -219q14 -16 14 -36.5t-14 -37.5l-221 -219l184 -184l219 221q16 14 36.5 14t37.5 -14 l256 -256q18 -18 15 -39t-16 -34t-33.5 -16t-39.5 15l-219 221l-219 -221q-16 -14 -36.5 -14t-37.5 14l-168 170v-369l205 -204l219 221q16 14 36.5 14t37.5 -14l256 -256q18 -18 15 -39t-16 -34t-33.5 -16t-39.5 15l-219 221l-184 -184l477 -475q18 -18 15 -39t-16 -34 t-33.5 -16t-39.5 15l-680 682v-389q0 -8 -5 -19.5t-9 -17.5l-256 -256q-18 -18 -39 -15t-34 16t-16 33.5t15 39.5l221 219l-184 184l-219 -221q-16 -14 -36.5 -14t-37.5 14l-219 221l-184 -184l221 -219q18 -18 15 -39t-16 -34t-33.5 -16t-39.5 15l-256 256q-14 16 -14 36.5 zM328 1280l440 -440l184 184l-440 440z" />
<glyph unicode="&#x201e;" d="M-52 2q3 21 16 34t33.5 16t39.5 -15l475 -477l219 221q16 14 36.5 14t37.5 -14l168 -170v369l-205 204l-219 -221q-16 -14 -36.5 -14t-37.5 14l-512 512q-18 18 -15 39t16 34t33.5 16t39.5 -15l475 -477l184 184l-733 731q-18 18 -15 39t16 34t33.5 16t39.5 -15l424 -426 v369l-498 495q-18 18 -15 39t16 34t33.5 16t39.5 -15l475 -477l219 221q16 14 36.5 14t37.5 -14l475 -477l219 221q18 18 39 15t34 -16t16 -33.5t-15 -39.5l-256 -256q-18 -14 -37 -14q-18 0 -37 14l-424 426v-369l461 -460l219 221q16 14 36.5 14t37.5 -14l219 -221 l219 221q18 18 39 15t34 -16t16 -34t-15 -39l-256 -256q-16 -14 -36.5 -14t-37.5 14l-219 221l-205 -204v-369l168 170q18 18 39 15t34 -16t16 -33.5t-15 -39.5l-256 -256l-256 -256q-16 -14 -36.5 -14t-37.5 14l-219 221l-219 -221q-16 -14 -36.5 -14t-37.5 14l-512 512 q-18 18 -15 39zM584 512l440 -440l184 184l-440 440zM972 1538q3 21 16 34t33.5 16t39.5 -15l219 -221l219 221q16 14 36.5 14t37.5 -14l219 -221l219 221q18 18 39 15t34 -16t16 -34t-15 -39l-256 -256q-16 -14 -36.5 -14t-37.5 14l-219 221l-219 -221q-16 -14 -36.5 -14 t-37.5 14l-256 256q-18 18 -15 39zM1740 -258.5q-3 20.5 15 39.5l256 256q18 18 39 15t34 -16t16 -34t-15 -39l-256 -256q-18 -18 -39 -15t-34 16t-16 33.5zM1740 765.5q-3 20.5 15 39.5l256 256q18 18 39 15t34 -16t16 -34t-15 -39l-256 -256q-18 -18 -39 -15t-34 16 t-16 33.5z" />
<glyph unicode="&#x2020;" horiz-adv-x="1024" d="M-52 509.5q-3 20.5 15 39.5l221 219l-221 219q-18 18 -15 39t16 34t33.5 16t39.5 -15l256 -256q14 -16 14 -37t-14 -37l-256 -256q-18 -18 -39 -15t-34 16t-16 33.5zM-52 1538q3 21 16 34t33.5 16t39.5 -15l768 -768q14 -16 14 -37t-14 -37l-256 -256l-477 -475l477 -475 q18 -18 15 -39t-16 -34t-33.5 -16t-39.5 15l-512 512q-14 16 -14 36.5t14 37.5l498 495v472l-498 495q-18 18 -15 39zM461 -0.5q0 20.5 14 37.5l512 512q18 18 39 15t34 -16t16 -33.5t-15 -39.5l-242 -239v-472l242 -239q18 -18 15 -39t-16 -34t-33.5 -16t-39.5 15l-512 512 q-14 16 -14 36.5zM461 1535.5q0 20.5 14 37.5q16 14 36.5 14t37.5 -14l512 -512q14 -16 14 -37t-14 -37q-16 -14 -36.5 -14t-37.5 14l-512 512q-14 16 -14 36.5z" />
<glyph unicode="&#x2021;" d="M-52 -2.5q-3 20.5 15 39.5l242 239v369l-168 -170q-18 -18 -39 -15t-34 16t-16 33.5t15 39.5l221 219l-221 219q-18 18 -15 39t16 34t33.5 16t39.5 -15l256 -256l475 -477l219 221q18 18 39 15t34 -16t16 -33.5t-15 -39.5l-221 -219l184 -184l205 204v472l-461 460 l-184 -184l221 -219q18 -18 15 -39t-16 -34t-33.5 -16t-39.5 15l-512 512q-14 16 -14 36.5t14 37.5q16 14 36.5 14t37.5 -14l219 -221l184 184l-221 219q-18 18 -15 39t16 34t33.5 16t39.5 -15l219 -221l219 221q18 18 39 15t34 -16t16 -33.5t-15 -39.5l-221 -219l184 -184 l475 477q16 14 36.5 14t37.5 -14l512 -512q18 -18 15 -39t-16 -34t-33.5 -16t-39.5 15l-475 477l-184 -184l221 -219q18 -18 15 -39t-16 -34t-33.5 -16t-39.5 15l-219 221l-184 -184l440 -440l219 221q18 18 39 15t34 -16t16 -33.5t-15 -39.5l-242 -239v-472l205 -204 l219 221q18 18 39 15t34 -16t16 -33.5t-15 -39.5l-221 -219l221 -219q18 -18 15 -39t-16 -34t-33.5 -16t-39.5 15l-219 221l-219 -221q-18 -18 -39 -15t-34 16t-16 33.5t15 39.5l221 219l-184 184l-219 -221q-16 -14 -36.5 -14t-37.5 14l-219 221l-219 -221q-18 -18 -39 -15 t-34 16t-16 33.5t15 39.5l221 219l-184 184l-219 -221q-18 -18 -39 -15t-34 16t-16 33.5t15 39.5l221 219l-184 184l-475 -477q-18 -18 -39 -15t-34 16t-16 33.5zM205 -256.5q0 20.5 14 37.5q16 14 36.5 14t37.5 -14l256 -256q14 -16 14 -37t-14 -37q-16 -14 -36.5 -14 t-37.5 14l-256 256q-14 16 -14 36.5zM1096 0l133 -133v266zM1740 253.5q-3 20.5 15 39.5l256 256q18 18 39 15t34 -16t16 -34t-15 -39l-256 -256q-18 -18 -39 -15t-34 16t-16 33.5z" />
<glyph unicode="&#x2022;" horiz-adv-x="1024" d="M-52 -2.5q-3 20.5 15 39.5l256 256q16 14 36.5 14t37.5 -14l219 -221l475 477q18 18 39 15t34 -16t16 -33.5t-15 -39.5l-498 -495v-369l424 426q18 18 39 15t34 -16t16 -34t-15 -39l-512 -512q-4 -4 -8 -5t-9 -5q-14 -6 -30.5 -3t-26.5 13l-219 221l-219 -221 q-18 -18 -39 -15t-34 16t-16 33.5t15 39.5l242 239v369l-168 -170q-18 -18 -39 -15t-34 16t-16 33.5zM-52 509.5q-3 20.5 15 39.5l498 495v369l-424 -426q-18 -18 -39 -15t-34 16t-16 33.5t15 39.5l512 512q4 4 8 5t9 5q12 6 29.5 3t27.5 -13l219 -221l219 221q18 18 39 15 t34 -16t16 -33.5t-15 -39.5l-242 -239v-369l168 170q18 18 39 15t34 -16t16 -34t-15 -39l-256 -256q-16 -14 -36.5 -14t-37.5 14l-219 221l-475 -477q-18 -18 -39 -15t-34 16t-16 33.5z" />
<glyph unicode="&#x2026;" horiz-adv-x="1024" d="M-52 -2.5q-3 20.5 15 39.5l242 239v369l-168 -170q-18 -18 -39 -15t-34 16t-16 33.5t15 39.5l477 475l-184 184l-219 -221q-18 -18 -39 -15t-34 16t-16 33.5t15 39.5l512 512q16 14 36.5 14t37.5 -14l512 -512q14 -16 14 -36.5t-14 -37.5l-498 -495v-369l424 426 q18 18 39 15t34 -16t16 -34t-15 -39l-1024 -1024q-18 -18 -39 -15t-34 16t-16 33.5t15 39.5l477 475l-184 184l-219 -221q-18 -18 -39 -15t-34 16t-16 33.5zM328 1280l221 -219q4 -6 9 -17.5t5 -19.5v-389l389 389l-440 440zM717 -256.5q0 20.5 14 37.5l256 256q18 18 39 15 t34 -16t16 -33.5t-15 -39.5l-221 -219l221 -219q18 -18 15 -39t-16 -34t-33.5 -16t-39.5 15l-256 256q-14 16 -14 36.5z" />
<glyph unicode="&#x2030;" horiz-adv-x="1024" d="M-52 -2.5q-3 20.5 15 39.5l733 731l-440 440l-219 -221q-18 -18 -39 -15t-34 16t-16 33.5t15 39.5l256 256q16 14 36.5 14t37.5 -14l219 -221l184 184l-221 219q-18 18 -15 39t16 34t33.5 16t39.5 -15l512 -512q23 -25 10.5 -56.5t-47.5 -31.5q-18 0 -37 14l-219 221 l-184 -184l221 -219q4 -6 9 -17.5t5 -19.5v-389l168 170q18 18 39 15t34 -16t16 -33.5t-15 -39.5l-221 -219l221 -219q18 -18 15 -39t-16 -34t-33.5 -16t-39.5 15l-475 477l-475 -477q-18 -18 -39 -15t-34 16t-16 33.5zM-52 509.5q-3 20.5 15 39.5l256 256q18 18 39 15 t34 -16t16 -34t-15 -39l-256 -256q-18 -18 -39 -15t-34 16t-16 33.5zM-52 -514.5q-3 20.5 15 39.5l256 256q16 14 36.5 14t37.5 -14l256 -256q18 -18 15 -39t-16 -34t-33.5 -16t-39.5 15l-219 221l-219 -221q-18 -18 -39 -15t-34 16t-16 33.5zM461 -0.5q0 20.5 14 37.5 q16 14 36.5 14t37.5 -14l512 -512q14 -16 14 -37t-14 -37q-16 -14 -36.5 -14t-37.5 14l-512 512q-14 16 -14 36.5z" />
<glyph unicode="&#x2039;" d="M-52 2q3 21 16 34t33.5 16t39.5 -15l256 -256q14 -16 14 -37t-14 -37l-256 -256q-18 -18 -39 -15t-34 16t-16 33.5t15 39.5l221 219l-221 219q-18 18 -15 39zM-52 514q3 21 16 34t33.5 16t39.5 -15l987 -989l731 733q16 14 36.5 14t37.5 -14l256 -256q18 -18 15 -39 t-16 -34t-33.5 -16t-39.5 15l-219 221l-731 -733q-16 -14 -36.5 -14t-37.5 14l-1024 1024q-18 18 -15 39zM-52 1538q3 21 16 34t33.5 16t39.5 -15l256 -256q14 -16 14 -36.5t-14 -37.5l-221 -219l221 -219q18 -18 15 -39t-16 -34t-33.5 -16t-39.5 15l-256 256 q-14 16 -14 36.5t14 37.5l221 219l-221 219q-18 18 -15 39zM460 1538q3 21 16 34t33.5 16t39.5 -15l256 -256q14 -16 14 -36.5t-14 -37.5l-221 -219l221 -219q14 -16 14 -36.5t-14 -37.5l-221 -219l389 -389v389q0 8 4 19.5t10 17.5l221 219l-221 219q-14 16 -14 36.5 t14 37.5l221 219l-221 219q-18 18 -15 39t16 34t33.5 16t39.5 -15l256 -256q14 -16 14 -36.5t-14 -37.5l-221 -219l221 -219q14 -16 14 -36.5t-14 -37.5l-221 -219l221 -219q14 -16 14 -37t-14 -37l-256 -256q-16 -14 -36.5 -14t-37.5 14l-512 512q-6 6 -10 17.5t-4 19.5 v512q0 8 4 19.5t10 17.5l221 219l-221 219q-18 18 -15 39zM1484 -514.5q-3 20.5 15 39.5l256 256q18 18 39 15t34 -16t16 -34t-15 -39l-256 -256q-18 -18 -39 -15t-34 16t-16 33.5zM1484 1538q3 21 16 34t33.5 16t39.5 -15l256 -256q14 -16 14 -36.5t-14 -37.5l-221 -219 l477 -475q18 -18 15 -39t-16 -34t-33.5 -16t-39.5 15l-219 221l-219 -221q-25 -25 -57 -10q-31 14 -31 47v512q0 8 5 19.5t9 17.5l221 219l-221 219q-18 18 -15 39z" />
<glyph unicode="&#x203a;" d="M-52 -2.5q-3 20.5 15 39.5l256 256q16 14 36.5 14t37.5 -14l219 -221l219 221q16 14 36.5 14t37.5 -14l219 -221l440 440l-696 696l-219 -221q-16 -14 -36.5 -14t-37.5 14l-219 221l-219 -221q-18 -18 -39 -15t-34 16t-16 33.5t15 39.5l256 256q16 14 36.5 14t37.5 -14 l219 -221l475 477q18 18 39 15t34 -16t16 -33.5t-15 -39.5l-221 -219l952 -952l184 184l-733 731q-14 16 -14 36.5t14 37.5l256 256q18 18 39 15t34 -16t16 -33.5t-15 -39.5l-221 -219l733 -731q14 -16 14 -37t-14 -37l-1024 -1024q-18 -18 -39 -15t-34 16t-16 33.5t15 39.5 l498 495v369l-680 -682l-256 -256q-16 -14 -36.5 -14t-37.5 14l-219 221l-219 -221q-18 -18 -39 -15t-34 16t-16 33.5t15 39.5l256 256q16 14 36.5 14t37.5 -14l219 -221l205 204v369l-168 -170q-16 -14 -36.5 -14t-37.5 14l-219 221l-219 -221q-18 -18 -39 -15t-34 16 t-16 33.5zM-52 509.5q-3 20.5 15 39.5l256 256q16 14 36.5 14t37.5 -14l219 -221l219 221q16 14 36.5 14t37.5 -14l256 -256q18 -18 15 -39t-16 -34t-33.5 -16t-39.5 15l-219 221l-219 -221q-16 -14 -36.5 -14t-37.5 14l-219 221l-219 -221q-18 -18 -39 -15t-34 16t-16 33.5 zM1484 -514.5q-3 20.5 15 39.5l256 256q16 14 36.5 14t37.5 -14l256 -256q18 -18 15 -39t-16 -34t-33.5 -16t-39.5 15l-219 221l-219 -221q-18 -18 -39 -15t-34 16t-16 33.5zM1741 1279.5q0 20.5 14 37.5q16 14 36.5 14t37.5 -14l256 -256q14 -16 14 -37t-14 -37 q-16 -14 -36.5 -14t-37.5 14l-256 256q-14 16 -14 36.5z" />
<glyph unicode="&#x2044;" horiz-adv-x="512" d="M-52 -2.5q-3 20.5 15 39.5l256 256q16 14 36.5 14t37.5 -14l256 -256q14 -18 14 -37v-512q0 -10 -5 -19.5t-9 -17.5q-12 -16 -36 -14t-38 14l-219 221l-219 -221q-18 -18 -39 -15t-34 16t-16 33.5t15 39.5l242 239v369l-168 -170q-18 -18 -39 -15t-34 16t-16 33.5z M-51 1024v512q0 10 5 19.5t9 17.5q12 16 37 14t37 -14l219 -221l219 221q18 18 39 15t34 -16t16 -33.5t-15 -39.5l-242 -239v-369l168 170q18 18 39 15t34 -16t16 -34t-15 -39l-256 -256q-25 -25 -55 -10q-6 2 -10.5 4t-8.5 6l-256 256q-14 18 -14 37z" />
<glyph unicode="&#x20ac;" d="M-52 -2.5q-3 20.5 15 39.5l477 475l-477 475q-18 18 -15 39t16 34t33.5 16t39.5 -15l475 -477l219 221q16 14 36.5 14t37.5 -14l219 -221l731 733q16 14 36.5 14t37.5 -14l256 -256q14 -18 14 -37v-512q0 -8 -5 -19.5t-9 -17.5l-1024 -1024q-16 -14 -36.5 -14t-37.5 14 l-219 221l-219 -221q-18 -18 -39 -15t-34 16t-16 33.5t15 39.5l242 239v369l-680 -682q-18 -18 -39 -15t-34 16t-16 33.5t15 39.5l768 768q16 14 36.5 14t37.5 -14l219 -221l717 716v369l-680 -682q-16 -14 -36.5 -14t-37.5 14l-219 221l-731 -733q-18 -18 -39 -15t-34 16 t-16 33.5zM205 1279.5q0 20.5 14 37.5l256 256q18 18 39 15t34 -16t16 -33.5t-15 -39.5l-221 -219l184 -184l219 221q16 14 36.5 14t37.5 -14l219 -221l475 477q18 18 39 15t34 -16t16 -34t-15 -39l-512 -512q-16 -14 -36.5 -14t-37.5 14l-219 221l-219 -221 q-16 -14 -36.5 -14t-37.5 14l-256 256q-14 16 -14 36.5zM1075 -20v-369l901 901l-184 184zM1484 -514.5q-3 20.5 15 39.5l512 512q18 18 39 15t34 -16t16 -34t-15 -39l-512 -512q-18 -18 -39 -15t-34 16t-16 33.5z" />
<glyph unicode="&#x2122;" d="M-52 514q3 21 16 34t33.5 16t39.5 -15l424 -426v369l-498 495q-18 18 -15 39t16 34t33.5 16t39.5 -15l475 -477l461 460v369l-424 -426q-18 -18 -39 -15t-34 16t-16 33.5t15 39.5l512 512q23 18 43 12q18 0 31 -12l1024 -1024q18 -18 15 -39t-16 -34t-33.5 -16t-39.5 15 l-219 221l-475 -477q-18 -18 -39 -15t-34 16t-16 33.5t15 39.5l477 475l-389 389v-389q0 -8 -5 -19.5t-9 -17.5l-477 -475l440 -440l475 477q18 18 39 15t34 -16t16 -33.5t-15 -39.5l-477 -475l184 -184l475 477q18 18 39 15t34 -16t16 -34t-15 -39l-512 -512 q-18 -14 -37 -14q-18 0 -37 14l-680 682v-369l242 -239q18 -18 15 -39t-16 -34t-33.5 -16t-39.5 15l-219 221l-219 -221q-18 -18 -39 -15t-34 16t-16 33.5t15 39.5l221 219l-184 184l-475 -477q-18 -18 -39 -15t-34 16t-16 33.5t15 39.5l477 475l-477 475q-18 18 -15 39z M204 1277.5q-3 20.5 15 39.5l256 256q18 18 39 15t34 -16t16 -34t-15 -39l-256 -256q-18 -18 -39 -15t-34 16t-16 33.5zM584 512l184 -184l440 440l-184 184zM1485 1535.5q0 20.5 14 37.5q16 14 36.5 14t37.5 -14l512 -512q14 -16 14 -37t-14 -37q-16 -14 -36.5 -14 t-37.5 14l-512 512q-14 16 -14 36.5z" />
<glyph unicode="&#x2202;" d="M-52 -2.5q-3 20.5 15 39.5l477 475l-477 475q-18 18 -15 39t16 34t33.5 16t39.5 -15l768 -768q14 -16 14 -37t-14 -37l-768 -768q-18 -18 -39 -15t-34 16t-16 33.5t15 39.5l733 731l-184 184l-475 -477q-18 -18 -39 -15t-34 16t-16 33.5zM-52 1538q3 21 16 34t33.5 16 t39.5 -15l475 -477l475 477q18 18 39 15t34 -16t16 -34t-15 -39l-512 -512q-18 -14 -37 -14q-18 0 -37 14l-512 512q-18 18 -15 39zM461 -512.5q0 20.5 14 37.5l733 731l-477 475q-14 16 -14 36.5t14 37.5l512 512l256 256q16 14 36.5 14t37.5 -14l512 -512q18 -18 15 -39 t-16 -34t-33.5 -16t-39.5 15l-475 477l-184 -184l733 -731q18 -18 15 -39t-16 -34t-33.5 -16t-39.5 15l-680 682v-369l498 -495q14 -16 14 -36.5t-14 -37.5l-512 -512l-256 -256q-25 -23 -56.5 -10.5t-31.5 47.5v389l-424 -426q-16 -14 -36.5 -14t-37.5 14q-14 16 -14 36.5z M840 768l477 -475q4 -6 9 -17.5t5 -19.5v-389l389 389l-696 696zM1484 -514.5q-3 20.5 15 39.5l512 512q18 18 39 15t34 -16t16 -34t-15 -39l-512 -512q-18 -18 -39 -15t-34 16t-16 33.5z" />
<glyph unicode="&#x2206;" d="M-52 2q3 21 16 34t33.5 16t39.5 -15l168 -170v369l-242 239q-18 18 -15 39t16 34t33.5 16t39.5 -15l168 -170v369l-242 239q-18 18 -15 39t16 34t33.5 16t39.5 -15l219 -221l184 184l-477 475q-18 18 -15 39t16 34t33.5 16t39.5 -15l512 -512q4 -6 9 -17.5t5 -19.5v-389 l389 389l-477 475q-18 18 -15 39t16 34t33.5 16t39.5 -15l512 -512q14 -16 14 -36.5t-14 -37.5l-498 -495v-369l666 665v472l-242 239q-18 18 -15 39t16 34t33.5 16t39.5 -15l219 -221l219 221q14 12 38 14t36 -14q14 -18 14 -37v-389l424 426q18 18 39 15t34 -16t16 -34 t-15 -39l-512 -512l-1245 -1243l221 -219q18 -18 15 -39t-16 -34t-33.5 -16t-39.5 15l-512 512q-18 18 -15 39zM717 -256.5q0 20.5 14 37.5q16 14 36.5 14t37.5 -14l256 -256q14 -16 14 -37t-14 -37q-16 -14 -36.5 -14t-37.5 14l-256 256q-14 16 -14 36.5zM973 -0.5 q0 20.5 14 37.5l512 512q16 14 36.5 14t37.5 -14l512 -512q18 -18 15 -39t-16 -34t-33.5 -16t-39.5 15l-475 477l-440 -440l477 -475q18 -18 15 -39t-16 -34t-33.5 -16t-39.5 15l-512 512q-14 16 -14 36.5zM1485 -0.5q0 20.5 14 37.5q16 14 36.5 14t37.5 -14l512 -512 q14 -16 14 -37t-14 -37q-16 -14 -36.5 -14t-37.5 14l-512 512q-14 16 -14 36.5zM1741 767.5q0 20.5 14 37.5l256 256q18 18 39 15t34 -16t16 -33.5t-15 -39.5l-221 -219l221 -219q18 -18 15 -39t-16 -34t-33.5 -16t-39.5 15l-256 256q-14 16 -14 36.5z" />
<glyph unicode="&#x220f;" d="M-52 509.5q-3 20.5 15 39.5l221 219l-221 219q-14 16 -14 36.5t14 37.5l221 219l-221 219q-18 18 -15 39t16 34t33.5 16t39.5 -15l256 -256l512 -512q14 -16 14 -37t-14 -37l-768 -768q-16 -14 -36.5 -14t-37.5 14q-14 16 -14 36.5t14 37.5l733 731l-184 184l-475 -477 q-18 -18 -39 -15t-34 16t-16 33.5zM-52 -514.5q-3 20.5 15 39.5l1280 1280q16 14 36.5 14t37.5 -14l219 -221l475 477q18 18 39 15t34 -16t16 -33.5t-15 -39.5l-498 -495v-472l498 -495q18 -18 15 -39t-16 -34t-33.5 -16t-39.5 15l-731 733l-731 -733q-18 -18 -39 -15 t-34 16t-16 33.5t15 39.5l754 751v369l-1192 -1194q-18 -18 -39 -15t-34 16t-16 33.5zM460 1538q3 21 16 34t33.5 16t39.5 -15l219 -221l219 221q18 18 39 15t34 -16t16 -33.5t-15 -39.5l-221 -219l184 -184l475 477q18 18 39 15t34 -16t16 -34t-15 -39l-512 -512 q-18 -14 -37 -14q-18 0 -37 14l-512 512q-18 18 -15 39zM972 -514.5q-3 20.5 15 39.5l256 256q16 14 36.5 14t37.5 -14l256 -256q18 -18 15 -39t-16 -34t-33.5 -16t-39.5 15l-219 221l-219 -221q-18 -18 -39 -15t-34 16t-16 33.5zM1484 1021.5q-3 20.5 15 39.5l512 512 q18 18 39 15t34 -16t16 -34t-15 -39l-512 -512q-18 -18 -39 -15t-34 16t-16 33.5zM1741 255.5q0 20.5 14 37.5l256 256q18 18 39 15t34 -16t16 -33.5t-15 -39.5l-221 -219l221 -219q18 -18 15 -39t-16 -34t-33.5 -16t-39.5 15l-256 256q-14 16 -14 36.5z" />
<glyph unicode="&#x2211;" d="M-52 509.5q-3 20.5 15 39.5l221 219l-221 219q-14 16 -14 36.5t14 37.5l512 512q18 18 39 15t34 -16t16 -34t-15 -39l-477 -475l221 -219q14 -16 14 -36.5t-14 -37.5l-256 -256q-18 -18 -39 -15t-34 16t-16 33.5zM205 255.5q0 20.5 14 37.5l242 239v492q0 8 5 19.5 t9 17.5l512 512q18 18 39 15t34 -16t16 -33.5t-15 -39.5l-477 -475l184 -184l731 733q18 18 39 15t34 -16t16 -34t-15 -39l-1245 -1243l221 -219q18 -18 15 -39t-16 -34t-33.5 -16t-39.5 15l-256 256q-14 16 -14 36.5zM205 -256.5q0 20.5 14 37.5q16 14 36.5 14t37.5 -14 l256 -256q14 -16 14 -37t-14 -37q-16 -14 -36.5 -14t-37.5 14l-256 256q-14 16 -14 36.5zM717 -256v512q0 8 4 19.5t10 17.5l512 512q18 18 39 15t34 -16t16 -34t-15 -39l-477 -475l221 -219q14 -16 14 -36.5t-14 -37.5l-221 -219l221 -219q18 -18 15 -39t-16 -34t-33.5 -16 t-39.5 15l-256 256l-6 12q-8 8 -8 25zM1229 255.5q0 20.5 14 37.5l242 239v492q0 8 5 19.5t9 17.5l512 512q18 18 39 15t34 -16t16 -34t-15 -39l-477 -475l221 -219q14 -16 14 -36.5t-14 -37.5l-477 -475l221 -219q18 -18 15 -39t-16 -34t-33.5 -16t-39.5 15l-256 256 q-14 16 -14 36.5zM1229 -256.5q0 20.5 14 37.5q16 14 36.5 14t37.5 -14l256 -256q14 -16 14 -37t-14 -37q-16 -14 -36.5 -14t-37.5 14l-256 256q-14 16 -14 36.5zM1741 255.5q0 20.5 14 37.5l256 256q18 18 39 15t34 -16t16 -33.5t-15 -39.5l-221 -219l221 -219 q14 -16 14 -36.5t-14 -37.5l-221 -219l221 -219q18 -18 15 -39t-16 -34t-33.5 -16t-39.5 15l-256 256q-14 16 -14 36.5t14 37.5l221 219l-221 219q-14 16 -14 36.5z" />
<glyph unicode="&#x221a;" d="M-52 2q3 21 16 34t33.5 16t39.5 -15l168 -170v369l-242 239q-18 18 -15 39t16 34t33.5 16t39.5 -15l475 -477l696 696l-184 184l-475 -477q-18 -14 -37 -14q-18 0 -37 14l-256 256l-256 256q-18 18 -15 39t16 34t33.5 16t39.5 -15l219 -221l184 184l-477 475 q-18 18 -15 39t16 34t33.5 16t39.5 -15l475 -477l219 221q18 18 39 15t34 -16t16 -33.5t-15 -39.5l-242 -239v-369l936 938q16 14 36.5 14t37.5 -14l256 -256q18 -18 15 -39t-16 -34t-33.5 -16t-39.5 15l-219 221l-440 -440l184 -184l219 221q16 14 36.5 14t37.5 -14 l512 -512q18 -18 15 -39t-16 -34t-33.5 -16t-39.5 15l-475 477l-205 -204v-369l168 170q18 18 39 15t34 -16t16 -33.5t-15 -39.5l-242 -239v-369l168 170q16 14 36.5 14t37.5 -14l512 -512q18 -18 15 -39t-16 -34t-33.5 -16t-39.5 15l-475 477l-475 -477q-18 -18 -39 -15 t-34 16t-16 33.5t15 39.5l221 219l-184 184l-475 -477q-18 -14 -37 -14q-18 0 -37 14l-512 512q-18 18 -15 39zM328 -256l184 -184l461 460v369zM1741 255.5q0 20.5 14 37.5q16 14 36.5 14t37.5 -14l256 -256q14 -16 14 -37t-14 -37q-16 -14 -36.5 -14t-37.5 14l-256 256 q-14 16 -14 36.5z" />
<glyph unicode="&#x221e;" d="M-52 -2.5q-3 20.5 15 39.5l512 512q18 18 39 15t34 -16t16 -34t-15 -39l-512 -512q-18 -18 -39 -15t-34 16t-16 33.5zM-52 509.5q-3 20.5 15 39.5l477 475l-221 219q-14 16 -14 36.5t14 37.5l256 256q18 18 39 15t34 -16t16 -33.5t-15 -39.5l-221 -219l221 -219 q14 -16 14 -37t-14 -37l-512 -512q-18 -18 -39 -15t-34 16t-16 33.5zM-52 -514.5q-3 20.5 15 39.5l754 751v492q0 8 5 19.5t9 17.5l768 768q18 18 39 15t34 -16t16 -33.5t-15 -39.5l-733 -731l440 -440l731 733q18 18 39 15t34 -16t16 -33.5t-15 -39.5l-733 -731l440 -440 l219 221q18 18 39 15t34 -16t16 -34t-15 -39l-256 -256q-16 -14 -36.5 -14t-37.5 14l-219 221l-475 -477q-18 -18 -39 -15t-34 16t-16 33.5t15 39.5l477 475l-440 440l-987 -989q-18 -18 -39 -15t-34 16t-16 33.5zM460 -514.5q-3 20.5 15 39.5l512 512q18 18 39 15t34 -16 t16 -34t-15 -39l-512 -512q-18 -18 -39 -15t-34 16t-16 33.5zM716 1277.5q-3 20.5 15 39.5l256 256q18 18 39 15t34 -16t16 -34t-15 -39l-256 -256q-18 -18 -39 -15t-34 16t-16 33.5zM1229 767.5q0 20.5 14 37.5l768 768q18 18 39 15t34 -16t16 -34t-15 -39l-768 -768 q-16 -14 -36.5 -14t-37.5 14q-14 16 -14 36.5zM1740 253.5q-3 20.5 15 39.5l256 256q18 18 39 15t34 -16t16 -34t-15 -39l-256 -256q-18 -18 -39 -15t-34 16t-16 33.5z" />
<glyph unicode="&#x222b;" d="M-52 2q3 21 16 34t33.5 16t39.5 -15l424 -426v369l-498 495q-18 18 -15 39t16 34t33.5 16t39.5 -15l475 -477l184 184l-733 731q-18 18 -15 39t16 34t33.5 16t39.5 -15l1280 -1280q14 -16 14 -37t-14 -37l-256 -256q-18 -18 -39 -15t-34 16t-16 33.5t15 39.5l221 219 l-389 389v-389q0 -18 -14 -37l-256 -256q-18 -14 -37 -14q-18 0 -37 14l-512 512q-18 18 -15 39zM-51 1535.5q0 20.5 14 37.5q16 14 36.5 14t37.5 -14l256 -256q14 -16 14 -37t-14 -37q-16 -14 -36.5 -14t-37.5 14l-256 256q-14 16 -14 36.5zM461 1023.5q0 20.5 14 37.5 l512 512q18 18 39 15t34 -16t16 -33.5t-15 -39.5l-477 -475l1501 -1499q18 -18 15 -39t-16 -34t-33.5 -16t-39.5 15l-1536 1536q-14 16 -14 36.5zM973 1023.5q0 20.5 14 37.5l256 256q16 14 36.5 14t37.5 -14l768 -768q14 -16 14 -36.5t-14 -37.5q-16 -14 -36.5 -14 t-37.5 14l-680 682v-369l754 -751q18 -18 15 -39t-16 -34t-33.5 -16t-39.5 15l-1024 1024q-14 16 -14 36.5zM1485 1535.5q0 20.5 14 37.5q16 14 36.5 14t37.5 -14l512 -512q14 -16 14 -37t-14 -37q-16 -14 -36.5 -14t-37.5 14l-512 512q-14 16 -14 36.5z" />
<glyph unicode="&#x2248;" d="M-52 2q3 21 16 34t33.5 16t39.5 -15l219 -221l184 184l-477 475q-14 18 -14 37v512q0 8 4 19.5t10 17.5l256 256q16 14 36.5 14t37.5 -14l1792 -1792q18 -18 15 -39t-16 -34t-33.5 -16t-39.5 15l-731 733l-184 -184l477 -475q18 -18 15 -39t-16 -34t-33.5 -16t-39.5 15 l-512 512q-14 16 -14 36.5t14 37.5l221 219l-184 184l-219 -221q-16 -14 -36.5 -14t-37.5 14l-424 426v-369l242 -239q14 -16 14 -36.5t-14 -37.5l-512 -512q-18 -18 -39 -15t-34 16t-16 33.5t15 39.5l221 219l-221 219q-18 18 -15 39zM72 1024l696 -696l184 184l-696 696z M460 -514.5q-3 20.5 15 39.5l256 256q16 14 36.5 14t37.5 -14l256 -256q18 -18 15 -39t-16 -34t-33.5 -16t-39.5 15l-219 221l-219 -221q-18 -18 -39 -15t-34 16t-16 33.5zM460 1538q3 21 16 34t33.5 16t39.5 -15l731 -733l190 192l-481 467q-18 18 -16 37.5t15 34 t32.5 17.5t38.5 -15l528 -512q16 -16 16.5 -36.5t-16.5 -37.5v-352l168 170q16 14 36.5 14t37.5 -14l256 -256q18 -18 15 -39t-16 -34t-33.5 -16t-39.5 15l-219 221l-184 -184l477 -475q18 -18 15 -39t-16 -34t-33.5 -16t-39.5 15l-512 512l-1024 1024q-18 18 -15 39z M1484 1538q3 21 16 34t33.5 16t39.5 -15l219 -221l219 221q18 18 39 15t34 -16t16 -34t-15 -39l-256 -256q-18 -14 -37 -14q-18 0 -37 14l-256 256q-18 18 -15 39z" />
<glyph unicode="&#x2260;" horiz-adv-x="512" d="M-52 -2.5q-3 20.5 15 39.5l221 219l-221 219q-18 18 -15 39t16 34t33.5 16t39.5 -15q14 -14 58 -57t100.5 -100.5t120 -120t116.5 -117t89 -92t38 -44.5q4 -12 4 -18v-512q0 -18 -14 -37q-12 -16 -36 -14t-38 14l-219 221l-219 -221q-18 -18 -39 -15t-34 16t-16 33.5 t15 39.5l242 239v369l-168 -170q-18 -18 -39 -15t-34 16t-16 33.5zM-52 1026q3 21 16 34t33.5 16t39.5 -15l168 -170v369l-242 239q-18 18 -15 39t16 34t33.5 16t39.5 -15l219 -221l219 221q18 18 39 15t34 -16t16 -33.5t-15 -39.5l-221 -219l221 -219q14 -18 14 -37v-512 q0 -29 -22.5 -43t-46.5 -4q-6 2 -44 38t-92.5 89t-117 116.5t-120 120t-100.5 100.5t-57 58q-18 18 -15 39z" />
<glyph unicode="&#x2264;" horiz-adv-x="512" d="M-51 511.5q0 20.5 14 37.5l242 239v492q0 12 8 25l6 12l256 256q18 18 39 15t34 -16t16 -33.5t-15 -39.5l-221 -219l221 -219q14 -16 14 -37t-14 -37l-477 -475l221 -219q18 -18 15 -39t-16 -34t-33.5 -16t-39.5 15l-256 256q-14 16 -14 36.5zM205 -256.5q0 20.5 14 37.5 l256 256q18 18 39 15t34 -16t16 -33.5t-15 -39.5l-221 -219l221 -219q18 -18 15 -39t-16 -34t-33.5 -16t-39.5 15l-256 256q-14 16 -14 36.5z" />
<glyph unicode="&#x2265;" horiz-adv-x="512" d="M-52 1021.5q-3 20.5 15 39.5l221 219l-221 219q-18 18 -15 39t16 34t33.5 16t39.5 -15l256 -256q14 -16 14 -37t-14 -37l-256 -256q-18 -18 -39 -15t-34 16t-16 33.5zM-51 0q0 8 5 19.5t9 17.5l242 239v492q0 16 9 27.5t22 19.5q10 8 28.5 3t28.5 -13l256 -256 q14 -16 14 -37t-14 -37l-477 -475l221 -219q14 -16 14 -36.5t-14 -37.5l-256 -256q-25 -23 -56.5 -10.5t-31.5 47.5v512z" />
<glyph unicode="&#x25ca;" d="M-52 -514.5q-3 20.5 15 39.5l477 475l-221 219q-18 18 -15 39t16 34t33.5 16t39.5 -15l256 -256q14 -16 14 -37t-14 -37l-512 -512q-18 -18 -39 -15t-34 16t-16 33.5zM-51 1023.5q0 20.5 14 37.5l256 256q18 18 39 15t34 -16t16 -33.5t-15 -39.5l-221 -219l440 -440 l184 184l-221 219q-14 16 -14 36.5t14 37.5l512 512q18 18 39 15t34 -16t16 -33.5t-15 -39.5l-477 -475l389 -389v389q0 18 14 37l512 512q18 18 39 15t34 -16t16 -33.5t-15 -39.5l-242 -239v-472l205 -204l184 184l-221 219q-14 16 -14 36.5t14 37.5l512 512q18 18 39 15 t34 -16t16 -33.5t-15 -39.5l-477 -475l477 -475q18 -18 15 -39t-16 -34t-33.5 -16t-39.5 15l-219 221l-184 -184l477 -475q14 -16 14 -37t-14 -37l-512 -512q-18 -18 -39 -15t-34 16t-16 33.5t15 39.5l477 475l-645 645v-369l242 -239q18 -18 15 -39t-16 -34t-33.5 -16 t-39.5 15l-168 170v-389q0 -16 -8 -25l-6 -12l-256 -256q-18 -18 -39 -15t-34 16t-16 33.5t15 39.5l221 219l-184 184l-475 -477q-18 -18 -39 -15t-34 16t-16 33.5t15 39.5l477 475l-989 987q-14 16 -14 36.5zM584 512l389 -389v369l-205 204z" />
<glyph unicode="&#x25fc;" horiz-adv-x="1587" d="M0 0v1587h1587v-1587h-1587z" />
<glyph unicode="&#xf8ff;" d="M-52 514q3 21 16 34t33.5 16t39.5 -15l256 -256l6 -12q8 -8 8 -25v-492l242 -239q18 -18 15 -39t-16 -34t-33.5 -16t-39.5 15l-256 256l-256 256q-14 16 -14 36.5t14 37.5l221 219l-221 219q-18 18 -15 39zM-52 1026q3 21 16 34t33.5 16t39.5 -15l219 -221l731 733 q18 18 39 15t34 -16t16 -33.5t-15 -39.5l-733 -731l696 -696l184 184l-221 219l-256 256q-14 16 -14 36.5t14 37.5l768 768q18 18 39 15t34 -16t16 -33.5t-15 -39.5l-477 -475l989 -987q18 -18 15 -39t-16 -34t-33.5 -16t-39.5 15l-936 938v-369l242 -239q4 -6 9 -17.5 t5 -19.5v-492l242 -239q18 -18 15 -39t-16 -34t-33.5 -16t-39.5 15l-256 256l-1280 1280q-18 18 -15 39zM-52 1538q3 21 16 34t33.5 16t39.5 -15l219 -221l219 221q18 18 39 15t34 -16t16 -34t-15 -39l-256 -256q-18 -14 -37 -14q-18 0 -37 14l-256 256q-18 18 -15 39z M461 -0.5q0 20.5 14 37.5q16 14 36.5 14t37.5 -14l512 -512q14 -16 14 -37t-14 -37q-16 -14 -36.5 -14t-37.5 14l-512 512q-14 16 -14 36.5zM1485 -0.5q0 20.5 14 37.5q16 14 36.5 14t37.5 -14l512 -512q14 -16 14 -37t-14 -37q-16 -14 -36.5 -14t-37.5 14l-512 512 q-14 16 -14 36.5zM1485 1023.5q0 20.5 14 37.5l512 512q18 18 39 15t34 -16t16 -33.5t-15 -39.5l-477 -475l477 -475q18 -18 15 -39t-16 -34t-33.5 -16t-39.5 15l-512 512q-14 16 -14 36.5z" />
<glyph unicode="&#xfb01;" d="M-52 514q3 21 16 34t33.5 16t39.5 -15l475 -477l1499 1501q18 18 39 15t34 -16t16 -33.5t-15 -39.5l-221 -219l221 -219q18 -18 15 -39t-16 -34t-33.5 -16t-39.5 15l-219 221l-184 -184l477 -475q18 -18 15 -39t-16 -34t-33.5 -16t-39.5 15l-168 170v-369l242 -239 q18 -18 15 -39t-16 -34t-33.5 -16t-39.5 15l-219 221l-184 -184l477 -475q18 -18 15 -39t-16 -34t-33.5 -16t-39.5 15l-512 512q-6 6 -10 17.5t-4 19.5v389l-389 -389l477 -475q18 -18 15 -39t-16 -34t-33.5 -16t-39.5 15l-512 512q-14 16 -14 36.5t14 37.5l498 495v369 l-901 -901l477 -475q18 -18 15 -39t-16 -34t-33.5 -16t-39.5 15l-1024 1024q-18 18 -15 39zM-52 1026q3 21 16 34t33.5 16t39.5 -15l424 -426v369l-498 495q-18 18 -15 39t16 34t33.5 16t39.5 -15l475 -477l184 184l-221 219q-18 18 -15 39t16 34t33.5 16t39.5 -15l256 -256 l6 -12q8 -8 8 -25v-389l389 389l-221 219q-18 18 -15 39t16 34t33.5 16t39.5 -15l256 -256q14 -16 14 -37t-14 -37l-512 -512q-12 -12 -53 -54t-87.5 -88t-85 -83t-49.5 -41q-31 -14 -55 10l-512 512q-18 18 -15 39zM-51 -0.5q0 20.5 14 37.5q16 14 36.5 14t37.5 -14 l512 -512q14 -16 14 -37t-14 -37q-16 -14 -36.5 -14t-37.5 14l-512 512q-14 16 -14 36.5z" />
<glyph unicode="&#xfb02;" d="M-52 -2.5q-3 20.5 15 39.5l754 751v369l-680 -682q-18 -18 -39 -15t-34 16t-16 33.5t15 39.5l242 239v369l-168 -170q-18 -18 -39 -15t-34 16t-16 33.5t15 39.5l256 256q16 14 36.5 14t37.5 -14l219 -221l475 477q18 18 39 15t34 -16t16 -33.5t-15 -39.5l-221 -219 l184 -184l475 477q18 18 39 15t34 -16t16 -33.5t-15 -39.5l-498 -495v-369l936 938q18 18 39 15t34 -16t16 -33.5t-15 -39.5l-989 -987l389 -389v389q0 8 5 19.5t9 17.5l512 512q18 18 39 15t34 -16t16 -33.5t-15 -39.5l-477 -475l184 -184l219 221q18 18 39 15t34 -16 t16 -34t-15 -39l-242 -239v-56.5t1 -96.5t1 -114.5v-113t-2 -88t-4 -41.5t-4 -10.5t-6 -8.5l-256 -256q-25 -23 -56.5 -10.5t-31.5 47.5v492l-205 204l-731 -733q-18 -18 -39 -15t-34 16t-16 33.5t15 39.5l733 731l-440 440l-731 -733q-18 -18 -39 -15t-34 16t-16 33.5z M-51 -512.5q0 20.5 14 37.5l768 768q18 18 39 15t34 -16t16 -34t-15 -39l-768 -768q-16 -14 -36.5 -14t-37.5 14q-14 16 -14 36.5zM972 -514.5q-3 20.5 15 39.5l256 256q18 18 39 15t34 -16t16 -34t-15 -39l-256 -256q-18 -18 -39 -15t-34 16t-16 33.5z" />
<glyph />
<glyph />
<glyph />
<glyph />
<glyph />
<glyph />
<glyph />
<glyph />
<glyph />
<glyph />
<glyph />
<glyph />
<glyph />
<glyph />
<glyph />
<glyph />
<glyph />
<glyph />
<glyph />
<glyph />
<glyph />
<glyph />
<glyph />
<glyph />
<glyph />
<glyph />
<glyph />
<glyph />
<glyph />
<glyph />
<glyph />
<glyph />
<glyph />
<glyph />
<glyph />
<glyph />
<glyph />
<glyph />
<glyph />
<glyph />
<glyph />
<glyph />
<glyph />
<glyph />
<glyph />
<glyph />
<glyph />
<glyph />
<glyph />
<glyph />
<glyph />
<glyph />
<glyph />
<glyph />
<glyph />
<glyph />
<glyph />
<glyph />
<glyph />
<glyph />
<glyph />
<glyph />
<glyph />
<glyph />
<glyph />
<glyph />
<glyph />
<glyph />
<glyph />
<glyph />
<glyph />
<glyph />
<glyph />
<glyph />
<glyph />
<glyph />
<glyph />
<glyph />
<glyph horiz-adv-x="1024" />
<glyph />
<glyph />
<glyph />
<glyph />
</font>
</defs>
</svg>
